osu file format v7

[General]
AudioFilename: Cartman_ft_Lady_Gaga_-_Poker_F.mp3
AudioLeadIn: 0
PreviewTime: 57198
Countdown: 1
SampleSet: Normal
StackLeniency: 0.7
Mode: 0
LetterboxInBreaks: 0

[Editor]
Bookmarks: 111022
DistanceSpacing: 1.10000002384186
BeatDivisor: 4
GridSize: 8

[Metadata]
Title:Poker Face
Artist:Eric Cartman
Creator:Larto
Version:Easy
Source:South Park
Tags:Trey Parker Lady Gaga Pokerface Wales Whales

[Difficulty]
HPDrainRate:2
CircleSize:3
OverallDifficulty:2
SliderMultiplier:1.2
SliderTickRate:2

[Events]
//Background and Video events
0,0,"cartmanpokerface.png"
//Break Periods
2,73787,80094
2,138324,144144
//Storyboard Layer 0 (Background)
//Storyboard Layer 1 (Fail)
//Storyboard Layer 2 (Pass)
//Storyboard Layer 3 (Foreground)
//Storyboard Sound Samples
//Background Colour Transformations
3,100,163,162,255

[TimingPoints]
982,504.201680672269,4,2,0,71,1,0
55435,-100,4,2,0,0,0,0
57199,-100,4,1,0,71,0,0
57451,-100,4,1,0,71,0,1
73587,-100,4,1,0,71,0,0
73713,-100,4,2,0,71,0,0
111906,-100,4,2,0,0,0,0
113670,-100,4,1,0,71,0,0
113922,-100,4,1,0,71,0,1
130059,-100,4,1,0,71,0,0
145704,504.201680672269,4,1,0,71,1,0
146208,504.201680672269,4,1,0,71,1,0
160325,-100,4,1,0,0,0,0
162090,-100,4,2,0,71,0,0
170157,-100,4,1,0,71,0,0
170389,504.201680672269,4,1,0,71,1,1
178461,504.201680672269,4,1,0,71,1,1
194595,-100,4,1,0,71,0,0

[HitObjects]
48,192,25183,5,4
136,88,25687,1,8
256,32,26192,1,2
376,88,26696,1,8
464,192,27200,2,0,B|440:312|240:344|192:176,1,360,2|8
136,80,29217,6,4,B|400:80,2,240,4|2|2
192,176,31738,1,8
320,176,32242,1,2
256,272,32746,1,8
254,367,33250,6,0,B|142:367|10:351|-34:-10|278:15,1,600,4|8
256,136,36276,1,2
256,256,36780,1,2
258,367,37284,6,0,B|370:367|502:351|546:-10|234:15,1,600,4|8
256,136,40309,1,2
256,256,40813,1,8
136,312,41318,6,4,B|88:232|104:200|184:184|176:120|120:72,1,240,4|2
48,144,42830,1,8
27,256,43334,2,0,B|85:295|197:343|312:296|372:251,1,360,4|8
392,80,45351,5,4
256,80,45855,1,8
120,80,46360,1,2
64,304,47368,5,4
192,304,47872,1,8
320,304,48376,1,2
448,304,48881,1,2
368,176,49385,6,0,B|299:122|213:124|143:177,1,240,4|2
256,248,50897,1,8
144,312,51402,2,0,B|213:366|299:364|369:311,1,240,4|2
480,256,52914,1,8
376,192,53418,6,0,B|121:192,1,240,4|2
256,192,55435,12,4,57452
136,96,58460,5,0
256,96,58965,1,8
376,96,59469,1,4
376,288,60477,5,0
256,288,60981,1,8
136,288,61486,2,0,B|80:312|32:264|32:224,3,120,4|8|0|8
76,148,63503,6,0,B|444:148,1,360,4|8
440,32,65519,6,0,B|304:32,1,120,4|8
200,32,66528,2,0,B|64:32,1,120,4|8
72,144,67536,1,4
192,112,68040,1,8
320,144,68545,1,2
440,112,69049,1,8
400,248,69553,6,4,B|384:328|256:368|128:336|112:240,1,360,4|8
256,192,71570,12,4,73587
120,312,81654,5,4
120,72,82663,1,2
392,72,83671,1,4
392,312,84680,1,2
120,312,85687,5,4
120,72,86696,1,2
392,72,87704,1,4
392,312,88713,1,2
328,232,89217,1,8
256,312,89721,6,0,B|192:336|128:312,1,120,4|8
32,240,90729,2,0,B|8:176|32:120,1,120,2|8
144,64,91738,2,0,B|272:-16|392:80,1,240,2|2
256,112,93250,1,2
256,248,93755,5,4
184,360,94259,1,8
328,360,94763,1,2
384,248,95267,1,8
328,136,95771,1,2
184,136,96276,1,8
128,248,96780,1,2
256,248,97284,1,8
368,192,97788,6,0,B|456:208|456:312|424:368|344:368,1,240,4|2
256,336,99301,1,8
141,365,99805,2,0,B|80:352|56:296|60:204|148:191,1,240,4|2
256,160,101318,1,2
256,40,101822,5,4
144,56,102326,1,8
64,136,102830,1,2
88,344,103839,5,2
200,304,104343,1,8
312,344,104847,1,2
424,304,105351,1,2
376,192,105855,6,0,B|128:192,1,240,4|2
48,128,107368,1,8
136,64,107872,2,0,B|384:64,1,240,4|2
464,128,109385,1,2
384,232,109889,5,4
256,272,110393,1,8
128,232,110897,1,2
256,192,111906,12,4,113923
376,288,114931,5,0
256,288,115435,1,8
136,288,115939,1,4
136,96,116948,5,2
256,96,117452,1,8
376,96,117956,2,0,B|432:72|480:120|480:160,3,120,4|8|0|8
436,236,119973,6,0,B|68:236,1,360,4|8
72,352,121990,6,0,B|208:352,1,120,4|8
312,352,122998,2,0,B|448:352,1,120,4|8
440,240,124007,1,4
320,272,124511,1,8
192,240,125015,1,2
72,272,125519,1,8
112,136,126024,6,4,B|128:56|256:16|384:48|400:144,1,360,4|8
256,192,128040,12,8,129553
152,96,130561,5,8
256,128,131066,1,2
368,96,131570,1,2
472,128,132074,2,0,B|536:176|536:248|464:296,1,180,4|2
312,256,133587,5,8
416,208,134091,1,4
360,96,134595,5,8
256,128,135100,1,2
144,96,135604,1,2
40,128,136108,2,0,B|-24:176|-24:248|48:296,1,180,4|2
200,256,137620,5,8
96,208,138124,1,4
200,304,145704,5,8
101,304,146208,2,0,B|24:192|106:64,1,240,4|2
411,304,148224,2,0,B|488:192|406:64,1,240,4|2
320,80,149737,5,8
360,176,150241,2,0,B|376:272|272:320|196:279,1,240,4|2
152,176,151754,1,8
256,192,152258,5,6
256,192,152762,1,8
256,192,153266,1,2
256,192,153771,1,2
256,192,154275,1,4
352,136,154779,6,0,B|330:65|194:52|157:138,1,240,8|8
256,192,156292,1,6
352,248,156796,2,0,B|330:319|194:332|157:246,1,240,8|8
256,192,158308,1,6
344,136,158813,1,8
344,32,159317,6,2,B|152:32,1,180,2|6
256,192,160451,12,4,162342
144,192,163350,5,0
144,192,163855,1,8
144,192,164359,1,4
256,192,165367,5,2
256,192,165872,1,8
256,192,166376,1,4
368,192,167384,5,0
368,192,167889,1,8
256,192,168392,12,4,170389
144,72,171397,5,0
256,96,171901,1,8
368,72,172405,1,4
368,312,173414,5,0
256,288,173918,1,8
144,312,174422,1,4
16,192,175431,6,0,B|288:192,1,240,2|4
496,192,177447,5,0
432,112,177952,1,8
376,32,178461,6,0,B|128:32,3,240,4|0|4|2
80,240,182494,6,0,B|216:240,1,120,4|8
320,240,183503,2,0,B|456:240,1,120,6|8
256,192,184511,12,4,186528
128,64,187536,5,4
384,64,188545,1,4
384,320,189553,1,4
256,320,190057,1,8
128,320,190562,1,4
256,192,191570,5,6
256,192,192578,12,4,194595
