osu file format v14

[General]
AudioFilename: Ring of Fortune.mp3
AudioLeadIn: 0
PreviewTime: 149465
Countdown: 1
SampleSet: Soft
StackLeniency: 0.7
Mode: 0
LetterboxInBreaks: 1
WidescreenStoryboard: 1

[Editor]
Bookmarks: 134370
DistanceSpacing: 1
BeatDivisor: 2
GridSize: 4
TimelineZoom: 1

[Metadata]
Title:Ring of Fortune
TitleUnicode:Ring of Fortune
Artist:Eri Sasaki
ArtistUnicode:佐々木恵梨
Creator:hvick225
Version:Collab Easy
Source:プラスティック・メモリーズ
Tags:anime plastic memories opening full ver Taeyang Enjoy - e n j u - enju Sellenite DreaM117er m1223961117
BeatmapID:730918
BeatmapSetID:322103

[Difficulty]
HPDrainRate:2
CircleSize:3
OverallDifficulty:2
ApproachRate:3
SliderMultiplier:0.899999999999999
SliderTickRate:1

[Events]
//Background and Video events
0,0,"ISLA.jpg",0,0
//Break Periods
2,178051,188753
2,202545,206981
//Storyboard Layer 0 (Background)
//Storyboard Layer 1 (Fail)
//Storyboard Layer 2 (Pass)
//Storyboard Layer 3 (Foreground)
//Storyboard Sound Samples

[TimingPoints]
870,405.405405405405,4,2,0,50,1,0
4518,-100,4,2,1,30,0,0
7761,-100,4,2,0,50,0,0
10194,379.746835443038,4,2,0,50,1,0
10953,379.746835443038,4,2,1,50,1,0
27661,-100,4,2,0,50,0,0
29180,-100,4,2,1,50,0,0
39813,-100,4,2,1,40,0,0
51965,-100,4,2,1,60,0,0
70193,-100,4,2,1,60,0,1
97535,-100,4,2,1,60,0,0
108168,-100,4,2,1,50,0,0
132471,-100,4,2,1,60,0,0
150699,-100,4,2,1,60,0,1
177851,-100,4,2,1,60,0,0
202345,-100,4,2,1,50,0,0
212788,-100,4,2,1,60,0,0
214497,-100,4,2,1,60,0,1
241839,-100,4,2,1,60,0,0
250953,-100,4,2,1,40,0,0
252471,-100,4,2,1,20,0,0
253990,-100,4,2,1,5,0,0
257028,-100,4,2,1,5,0,0

[Colours]
Combo1 : 255,30,30
Combo2 : 128,255,255
Combo3 : 18,124,255

[HitObjects]
336,264,870,5,0,0:0:0:0:
416,220,1275,2,0,P|424:300|380:344,2,135,0|2|0,0:0|0:0|0:0,0:0:0:0:
364,144,2897,2,0,L|176:164,1,180,0|0,0:0|0:0,0:0:0:0:
80,308,4518,6,0,P|140:332|212:324,1,135,2|0,0:0|0:0,0:0:0:0:
280,268,5532,2,0,P|324:248|372:248,1,89.9999999999999,0|2,0:0|0:0,0:0:0:0:
444,200,6342,2,0,L|448:64,1,135,0|0,0:0|0:0,0:0:0:0:
364,32,7356,1,0,0:0:0:0:
284,72,7761,6,0,P|216:56|140:80,2,135,2|0|0,0:0|0:0|0:0,0:0:0:0:
360,124,9383,2,0,P|432:140|492:108,2,135,2|0|0,0:0|0:0|0:0,0:0:0:0:
284,72,10953,6,0,L|148:76,1,135,8|8,0:0|0:0,0:0:0:0:
80,192,12092,2,0,L|216:188,1,135,4|8,0:0|0:0,0:0:0:0:
332,256,13231,2,0,P|376:248|424:260,1,89.9999999999999,8|8,0:0|0:0,0:0:0:0:
376,336,13990,6,0,P|304:344|236:260,1,180,8|0,0:0|0:0,0:0:0:0:
236,180,15130,1,8,0:0:0:0:
264,96,15509,2,0,P|308:88|356:92,2,89.9999999999999,0|8|0,0:0|0:0|0:0,0:0:0:0:
184,52,16649,2,0,L|80:48,1,89.9999999999999,8|0,0:0|0:0,0:0:0:0:
40,120,17408,5,8,0:0:0:0:
88,196,17788,2,0,P|68:264|92:344,2,135,0|0|8,0:0|0:0|0:0,0:0:0:0:
152,260,19307,2,0,P|200:260|256:248,1,89.9999999999999,8|8,0:0|0:0,0:0:0:0:
296,180,20066,6,0,P|340:180|392:192,1,89.9999999999999,2|8,0:0|0:0,0:0:0:0:
432,268,20826,2,0,P|472:200|452:124,2,135,0|0|8,0:0|0:0|0:0,0:0:0:0:
352,312,22345,2,0,P|304:316|264:328,1,89.9999999999999,0|8,0:0|0:0,0:0:0:0:
176,340,23104,6,0,P|112:320|28:316,1,135,8|4,0:0|0:0,0:0:0:0:
8,232,24054,1,4,0:0:0:0:
68,164,24434,2,0,P|72:120|64:72,1,89.9999999999999,8|0,0:0|0:0,0:0:0:0:
152,52,25193,6,0,P|208:32|240:160,1,225,8|0,0:0|0:0,0:0:0:0:
212,332,26902,2,0,P|256:328|308:336,1,89.9999999999999,0|0,0:0|0:0,0:0:0:0:
388,352,27661,6,0,P|440:296|416:188,1,180,2|0,0:0|0:0,0:0:0:0:
320,116,28990,2,0,B|276:132|276:132|184:92,1,135,0|0,0:0|0:0,0:0:0:0:
116,52,29940,2,0,P|108:100|116:140,1,89.9999999999999,0|0,0:0|0:0,0:0:0:0:
64,216,30699,1,2,0:0:0:0:
136,332,31269,2,0,P|192:288|272:296,1,135,0|0,0:0|0:0,0:0:0:0:
328,340,32218,6,0,L|480:328,1,135,2|0,0:0|0:0,0:0:0:0:
492,244,33168,1,0,0:0:0:0:
452,116,33737,6,0,P|388:100|308:152,1,135,2|0,0:0|0:0,0:0:0:0:
224,212,34877,1,0,0:0:0:0:
148,168,35256,2,0,L|156:32,2,135,2|0|0,0:0|0:0|0:0,0:0:0:0:
88,236,36775,6,0,B|100:296|100:296|160:272|248:308,1,180,2|0,0:0|0:0,0:0:0:0:
356,180,38294,1,0,0:0:0:0:
412,252,38674,2,0,L|408:352,2,89.9999999999999,0|0|0,0:0|0:0|0:0,0:0:0:0:
356,180,39813,6,0,B|302:158|276:144|276:144|252:40,1,180,4|0,0:0|0:0,0:0:0:0:
172,20,40953,1,0,0:0:0:0:
132,100,41332,2,0,P|88:108|36:104,1,89.9999999999999,2|0,0:0|0:0,0:0:0:0:
24,192,42092,2,0,P|24:236|36:284,1,89.9999999999999,0|0,0:0|0:0,0:0:0:0:
108,332,42851,6,0,P|196:322|288:320,1,180,2|0,0:0|0:0,0:0:0:0:
404,252,44180,2,0,P|392:184|384:64,1,180,0|0,0:0|0:0,0:0:0:0:
260,132,45509,5,0,0:0:0:0:
188,80,45889,2,0,P|132:64|36:72,1,135,0|2,0:0|0:0,0:0:0:0:
16,196,47028,1,0,0:0:0:0:
68,268,47408,2,0,L|224:256,1,135,2|0,0:0|0:0,0:0:0:0:
324,316,48547,1,0,0:0:0:0:
384,248,48927,6,0,P|384:172|416:108,2,135,2|0|0,0:0|0:0|0:0,0:0:0:0:
228,336,50826,1,0,0:0:0:0:
148,296,51206,2,0,P|100:288|48:288,1,89.9999999999999,8|8,0:0|0:0,0:0:0:0:
20,204,51965,6,0,P|16:156|16:80,1,89.9999999999999,4|2,0:0|0:0,0:0:0:0:
80,52,52725,2,0,B|156:80|196:32|288:56,1,180,2|0,0:0|0:0,0:0:0:0:
324,112,53864,1,0,0:0:0:0:
404,72,54244,2,0,P|412:116|396:172,1,89.9999999999999,8|0,0:0|0:0,0:0:0:0:
456,232,55003,6,0,B|396:252|396:252|252:196,1,180,2|2,0:0|0:0,0:0:0:0:
208,168,56142,1,0,0:0:0:0:
132,212,56522,2,0,P|88:208|16:216,2,89.9999999999999,0|2|2,0:0|0:0|0:0,0:0:0:0:
88,292,57661,1,2,0:0:0:0:
164,344,58041,6,0,P|216:316|320:324,2,135,2|0|2,0:0|0:0|0:0,0:0:0:0:
88,292,59560,2,0,P|72:248|72:164,2,89.9999999999999,2|2|2,0:0|0:0|0:0,0:0:0:0:
156,232,60699,1,2,0:0:0:0:
140,144,61079,6,0,P|88:120|0:140,2,135,2|0|2,0:0|0:0|0:0,0:0:0:0:
224,108,62598,2,0,P|264:120|320:116,2,89.9999999999999,2|2|2,0:0|0:0|0:0,0:0:0:0:
276,32,63737,1,8,0:0:0:0:
364,40,64117,6,0,P|400:84|376:188,1,135,8|4,0:0|0:0,0:0:0:0:
348,236,65066,1,2,0:0:0:0:
300,312,65446,2,0,P|252:308|208:328,1,89.9999999999999,4|0,0:0|0:0,0:0:0:0:
164,248,66206,2,0,P|116:252|72:232,1,89.9999999999999,4|8,0:0|0:0,0:0:0:0:
28,160,66965,6,0,P|84:120|84:40,1,135,4|8,0:0|0:0,0:0:0:0:
180,80,67915,2,0,B|260:56|260:56|344:88,2,135,8|4|8,0:0|0:0|0:0,0:0:0:0:
124,344,70193,6,0,P|172:348|228:332,1,89.9999999999999,4|8,0:0|0:0,0:0:0:0:
276,276,70953,2,0,L|440:288,1,135,0|2,0:0|0:0,0:0:0:0:
480,172,72092,2,0,P|484:128|468:80,1,89.9999999999999,8|0,0:0|0:0,0:0:0:0:
392,40,72851,1,8,0:0:0:0:
368,128,73231,6,0,B|320:104|304:64|304:64|276:92|204:84,1,180,0|0,0:0|0:0,0:0:0:0:
92,52,74560,2,0,B|76:140|76:140|112:200,1,135,2|8,0:0|0:0,0:0:0:0:
120,268,75509,6,0,P|75:265|32:276,2,89.9999999999999,0|8|0,0:0|0:0|0:0,0:0:0:0:
180,336,76649,1,8,0:0:0:0:
244,272,77028,2,0,P|252:208|240:120,2,135,0|2|8,0:0|0:0|0:0,0:0:0:0:
316,328,78547,2,0,L|412:320,1,89.9999999999999,0|8,0:0|0:0,0:0:0:0:
464,252,79307,6,0,P|472:212|472:152,1,89.9999999999999,0|8,0:0|0:0,0:0:0:0:
444,76,80066,2,0,P|384:100|292:92,1,135,0|2,0:0|0:0,0:0:0:0:
228,76,81016,1,0,0:0:0:0:
164,12,81396,2,0,P|132:72|156:136,1,135,0|8,0:0|0:0,0:0:0:0:
80,184,82345,6,0,L|216:204,1,135,0|2,0:0|0:0,0:0:0:0:
300,224,83294,1,0,0:0:0:0:
372,280,83674,2,0,P|315:314|252:297,1,135,2|8,0:0|0:0,0:0:0:0:
300,224,84623,2,0,P|336:196|388:192,1,89.9999999999999,0|8,0:0|0:0,0:0:0:0:
436,120,85383,6,0,B|404:80|404:80|364:92|316:80,1,135,0|2,0:0|0:0,0:0:0:0:
240,48,86332,1,0,0:0:0:0:
184,116,86712,2,0,L|84:104,1,89.9999999999999,6|4,0:0|0:0,0:0:0:0:
56,188,87471,2,0,L|156:200,1,89.9999999999999,6|4,0:0|0:0,0:0:0:0:
280,200,88421,6,0,P|356:184|452:184,2,135,0|6|8,0:0|0:0|0:0,0:0:0:0:
212,256,89940,2,0,L|220:112,1,135,0|6,0:0|0:0,0:0:0:0:
144,72,90889,1,2,0:0:0:0:
68,24,91269,6,0,P|56:96|124:156,2,135,2|12|2,0:0|0:0|0:0,0:0:0:0:
144,72,92788,2,0,P|200:62|296:60,1,135,6|8,0:0|0:0,0:0:0:0:
360,96,93737,1,0,0:0:0:0:
448,200,94307,2,0,L|444:352,1,135,6|8,0:0|0:0,0:0:0:0:
356,352,95256,2,0,P|304:336|212:336,1,135,0|6,0:0|0:0,0:0:0:0:
172,260,96206,2,0,L|80:264,1,89.9999999999999,4|6,0:0|0:0,0:0:0:0:
56,176,96965,6,0,L|204:168,1,135,4|4,0:0|0:0,0:0:0:0:
256,108,97915,1,8,0:0:0:0:
328,56,98294,2,0,P|376:56|420:68,1,89.9999999999999,0|8,0:0|0:0,0:0:0:0:
452,148,99054,2,0,P|448:196|460:244,1,89.9999999999999,0|8,0:0|0:0,0:0:0:0:
408,312,99813,2,0,B|340:296|324:320|296:340|216:304,1,180,0|0,0:0|0:0,0:0:0:0:
148,280,100953,5,8,0:0:0:0:
68,240,101332,2,0,P|60:196|64:132,1,89.9999999999999,0|8,0:0|0:0,0:0:0:0:
112,76,102092,2,0,L|256:64,2,135,0|0|8,0:0|0:0|0:0,0:0:0:0:
60,150,103611,6,0,P|60:216|80:312,1,135,0|4,0:0|0:0,0:0:0:0:
144,336,104560,1,4,0:0:0:0:
224,292,104940,2,0,P|268:284|320:292,1,89.9999999999999,8|0,0:0|0:0,0:0:0:0:
384,348,105699,6,0,P|480:320|468:180,1,225,8|0,0:0|0:0,0:0:0:0:
312,192,107408,2,0,P|304:144|312:100,1,89.9999999999999,0|0,0:0|0:0,0:0:0:0:
248,40,108168,6,0,P|188:68|68:56,1,180,0|0,0:0|0:0,0:0:0:0:
36,188,109497,2,0,B|56:236|20:272|48:340,1,135,0|0,0:0|0:0,0:0:0:0:
128,352,110446,2,0,P|176:348|228:336,1,89.9999999999999,0|0,0:0|0:0,0:0:0:0:
296,292,111206,1,2,0:0:0:0:
180,220,111775,2,0,P|160:160|156:80,1,135,0|0,0:0|0:0,0:0:0:0:
228,36,112725,6,0,P|296:40|384:52,1,135,2|0,0:0|0:0,0:0:0:0:
436,100,113674,1,0,0:0:0:0:
372,220,114244,6,0,P|392:284|360:360,2,135,2|0|0,0:0|0:0|0:0,0:0:0:0:
308,284,115763,2,0,B|248:308|248:308|160:296,1,135,2|0,0:0|0:0,0:0:0:0:
52,252,116902,1,0,0:0:0:0:
24,168,117282,2,0,B|44:92|24:32|24:32|40:56|64:68,1,180,2|0,0:0|0:0,0:0:0:0:
224,124,118801,1,2,0:0:0:0:
300,172,119180,2,0,P|344:176|396:168,2,89.9999999999999,0|0|2,0:0|0:0|0:0,0:0:0:0:
224,124,120320,6,0,B|200:72|200:72|144:96|76:72,1,180,4|0,0:0|0:0,0:0:0:0:
48,156,121459,1,0,0:0:0:0:
84,240,121839,2,0,P|136:236|180:228,1,89.9999999999999,2|0,0:0|0:0,0:0:0:0:
252,276,122598,2,0,P|304:280|348:288,1,89.9999999999999,0|0,0:0|0:0,0:0:0:0:
412,340,123358,6,0,P|400:252|396:160,1,180,2|0,0:0|0:0,0:0:0:0:
296,68,124687,2,0,B|240:100|240:100|192:44|112:76,1,180,2|0,0:0|0:0,0:0:0:0:
44,168,126016,5,2,0:0:0:0:
64,256,126396,2,0,P|128:276|196:268,1,135,2|2,0:0|0:0,0:0:0:0:
320,216,127535,1,0,0:0:0:0:
256,152,127915,2,0,L|268:16,2,135,0|0|0,0:0|0:0|0:0,0:0:0:0:
320,216,129434,6,0,P|384:224|472:212,2,135,2|2|2,0:0|0:0|0:0,0:0:0:0:
216,72,131332,1,0,0:0:0:0:
136,32,131712,2,0,P|89:34|32:44,1,89.9999999999999,8|8,0:0|0:0,0:0:0:0:
24,128,132471,6,0,P|24:180|44:240,1,89.9999999999999,4|2,0:0|0:0,0:0:0:0:
104,272,133231,2,0,B|220:300|220:300|296:252,1,180,2|2,0:0|0:0,0:0:0:0:
324,196,134370,1,2,0:0:0:0:
276,120,134750,2,0,L|239:114|187:106,1,89.9999999999999,2|0,0:0|0:0,0:0:0:0:
100,120,135509,6,0,P|96:76|64:24,1,89.9999999999999,2|0,0:0|0:0,0:0:0:0:
12,100,136269,2,0,P|22:166|32:304,1,180,0|0,0:0|0:0,0:0:0:0:
84,352,137408,1,0,0:0:0:0:
168,320,137788,2,0,P|231:312|271:310,1,89.9999999999999,2|0,0:0|0:0,0:0:0:0:
344,284,138547,6,0,P|388:304|488:304,2,135,2|0|2,0:0|0:0|0:0,0:0:0:0:
324,196,140066,2,0,P|379:185|432:168,2,89.9999999999999,2|2|2,0:0|0:0|0:0,0:0:0:0:
236,204,141206,1,2,0:0:0:0:
156,160,141585,6,0,L|140:8,2,135,2|0|2,0:0|0:0|0:0,0:0:0:0:
96,228,143104,2,0,P|36:216|-4:212,2,89.9999999999999,2|2|2,0:0|0:0|0:0,0:0:0:0:
176,272,144244,1,8,0:0:0:0:
244,332,144623,6,0,P|312:324|404:316,1,135,8|4,0:0|0:0,0:0:0:0:
464,344,145573,1,2,0:0:0:0:
500,260,145953,2,0,P|504:200|504:152,1,89.9999999999999,4|0,0:0|0:0,0:0:0:0:
452,96,146712,2,0,L|348:108,1,89.9999999999999,4|8,0:0|0:0,0:0:0:0:
292,160,147471,6,0,L|140:144,1,135,4|8,0:0|0:0,0:0:0:0:
72,168,148421,2,0,B|56:80|56:80|76:24,2,135,8|4|8,0:0|0:0|0:0,0:0:0:0:
248,372,150699,6,0,P|256:308|244:268,1,89.9999999999999,4|8,0:0|0:0,0:0:0:0:
180,228,151459,2,0,L|28:244,2,135,0|2|8,0:0|0:0|0:0,0:0:0:0:
264,196,152978,2,0,P|268:144|296:92,1,89.9999999999999,0|8,0:0|0:0,0:0:0:0:
352,52,153737,6,0,P|280:44|160:36,1,180,0|0,0:0|0:0,0:0:0:0:
48,84,155066,2,0,P|59:150|66:217,1,135,2|8,0:0|0:0,0:0:0:0:
64,308,156016,2,0,P|104:300|168:300,1,89.9999999999999,0|8,0:0|0:0,0:0:0:0:
224,356,156775,6,0,P|268:364|313:365,1,89.9999999999999,0|8,0:0|0:0,0:0:0:0:
383,308,157535,2,0,P|450:304|510:334,2,135,0|2|8,0:0|0:0|0:0,0:0:0:0:
340,228,159054,2,0,P|384:221|428:213,1,89.9999999999999,0|8,0:0|0:0,0:0:0:0:
488,144,159813,6,0,P|444:132|388:132,1,89.9999999999999,0|8,0:0|0:0,0:0:0:0:
316,100,160573,2,0,P|264:112|172:116,1,135,0|2,0:0|0:0,0:0:0:0:
96,88,161522,1,0,0:0:0:0:
44,160,161902,2,0,B|60:248|60:248|44:312,1,135,2|8,0:0|0:0,0:0:0:0:
80,376,162851,5,0,0:0:0:0:
168,360,163231,2,0,P|164:296|156:208,1,135,8|0,0:0|0:0,0:0:0:0:
188,140,164180,1,2,0:0:0:0:
108,28,164750,2,0,P|60:24|8:16,2,89.9999999999999,8|0|8,0:0|0:0|0:0,0:0:0:0:
196,48,165889,6,0,P|288:40|388:36,1,180,0|0,0:0|0:0,0:0:0:0:
492,104,167218,2,0,P|494:55|504:-4,2,89.9999999999999,6|4|6,0:0|0:0|0:0,0:0:0:0:
496,196,168358,1,4,0:0:0:0:
368,236,168927,6,0,P|320:200|236:200,2,135,0|4|8,0:0|0:0|0:0,0:0:0:0:
416,312,170446,2,0,L|281:326,1,135,0|6,0:0|0:0,0:0:0:0:
196,296,171396,1,0,0:0:0:0:
132,232,171775,6,0,P|80:264|4:260,2,135,2|12|0,0:0|0:0|0:0,0:0:0:0:
216,204,173294,2,0,P|283:206|350:216,1,135,6|8,0:0|0:0,0:0:0:0:
432,176,174244,2,0,P|396:232|412:316,2,135,0|6|8,0:0|0:0|0:0,0:0:0:0:
404,88,175763,6,0,P|336:86|264:76,1,135,0|6,0:0|0:0,0:0:0:0:
180,96,176712,1,4,0:0:0:0:
92,124,177092,2,0,L|80:16,2,89.9999999999999,4|4|0,0:0|0:0|0:0,0:0:0:0:
344,332,190193,6,0,P|272:336|208:356,2,135,2|0|2,0:0|0:0|0:0,0:0:0:0:
412,272,191712,2,0,P|456:268|504:260,2,89.9999999999999,2|2|2,0:0|0:0|0:0,0:0:0:0:
336,224,192851,1,2,0:0:0:0:
396,156,193231,6,0,P|404:100|352:28,2,135,2|0|2,0:0|0:0|0:0,0:0:0:0:
336,224,194750,2,0,P|275:219|235:209,1,89.9999999999999,2|2,0:0|0:0,0:0:0:0:
195,139,195509,2,0,P|150:130|105:127,1,89.9999999999999,2|8,0:0|0:0,0:0:0:0:
36,72,196269,6,0,B|52:160|52:160|40:220,1,135,8|2,0:0|0:0,0:0:0:0:
12,288,197218,1,0,0:0:0:0:
100,276,197598,2,0,P|164:280|204:288,1,89.9999999999999,4|0,0:0|0:0,0:0:0:0:
256,344,198358,2,0,P|301:337|360:336,1,89.9999999999999,4|0,0:0|0:0,0:0:0:0:
436,324,199117,6,0,P|408:272|432:188,1,135,4|8,0:0|0:0,0:0:0:0:
348,152,200066,2,0,P|414:142|481:134,2,135,8|4|8,0:0|0:0|0:0,0:0:0:0:
272,200,201585,1,0,0:0:0:0:
192,160,201965,1,0,0:0:0:0:
112,200,202345,5,0,0:0:0:0:
12,48,208421,6,0,L|24:160,1,89.9999999999999,0|2,0:0|0:0,0:0:0:0:
108,168,209180,2,0,P|106:123|122:81,1,89.9999999999999,0|0,0:0|0:0,0:0:0:0:
196,136,209940,2,0,P|188:204|182:332,1,180,0|0,0:0|0:0,0:0:0:0:
248,376,211079,1,0,0:0:0:0:
336,356,211459,6,0,P|332:304|320:200,1,135,0|0,0:0|0:0,0:0:0:0:
304,132,212408,1,0,0:0:0:0:
392,160,212788,2,0,P|444:156|496:68,1,135,4|8,0:0|0:0,0:0:0:0:
448,16,213737,1,8,0:0:0:0:
368,56,214117,1,8,0:0:0:0:
283,27,214497,6,0,P|239:20|194:18,1,89.9999999999999,4|8,0:0|0:0,0:0:0:0:
124,76,215256,2,0,P|69:38|2:41,2,135,0|2|8,0:0|0:0|0:0,0:0:0:0:
164,155,216775,2,0,P|159:200|156:245,1,89.9999999999999,0|8,0:0|0:0,0:0:0:0:
216,312,217535,6,0,P|260:306|328:304,1,89.9999999999999,0|8,0:0|0:0,0:0:0:0:
376,248,218294,2,0,P|356:308|392:384,2,135,0|2|8,0:0|0:0|0:0,0:0:0:0:
424,171,219813,2,0,P|428:124|429:82,1,89.9999999999999,0|8,0:0|0:0,0:0:0:0:
372,12,220573,6,0,L|264:24,1,89.9999999999999,0|8,0:0|0:0,0:0:0:0:
228,96,221332,2,0,P|292:108|340:164,2,135,0|0|8,0:0|0:0|0:0,0:0:0:0:
140,120,222851,1,0,0:0:0:0:
64,68,223231,1,8,0:0:0:0:
4,136,223611,6,0,L|16:252,1,89.9999999999999,0|8,0:0|0:0,0:0:0:0:
52,308,224370,2,0,P|104:268|180:276,1,135,0|2,0:0|0:0,0:0:0:0:
244,324,225320,1,0,0:0:0:0:
328,356,225699,2,0,P|372:362|417:365,1,89.9999999999999,2|0,0:0|0:0,0:0:0:0:
496,256,226649,6,0,L|484:96,1,135,0|2,0:0|0:0,0:0:0:0:
504,32,227598,1,0,0:0:0:0:
416,60,227978,2,0,P|352:52|256:44,1,135,2|8,0:0|0:0,0:0:0:0:
204,92,228927,2,0,P|159:87|114:80,1,89.9999999999999,0|8,0:0|0:0,0:0:0:0:
36,124,229687,6,0,P|0:188|36:296,1,180,0|0,0:0|0:0,0:0:0:0:
148,348,231016,2,0,P|192:353|237:357,2,89.9999999999999,6|4|6,0:0|0:0|0:0,0:0:0:0:
116,264,232155,1,0,0:0:0:0:
204,160,232725,6,0,P|278:167|356:180,2,135,0|6|8,0:0|0:0|0:0,0:0:0:0:
128,112,234244,2,0,P|72:112|20:40,1,135,0|6,0:0|0:0,0:0:0:0:
108,28,235193,1,0,0:0:0:0:
196,48,235573,6,0,P|264:45|332:40,2,135,2|12|0,0:0|0:0|0:0,0:0:0:0:
128,112,237092,2,0,P|144:180|148:261,1,135,6|8,0:0|0:0,0:0:0:0:
196,324,238041,2,0,P|144:292|52:304,2,135,0|4|8,0:0|0:0|0:0,0:0:0:0:
272,280,239560,6,0,P|344:294|412:296,1,135,0|6,0:0|0:0,0:0:0:0:
488,260,240509,1,4,0:0:0:0:
456,176,240889,1,4,0:0:0:0:
472,88,241269,1,0,0:0:0:0:
356,16,241839,6,0,P|304:20|232:32,1,89.9999999999999,4|8,0:0|0:0,0:0:0:0:
184,64,242598,2,0,P|140:32|44:36,2,135,0|0|8,0:0|0:0|0:0,0:0:0:0:
232,140,244117,2,0,P|225:184|223:229,1,89.9999999999999,0|8,0:0|0:0,0:0:0:0:
244,316,244877,6,0,P|296:308|368:304,1,89.9999999999999,0|8,0:0|0:0,0:0:0:0:
376,224,245636,2,0,B|464:236|464:236|536:212,2,135,0|0|8,0:0|0:0|0:0,0:0:0:0:
296,180,247155,2,0,P|298:135|303:90,1,89.9999999999999,0|8,0:0|0:0,0:0:0:0:
232,32,247915,6,0,P|184:77|118:81,1,135,0|4,0:0|0:0,0:0:0:0:
36,44,248864,1,4,0:0:0:0:
44,132,249244,2,0,L|50:221,2,89.9999999999999,8|8|8,0:0|0:0|0:0,0:0:0:0:
256,192,250193,12,0,257028,0:0:0:0:
