osu file format v14

[General]
AudioFilename: Eri Sasaki - Ring of Fortune (Zekk Remix).mp3
AudioLeadIn: 0
PreviewTime: 115557
Countdown: 0
SampleSet: Normal
StackLeniency: 0.7
Mode: 1
LetterboxInBreaks: 0
WidescreenStoryboard: 0

[Editor]
Bookmarks: 34385,56328,72785,94728,116671,149585,171528,187985,209928,231871,256557,278500,300442,322385
DistanceSpacing: 0.6
BeatDivisor: 4
GridSize: 32
TimelineZoom: 1

[Metadata]
Title:Ring of Fortune (Zekk Remix)
TitleUnicode:Ring of Fortune (Zekk Remix)
Artist:Eri Sasaki
ArtistUnicode:佐々木恵梨
Creator:Nardoxyribonucleic
Version:Remembrance
Source:プラスティック・メモリーズ
Tags:Taiko Plastic Memories Opening TKS
BeatmapID:1435412
BeatmapSetID:678866

[Difficulty]
HPDrainRate:5.5
CircleSize:5
OverallDifficulty:6
ApproachRate:7
SliderMultiplier:1.4
SliderTickRate:1

[Events]
//Background and Video events
0,0,"Isla.jpg",0,0
//Break Periods
//Storyboard Layer 0 (Background)
//Storyboard Layer 1 (Fail)
//Storyboard Layer 2 (Pass)
//Storyboard Layer 3 (Foreground)
//Storyboard Sound Samples

[TimingPoints]
100,342.857142857143,4,1,0,50,1,0
6957,-100,4,1,0,60,0,0
12442,-100,4,1,0,70,0,0
34385,-100,4,1,0,60,0,0
45357,-100,4,1,0,65,0,0
56328,-100,4,1,0,75,0,0
72785,-100,4,1,0,70,0,0
83757,-100,4,1,0,75,0,0
94728,-100,4,1,0,80,0,0
116671,-100,4,1,0,85,0,1
149585,-100,4,1,0,60,0,0
160557,-100,4,1,0,65,0,0
171528,-100,4,1,0,75,0,0
187985,-100,4,1,0,70,0,0
198957,-100,4,1,0,75,0,0
209928,-100,4,1,0,80,0,0
231871,-100,4,1,0,85,0,1
256557,-100,4,1,0,60,0,0
267528,-100,4,1,0,75,0,0
278500,-100,4,1,0,80,0,0
289814,-100,4,1,0,90,0,1
322385,-100,4,1,0,85,0,0
344328,-100,4,1,0,60,0,0
345700,-100,4,1,0,50,0,0
347071,-100,4,1,0,40,0,0
348442,-100,4,1,0,30,0,0
349814,-100,4,1,0,20,0,0
351185,-100,4,1,0,10,0,0

[HitObjects]
256,192,1471,5,8,0:0:0:0:
256,192,2842,1,8,0:0:0:0:
256,192,6957,1,8,0:0:0:0:
256,192,7642,1,0,0:0:0:0:
256,192,8328,1,8,0:0:0:0:
256,192,9014,1,0,0:0:0:0:
256,192,9700,1,0,0:0:0:0:
256,192,10042,1,8,0:0:0:0:
256,192,10385,1,0,0:0:0:0:
256,192,10557,1,0,0:0:0:0:
256,192,10728,1,8,0:0:0:0:
256,192,11071,1,4,0:0:0:0:
256,192,12100,1,12,0:0:0:0:
256,192,12442,1,4,0:0:0:0:
256,192,12785,1,8,0:0:0:0:
256,192,12957,1,8,0:0:0:0:
256,192,13128,1,0,0:0:0:0:
256,192,13300,1,8,0:0:0:0:
256,192,13471,1,0,0:0:0:0:
256,192,13642,1,0,0:0:0:0:
256,192,13728,1,0,0:0:0:0:
256,192,13814,1,8,0:0:0:0:
256,192,13985,1,0,0:0:0:0:
256,192,14157,1,8,0:0:0:0:
256,192,14328,1,0,0:0:0:0:
256,192,14414,1,0,0:0:0:0:
256,192,14500,1,0,0:0:0:0:
256,192,14671,1,0,0:0:0:0:
256,192,14842,1,8,0:0:0:0:
256,192,15014,1,8,0:0:0:0:
256,192,15100,1,8,0:0:0:0:
256,192,15185,1,0,0:0:0:0:
256,192,15357,1,0,0:0:0:0:
256,192,15528,1,8,0:0:0:0:
256,192,15700,1,8,0:0:0:0:
256,192,15871,1,0,0:0:0:0:
256,192,16042,1,8,0:0:0:0:
256,192,16128,1,0,0:0:0:0:
256,192,16214,1,8,0:0:0:0:
256,192,16385,1,0,0:0:0:0:
256,192,16471,1,8,0:0:0:0:
256,192,16557,1,0,0:0:0:0:
256,192,16642,1,0,0:0:0:0:
256,192,16728,1,8,0:0:0:0:
256,192,16900,1,8,0:0:0:0:
256,192,17071,1,0,0:0:0:0:
256,192,17242,1,8,0:0:0:0:
256,192,17414,1,0,0:0:0:0:
256,192,17585,1,8,0:0:0:0:
256,192,17671,1,0,0:0:0:0:
256,192,17757,1,8,0:0:0:0:
256,192,17842,1,8,0:0:0:0:
256,192,17928,1,0,0:0:0:0:
256,192,18100,1,0,0:0:0:0:
256,192,18271,1,8,0:0:0:0:
256,192,18442,1,8,0:0:0:0:
256,192,18614,1,0,0:0:0:0:
256,192,18785,1,8,0:0:0:0:
256,192,18957,1,0,0:0:0:0:
256,192,19128,1,0,0:0:0:0:
256,192,19214,1,0,0:0:0:0:
256,192,19300,1,8,0:0:0:0:
256,192,19471,1,0,0:0:0:0:
256,192,19642,1,8,0:0:0:0:
256,192,19814,1,0,0:0:0:0:
256,192,19900,1,8,0:0:0:0:
256,192,19985,1,0,0:0:0:0:
256,192,20157,1,0,0:0:0:0:
256,192,20328,1,8,0:0:0:0:
256,192,20500,1,0,0:0:0:0:
256,192,20585,1,0,0:0:0:0:
256,192,20671,1,8,0:0:0:0:
256,192,20757,1,8,0:0:0:0:
256,192,20842,1,0,0:0:0:0:
256,192,21014,1,8,0:0:0:0:
256,192,21185,1,8,0:0:0:0:
256,192,21271,1,0,0:0:0:0:
256,192,21357,1,0,0:0:0:0:
256,192,21528,1,0,0:0:0:0:
256,192,21700,1,8,0:0:0:0:
256,192,21871,1,8,0:0:0:0:
256,192,21957,1,8,0:0:0:0:
256,192,22042,1,0,0:0:0:0:
256,192,22214,1,0,0:0:0:0:
256,192,22557,1,0,0:0:0:0:
256,192,22900,1,0,0:0:0:0:
256,192,23242,1,0,0:0:0:0:
256,192,23585,1,0,0:0:0:0:
256,192,23757,1,12,0:0:0:0:
256,192,23928,1,8,0:0:0:0:
256,192,24100,1,0,0:0:0:0:
256,192,24271,1,8,0:0:0:0:
256,192,24442,1,0,0:0:0:0:
256,192,24614,1,0,0:0:0:0:
256,192,24700,1,0,0:0:0:0:
256,192,24785,1,8,0:0:0:0:
256,192,24957,1,0,0:0:0:0:
256,192,25128,1,8,0:0:0:0:
256,192,25300,1,0,0:0:0:0:
256,192,25385,1,0,0:0:0:0:
256,192,25471,1,0,0:0:0:0:
256,192,25557,1,8,0:0:0:0:
256,192,25642,1,0,0:0:0:0:
256,192,25814,1,8,0:0:0:0:
256,192,25985,1,8,0:0:0:0:
256,192,26071,1,8,0:0:0:0:
256,192,26157,1,0,0:0:0:0:
256,192,26328,1,0,0:0:0:0:
256,192,26500,1,8,0:0:0:0:
256,192,26671,1,8,0:0:0:0:
256,192,26842,1,0,0:0:0:0:
256,192,27014,1,8,0:0:0:0:
256,192,27100,1,0,0:0:0:0:
256,192,27185,1,8,0:0:0:0:
256,192,27357,1,0,0:0:0:0:
256,192,27442,1,8,0:0:0:0:
256,192,27528,1,0,0:0:0:0:
256,192,27614,1,0,0:0:0:0:
256,192,27700,1,8,0:0:0:0:
256,192,27871,1,8,0:0:0:0:
256,192,28042,1,0,0:0:0:0:
256,192,28214,1,8,0:0:0:0:
256,192,28385,1,0,0:0:0:0:
256,192,28557,1,8,0:0:0:0:
256,192,28642,1,0,0:0:0:0:
256,192,28728,1,8,0:0:0:0:
256,192,28814,1,8,0:0:0:0:
256,192,28900,1,0,0:0:0:0:
256,192,29071,1,0,0:0:0:0:
256,192,29242,1,8,0:0:0:0:
256,192,29414,1,8,0:0:0:0:
256,192,29585,1,0,0:0:0:0:
256,192,29757,1,8,0:0:0:0:
256,192,29928,1,0,0:0:0:0:
256,192,30100,1,0,0:0:0:0:
256,192,30185,1,0,0:0:0:0:
256,192,30271,1,8,0:0:0:0:
256,192,30442,1,0,0:0:0:0:
256,192,30614,1,8,0:0:0:0:
256,192,30785,1,0,0:0:0:0:
256,192,30871,1,8,0:0:0:0:
256,192,30957,1,0,0:0:0:0:
256,192,31042,1,0,0:0:0:0:
256,192,31128,1,0,0:0:0:0:
256,192,31300,1,8,0:0:0:0:
256,192,31471,1,0,0:0:0:0:
256,192,31642,1,12,0:0:0:0:
256,192,31985,1,12,0:0:0:0:
256,192,32157,1,4,0:0:0:0:
256,192,32500,1,4,0:0:0:0:
256,192,32842,1,12,0:0:0:0:
256,192,33185,1,4,0:0:0:0:
256,192,33528,1,12,0:0:0:0:
256,192,34385,5,4,0:0:0:0:
256,192,35071,1,8,0:0:0:0:
256,192,35585,1,8,0:0:0:0:
256,192,36442,1,8,0:0:0:0:
256,192,37128,1,0,0:0:0:0:
256,192,37642,1,8,0:0:0:0:
256,192,38500,1,8,0:0:0:0:
256,192,39014,1,8,0:0:0:0:
256,192,39871,1,0,0:0:0:0:
256,192,40214,1,8,0:0:0:0:
256,192,40385,1,8,0:0:0:0:
256,192,40900,1,8,0:0:0:0:
256,192,41242,1,0,0:0:0:0:
256,192,41757,1,8,0:0:0:0:
256,192,42100,1,8,0:0:0:0:
256,192,42271,1,8,0:0:0:0:
256,192,42614,1,0,0:0:0:0:
224,192,43300,1,8,0:0:0:0:
224,192,43985,1,0,0:0:0:0:
256,192,44671,1,8,0:0:0:0:
256,192,45014,1,8,0:0:0:0:
256,192,45185,1,0,0:0:0:0:
256,192,45271,1,0,0:0:0:0:
256,192,45357,1,0,0:0:0:0:
256,192,45700,1,8,0:0:0:0:
256,192,45871,1,0,0:0:0:0:
256,192,45957,1,0,0:0:0:0:
256,192,46042,1,8,0:0:0:0:
256,192,46300,1,8,0:0:0:0:
256,192,46557,1,8,0:0:0:0:
256,192,46728,1,8,0:0:0:0:
224,192,46814,1,0,0:0:0:0:
256,192,46900,1,0,0:0:0:0:
256,192,47071,1,8,0:0:0:0:
256,192,47242,1,0,0:0:0:0:
256,192,47414,1,8,0:0:0:0:
256,192,47585,1,0,0:0:0:0:
256,192,47757,1,8,0:0:0:0:
256,192,47928,1,8,0:0:0:0:
256,192,48014,1,8,0:0:0:0:
256,192,48100,1,0,0:0:0:0:
256,192,48442,1,8,0:0:0:0:
224,192,48614,1,0,0:0:0:0:
256,192,48700,1,0,0:0:0:0:
256,192,48785,1,8,0:0:0:0:
256,192,49042,1,8,0:0:0:0:
256,192,49300,1,8,0:0:0:0:
256,192,49471,1,0,0:0:0:0:
256,192,49557,1,8,0:0:0:0:
256,192,49728,1,8,0:0:0:0:
256,192,49814,1,0,0:0:0:0:
256,192,49985,1,8,0:0:0:0:
256,192,50157,1,0,0:0:0:0:
256,192,50242,1,0,0:0:0:0:
256,192,50328,1,0,0:0:0:0:
256,192,50500,1,8,0:0:0:0:
256,192,50671,1,8,0:0:0:0:
256,192,50842,1,0,0:0:0:0:
256,192,51185,1,8,0:0:0:0:
256,192,51357,1,8,0:0:0:0:
256,192,51442,1,8,0:0:0:0:
256,192,51528,1,0,0:0:0:0:
256,192,51785,1,0,0:0:0:0:
256,192,52042,1,8,0:0:0:0:
256,192,52214,1,8,0:0:0:0:
256,192,52300,1,0,0:0:0:0:
256,192,52385,1,0,0:0:0:0:
256,192,52557,1,8,0:0:0:0:
256,192,52728,1,8,0:0:0:0:
256,192,52814,1,8,0:0:0:0:
256,192,52900,1,0,0:0:0:0:
256,192,53071,1,8,0:0:0:0:
256,192,53242,1,0,0:0:0:0:
256,192,53414,1,0,0:0:0:0:
256,192,53585,1,8,0:0:0:0:
256,192,53928,1,0,0:0:0:0:
256,192,54100,1,8,0:0:0:0:
256,192,54442,1,8,0:0:0:0:
256,192,54614,1,8,0:0:0:0:
256,192,54957,1,0,0:0:0:0:
256,192,55042,1,0,0:0:0:0:
256,192,55214,1,0,0:0:0:0:
256,192,55300,1,8,0:0:0:0:
256,192,55471,1,8,0:0:0:0:
256,192,55557,1,8,0:0:0:0:
256,192,55642,1,0,0:0:0:0:
256,192,55728,1,8,0:0:0:0:
256,192,55814,1,0,0:0:0:0:
256,192,55900,1,0,0:0:0:0:
256,192,55985,1,8,0:0:0:0:
256,192,56157,1,0,0:0:0:0:
256,192,56328,5,12,0:0:0:0:
256,192,56671,1,0,0:0:0:0:
256,192,56842,1,0,0:0:0:0:
256,192,57014,1,8,0:0:0:0:
256,192,57185,1,0,0:0:0:0:
256,192,57357,1,8,0:0:0:0:
256,192,57528,1,0,0:0:0:0:
256,192,57614,1,0,0:0:0:0:
256,192,57700,1,8,0:0:0:0:
256,192,57871,1,0,0:0:0:0:
256,192,58042,1,8,0:0:0:0:
256,192,58214,1,8,0:0:0:0:
256,192,58300,1,0,0:0:0:0:
256,192,58385,1,8,0:0:0:0:
256,192,58471,1,8,0:0:0:0:
256,192,58557,1,0,0:0:0:0:
256,192,58728,1,8,0:0:0:0:
256,192,58900,1,0,0:0:0:0:
256,192,58985,1,0,0:0:0:0:
256,192,59071,1,0,0:0:0:0:
256,192,59242,1,0,0:0:0:0:
256,192,59414,1,8,0:0:0:0:
256,192,59585,1,8,0:0:0:0:
256,192,59757,1,0,0:0:0:0:
256,192,59928,1,8,0:0:0:0:
256,192,60014,1,0,0:0:0:0:
256,192,60100,1,8,0:0:0:0:
256,192,60271,1,0,0:0:0:0:
256,192,60357,1,8,0:0:0:0:
256,192,60442,1,0,0:0:0:0:
256,192,60614,1,0,0:0:0:0:
256,192,60785,1,8,0:0:0:0:
256,192,60871,1,8,0:0:0:0:
256,192,60957,1,0,0:0:0:0:
256,192,61042,1,0,0:0:0:0:
256,192,61128,1,8,0:0:0:0:
256,192,61300,1,0,0:0:0:0:
256,192,61471,1,8,0:0:0:0:
256,192,61814,1,4,0:0:0:0:
256,192,61985,1,0,0:0:0:0:
256,192,62157,1,8,0:0:0:0:
256,192,62328,1,0,0:0:0:0:
256,192,62671,1,0,0:0:0:0:
256,192,62842,1,8,0:0:0:0:
256,192,63185,1,0,0:0:0:0:
256,192,63357,1,0,0:0:0:0:
256,192,63528,1,8,0:0:0:0:
256,192,63700,1,0,0:0:0:0:
256,192,63785,1,0,0:0:0:0:
256,192,63957,1,0,0:0:0:0:
256,192,64042,1,0,0:0:0:0:
256,192,64214,1,8,0:0:0:0:
256,192,64385,1,8,0:0:0:0:
256,192,64557,1,4,0:0:0:0:
256,192,64728,1,0,0:0:0:0:
256,192,64900,1,8,0:0:0:0:
256,192,65071,1,8,0:0:0:0:
256,192,65414,1,8,0:0:0:0:
256,192,65757,1,0,0:0:0:0:
256,192,65928,1,8,0:0:0:0:
256,192,66100,1,0,0:0:0:0:
256,192,66271,1,8,0:0:0:0:
256,192,66442,1,0,0:0:0:0:
256,192,66528,1,0,0:0:0:0:
256,192,66700,1,0,0:0:0:0:
256,192,66785,1,0,0:0:0:0:
256,192,66871,1,0,0:0:0:0:
256,192,66957,1,8,0:0:0:0:
256,192,67042,1,8,0:0:0:0:
256,192,67128,1,8,0:0:0:0:
256,192,67300,1,4,0:0:0:0:
256,192,67471,1,0,0:0:0:0:
256,192,67642,1,8,0:0:0:0:
256,192,67814,1,4,0:0:0:0:
256,192,68157,1,4,0:0:0:0:
256,192,68500,1,12,0:0:0:0:
256,192,68842,1,8,0:0:0:0:
256,192,69014,1,0,0:0:0:0:
256,192,69185,1,12,0:0:0:0:
256,192,69528,1,12,0:0:0:0:
256,192,69871,1,4,0:0:0:0:
256,192,70214,1,0,0:0:0:0:
256,192,70385,1,8,0:0:0:0:
256,192,70557,1,8,0:0:0:0:
256,192,70642,1,8,0:0:0:0:
256,192,70728,1,0,0:0:0:0:
256,192,70900,1,0,0:0:0:0:
256,192,71071,1,8,0:0:0:0:
256,192,71242,1,12,0:0:0:0:
256,192,71585,1,8,0:0:0:0:
256,192,71757,1,4,0:0:0:0:
256,192,72100,1,0,0:0:0:0:
256,192,72442,1,8,0:0:0:0:
256,192,72785,5,4,0:0:0:0:
256,192,73300,1,0,0:0:0:0:
256,192,73471,1,8,0:0:0:0:
256,192,73728,1,8,0:0:0:0:
256,192,73985,1,8,0:0:0:0:
256,192,74157,1,0,0:0:0:0:
256,192,74500,1,0,0:0:0:0:
256,192,74671,1,0,0:0:0:0:
256,192,74842,1,8,0:0:0:0:
256,192,75014,1,0,0:0:0:0:
256,192,75185,1,8,0:0:0:0:
256,192,75357,1,8,0:0:0:0:
256,192,75528,1,0,0:0:0:0:
256,192,76042,1,8,0:0:0:0:
256,192,76214,1,0,0:0:0:0:
256,192,76471,1,0,0:0:0:0:
256,192,76728,1,8,0:0:0:0:
256,192,76900,1,0,0:0:0:0:
256,192,77242,1,0,0:0:0:0:
256,192,77414,1,0,0:0:0:0:
256,192,77585,1,8,0:0:0:0:
256,192,77757,1,8,0:0:0:0:
256,192,77928,1,0,0:0:0:0:
256,192,78100,1,8,0:0:0:0:
256,192,78271,1,0,0:0:0:0:
256,192,78614,1,8,0:0:0:0:
256,192,78957,1,0,0:0:0:0:
256,192,79128,1,0,0:0:0:0:
256,192,79300,1,8,0:0:0:0:
256,192,79471,1,8,0:0:0:0:
256,192,79642,1,0,0:0:0:0:
256,192,79985,1,8,0:0:0:0:
256,192,80328,1,0,0:0:0:0:
256,192,80500,1,0,0:0:0:0:
256,192,80671,1,8,0:0:0:0:
256,192,81014,1,0,0:0:0:0:
256,192,81528,1,0,0:0:0:0:
256,192,81700,1,8,0:0:0:0:
256,192,81957,1,8,0:0:0:0:
256,192,82214,1,8,0:0:0:0:
256,192,82385,1,0,0:0:0:0:
256,192,82471,1,8,0:0:0:0:
256,192,82557,1,0,0:0:0:0:
256,192,82728,1,8,0:0:0:0:
256,192,82814,1,0,0:0:0:0:
256,192,82900,1,8,0:0:0:0:
256,192,82985,1,8,0:0:0:0:
256,192,83071,1,0,0:0:0:0:
256,192,83157,1,8,0:0:0:0:
256,192,83328,1,0,0:0:0:0:
256,192,83414,1,8,0:0:0:0:
256,192,83500,1,8,0:0:0:0:
256,192,83585,1,0,0:0:0:0:
256,192,83757,1,4,0:0:0:0:
256,192,84100,1,8,0:0:0:0:
256,192,84442,1,8,0:0:0:0:
256,192,84785,1,8,0:0:0:0:
256,192,85128,1,0,0:0:0:0:
256,192,85471,1,8,0:0:0:0:
256,192,85814,1,8,0:0:0:0:
256,192,85985,1,0,0:0:0:0:
256,192,86157,1,8,0:0:0:0:
256,192,86242,1,0,0:0:0:0:
256,192,86328,1,0,0:0:0:0:
256,192,86414,1,0,0:0:0:0:
256,192,86500,1,0,0:0:0:0:
256,192,86757,1,8,0:0:0:0:
256,192,87014,1,8,0:0:0:0:
256,192,87185,1,8,0:0:0:0:
256,192,87442,1,8,0:0:0:0:
256,192,87700,1,0,0:0:0:0:
256,192,87785,1,8,0:0:0:0:
256,192,87871,1,0,0:0:0:0:
256,192,87957,1,0,0:0:0:0:
256,192,88128,1,0,0:0:0:0:
256,192,88214,1,8,0:0:0:0:
256,192,88385,1,8,0:0:0:0:
256,192,88471,1,8,0:0:0:0:
256,192,88557,1,0,0:0:0:0:
256,192,88728,1,8,0:0:0:0:
256,192,88900,1,0,0:0:0:0:
256,192,88985,1,0,0:0:0:0:
256,192,89071,1,8,0:0:0:0:
256,192,89157,1,8,0:0:0:0:
256,192,89242,1,0,0:0:0:0:
256,192,89585,1,8,0:0:0:0:
256,192,89757,1,0,0:0:0:0:
256,192,90100,1,8,0:0:0:0:
256,192,90271,1,0,0:0:0:0:
256,192,90614,1,0,0:0:0:0:
256,192,90785,1,8,0:0:0:0:
256,192,91128,1,8,0:0:0:0:
256,192,91300,1,0,0:0:0:0:
256,192,91471,1,0,0:0:0:0:
256,192,91642,1,8,0:0:0:0:
256,192,91814,1,0,0:0:0:0:
256,192,91900,1,0,0:0:0:0:
256,192,91985,1,0,0:0:0:0:
256,192,92157,1,0,0:0:0:0:
256,192,92242,1,0,0:0:0:0:
256,192,92328,1,8,0:0:0:0:
256,192,92500,1,0,0:0:0:0:
256,192,92671,1,8,0:0:0:0:
256,192,92757,1,8,0:0:0:0:
256,192,92842,1,0,0:0:0:0:
256,192,92928,1,8,0:0:0:0:
256,192,93014,1,0,0:0:0:0:
256,192,93100,1,0,0:0:0:0:
256,192,93185,1,8,0:0:0:0:
256,192,93271,1,8,0:0:0:0:
256,192,93357,1,0,0:0:0:0:
256,192,94042,1,0,0:0:0:0:
256,192,94128,1,0,0:0:0:0:
256,192,94214,1,0,0:0:0:0:
256,192,94300,1,0,0:0:0:0:
256,192,94385,1,8,0:0:0:0:
256,192,94728,5,4,0:0:0:0:
256,192,94900,1,8,0:0:0:0:
256,192,94985,1,8,0:0:0:0:
256,192,95071,1,0,0:0:0:0:
256,192,95242,1,8,0:0:0:0:
256,192,95328,1,0,0:0:0:0:
256,192,95414,1,0,0:0:0:0:
256,192,95500,1,8,0:0:0:0:
256,192,95585,1,0,0:0:0:0:
256,192,95757,1,8,0:0:0:0:
256,192,95842,1,0,0:0:0:0:
256,192,95928,1,8,0:0:0:0:
256,192,96014,1,8,0:0:0:0:
256,192,96100,1,0,0:0:0:0:
256,192,96271,1,8,0:0:0:0:
256,192,96357,1,0,0:0:0:0:
256,192,96442,1,8,0:0:0:0:
256,192,96614,1,0,0:0:0:0:
256,192,96700,1,8,0:0:0:0:
256,192,96785,1,0,0:0:0:0:
256,192,96871,1,0,0:0:0:0:
256,192,96957,1,8,0:0:0:0:
256,192,97042,1,0,0:0:0:0:
256,192,97128,1,8,0:0:0:0:
256,192,97300,1,0,0:0:0:0:
256,192,97385,1,8,0:0:0:0:
256,192,97471,1,8,0:0:0:0:
256,192,97642,1,0,0:0:0:0:
256,192,97728,1,8,0:0:0:0:
256,192,97900,1,0,0:0:0:0:
256,192,97985,1,8,0:0:0:0:
256,192,98157,1,8,0:0:0:0:
256,192,98242,1,8,0:0:0:0:
256,192,98328,1,0,0:0:0:0:
256,192,98414,1,8,0:0:0:0:
256,192,98500,1,8,0:0:0:0:
256,192,98671,1,0,0:0:0:0:
256,192,98757,1,8,0:0:0:0:
256,192,98842,1,0,0:0:0:0:
256,192,99014,1,0,0:0:0:0:
256,192,99100,1,0,0:0:0:0:
256,192,99185,1,8,0:0:0:0:
256,192,99271,1,0,0:0:0:0:
256,192,99357,1,0,0:0:0:0:
256,192,99442,1,8,0:0:0:0:
256,192,99528,1,8,0:0:0:0:
256,192,99700,1,8,0:0:0:0:
256,192,99785,1,0,0:0:0:0:
256,192,99871,1,8,0:0:0:0:
256,192,99957,1,0,0:0:0:0:
256,192,100042,1,0,0:0:0:0:
256,192,100128,1,8,0:0:0:0:
256,192,100214,1,0,0:0:0:0:
256,192,100385,1,8,0:0:0:0:
256,192,100471,1,8,0:0:0:0:
256,192,100557,1,0,0:0:0:0:
256,192,100728,1,8,0:0:0:0:
256,192,100900,1,0,0:0:0:0:
256,192,100985,1,8,0:0:0:0:
256,192,101071,1,0,0:0:0:0:
256,192,101157,1,0,0:0:0:0:
256,192,101242,1,8,0:0:0:0:
256,192,101414,1,8,0:0:0:0:
256,192,101500,1,8,0:0:0:0:
256,192,101585,1,0,0:0:0:0:
256,192,101757,1,8,0:0:0:0:
256,192,101842,1,0,0:0:0:0:
256,192,101928,1,8,0:0:0:0:
256,192,102014,1,8,0:0:0:0:
256,192,102100,1,0,0:0:0:0:
256,192,102185,1,8,0:0:0:0:
256,192,102271,1,0,0:0:0:0:
256,192,102442,1,0,0:0:0:0:
256,192,102528,1,0,0:0:0:0:
256,192,102614,1,8,0:0:0:0:
256,192,102700,1,8,0:0:0:0:
256,192,102785,1,0,0:0:0:0:
256,192,102871,1,8,0:0:0:0:
256,192,102957,1,8,0:0:0:0:
256,192,103128,1,0,0:0:0:0:
256,192,103214,1,8,0:0:0:0:
256,192,103300,1,8,0:0:0:0:
256,192,103385,1,0,0:0:0:0:
256,192,103471,1,0,0:0:0:0:
256,192,103642,1,12,0:0:0:0:
256,192,103814,1,12,0:0:0:0:
256,192,104157,1,4,0:0:0:0:
256,192,104500,1,0,0:0:0:0:
256,192,104671,1,8,0:0:0:0:
256,192,104842,1,12,0:0:0:0:
256,192,105185,1,0,0:0:0:0:
256,192,105357,1,12,0:0:0:0:
256,192,105700,1,4,0:0:0:0:
256,192,105871,1,8,0:0:0:0:
256,192,105957,1,8,0:0:0:0:
256,192,106042,1,0,0:0:0:0:
256,192,106214,1,8,0:0:0:0:
256,192,106300,1,0,0:0:0:0:
256,192,106385,1,0,0:0:0:0:
256,192,106471,1,8,0:0:0:0:
256,192,106557,1,0,0:0:0:0:
256,192,106728,1,8,0:0:0:0:
256,192,106814,1,0,0:0:0:0:
256,192,106900,1,8,0:0:0:0:
256,192,106985,1,8,0:0:0:0:
256,192,107071,1,0,0:0:0:0:
256,192,107242,1,8,0:0:0:0:
256,192,107328,1,0,0:0:0:0:
256,192,107414,1,8,0:0:0:0:
256,192,107585,1,0,0:0:0:0:
256,192,107671,1,8,0:0:0:0:
256,192,107757,1,0,0:0:0:0:
256,192,107842,1,0,0:0:0:0:
256,192,107928,1,8,0:0:0:0:
256,192,108014,1,0,0:0:0:0:
256,192,108100,1,8,0:0:0:0:
256,192,108271,1,0,0:0:0:0:
256,192,108357,1,8,0:0:0:0:
256,192,108442,1,8,0:0:0:0:
256,192,108614,1,0,0:0:0:0:
256,192,108700,1,8,0:0:0:0:
256,192,108871,1,0,0:0:0:0:
256,192,108957,1,8,0:0:0:0:
256,192,109128,1,8,0:0:0:0:
256,192,109214,1,8,0:0:0:0:
256,192,109300,1,0,0:0:0:0:
256,192,109385,1,8,0:0:0:0:
256,192,109471,1,8,0:0:0:0:
256,192,109642,1,8,0:0:0:0:
256,192,109728,1,0,0:0:0:0:
256,192,109900,1,8,0:0:0:0:
256,192,109985,1,0,0:0:0:0:
256,192,110157,1,8,0:0:0:0:
256,192,110242,1,0,0:0:0:0:
256,192,110328,1,0,0:0:0:0:
256,192,110414,1,8,0:0:0:0:
256,192,110585,1,8,0:0:0:0:
256,192,110671,1,8,0:0:0:0:
256,192,110757,1,0,0:0:0:0:
256,192,110842,1,8,0:0:0:0:
256,192,110928,1,0,0:0:0:0:
256,192,111014,1,0,0:0:0:0:
256,192,111100,1,8,0:0:0:0:
256,192,111185,1,0,0:0:0:0:
256,192,111357,1,8,0:0:0:0:
256,192,111442,1,8,0:0:0:0:
256,192,111528,1,0,0:0:0:0:
256,192,111700,1,8,0:0:0:0:
256,192,111871,1,0,0:0:0:0:
256,192,111957,1,8,0:0:0:0:
256,192,112042,1,0,0:0:0:0:
256,192,112128,1,0,0:0:0:0:
256,192,112214,1,8,0:0:0:0:
256,192,112385,1,8,0:0:0:0:
256,192,112471,1,8,0:0:0:0:
256,192,112557,1,0,0:0:0:0:
256,192,112642,1,0,0:0:0:0:
256,192,112728,1,8,0:0:0:0:
256,192,112814,1,0,0:0:0:0:
256,192,112900,1,8,0:0:0:0:
256,192,113071,1,0,0:0:0:0:
256,192,113157,1,8,0:0:0:0:
256,192,113242,1,0,0:0:0:0:
256,192,113414,1,0,0:0:0:0:
256,192,113500,1,0,0:0:0:0:
256,192,113585,1,8,0:0:0:0:
256,192,113671,1,8,0:0:0:0:
256,192,113757,1,0,0:0:0:0:
256,192,113842,1,8,0:0:0:0:
256,192,113928,1,8,0:0:0:0:
256,192,114014,1,0,0:0:0:0:
256,192,114100,1,0,0:0:0:0:
256,192,114185,1,8,0:0:0:0:
256,192,114271,1,0,0:0:0:0:
256,192,114357,1,0,0:0:0:0:
256,192,114442,1,8,0:0:0:0:
256,192,114528,1,0,0:0:0:0:
256,192,114614,1,8,0:0:0:0:
256,192,114700,1,0,0:0:0:0:
256,192,114785,1,0,0:0:0:0:
256,192,114871,1,8,0:0:0:0:
256,192,114957,1,0,0:0:0:0:
256,192,115042,1,0,0:0:0:0:
256,192,115128,1,8,0:0:0:0:
256,192,115214,1,8,0:0:0:0:
256,192,115300,1,0,0:0:0:0:
256,192,115642,1,8,0:0:0:0:
256,192,115985,1,0,0:0:0:0:
256,192,116328,1,12,0:0:0:0:
256,192,116671,5,4,0:0:0:0:
256,192,116928,1,0,0:0:0:0:
256,192,117014,1,8,0:0:0:0:
256,192,117185,1,0,0:0:0:0:
256,192,117271,1,0,0:0:0:0:
256,192,117357,1,0,0:0:0:0:
256,192,117442,1,8,0:0:0:0:
256,192,117528,1,0,0:0:0:0:
256,192,117700,1,8,0:0:0:0:
256,192,117871,1,8,0:0:0:0:
256,192,117957,1,8,0:0:0:0:
256,192,118042,1,0,0:0:0:0:
256,192,118214,1,0,0:0:0:0:
256,192,118385,1,8,0:0:0:0:
256,192,118557,1,0,0:0:0:0:
256,192,118642,1,8,0:0:0:0:
256,192,118728,1,0,0:0:0:0:
256,192,118814,1,0,0:0:0:0:
256,192,118985,1,0,0:0:0:0:
256,192,119071,1,8,0:0:0:0:
256,192,119242,1,8,0:0:0:0:
256,192,119328,1,8,0:0:0:0:
256,192,119414,1,0,0:0:0:0:
256,192,119585,1,0,0:0:0:0:
256,192,119671,1,0,0:0:0:0:
256,192,119757,1,8,0:0:0:0:
256,192,119928,1,0,0:0:0:0:
256,192,120100,1,8,0:0:0:0:
256,192,120185,1,8,0:0:0:0:
256,192,120271,1,0,0:0:0:0:
256,192,120357,1,0,0:0:0:0:
256,192,120442,1,8,0:0:0:0:
256,192,120614,1,8,0:0:0:0:
256,192,120785,1,0,0:0:0:0:
256,192,120871,1,0,0:0:0:0:
256,192,120957,1,0,0:0:0:0:
256,192,121042,1,0,0:0:0:0:
256,192,121128,1,8,0:0:0:0:
256,192,121300,1,0,0:0:0:0:
256,192,121385,1,8,0:0:0:0:
256,192,121471,1,0,0:0:0:0:
256,192,121557,1,0,0:0:0:0:
256,192,121642,1,8,0:0:0:0:
256,192,121814,1,8,0:0:0:0:
256,192,121900,1,0,0:0:0:0:
256,192,121985,1,8,0:0:0:0:
256,192,122071,1,8,0:0:0:0:
256,192,122157,1,0,0:0:0:0:
256,192,122328,1,0,0:0:0:0:
256,192,122500,1,8,0:0:0:0:
256,192,122585,1,0,0:0:0:0:
256,192,122671,1,0,0:0:0:0:
256,192,122757,1,8,0:0:0:0:
256,192,122842,1,0,0:0:0:0:
256,192,123014,1,0,0:0:0:0:
256,192,123100,1,0,0:0:0:0:
256,192,123185,1,8,0:0:0:0:
256,192,123357,1,8,0:0:0:0:
256,192,123442,1,8,0:0:0:0:
256,192,123528,1,0,0:0:0:0:
256,192,123700,1,0,0:0:0:0:
256,192,123871,1,8,0:0:0:0:
256,192,123957,1,0,0:0:0:0:
256,192,124042,1,8,0:0:0:0:
256,192,124128,1,8,0:0:0:0:
256,192,124214,1,0,0:0:0:0:
256,192,124300,1,8,0:0:0:0:
256,192,124471,1,0,0:0:0:0:
256,192,124557,1,8,0:0:0:0:
256,192,124642,1,0,0:0:0:0:
256,192,124728,1,8,0:0:0:0:
256,192,124814,1,8,0:0:0:0:
256,192,124900,1,0,0:0:0:0:
256,192,125071,1,0,0:0:0:0:
256,192,125242,1,8,0:0:0:0:
256,192,125414,1,0,0:0:0:0:
256,192,125500,1,0,0:0:0:0:
256,192,125585,1,8,0:0:0:0:
256,192,125757,1,8,0:0:0:0:
256,192,125842,1,0,0:0:0:0:
256,192,125928,1,0,0:0:0:0:
256,192,126100,1,8,0:0:0:0:
256,192,126442,1,0,0:0:0:0:
256,192,126614,1,8,0:0:0:0:
256,192,126785,1,0,0:0:0:0:
256,192,126871,1,0,0:0:0:0:
256,192,126957,1,8,0:0:0:0:
256,192,127042,1,8,0:0:0:0:
256,192,127128,1,0,0:0:0:0:
256,192,127214,1,8,0:0:0:0:
256,192,127300,1,0,0:0:0:0:
256,192,127385,1,0,0:0:0:0:
256,192,127471,1,8,0:0:0:0:
256,192,127642,1,4,0:0:0:0:
256,192,127900,1,0,0:0:0:0:
256,192,127985,1,8,0:0:0:0:
256,192,128157,1,0,0:0:0:0:
256,192,128242,1,8,0:0:0:0:
256,192,128328,1,0,0:0:0:0:
256,192,128414,1,0,0:0:0:0:
256,192,128500,1,8,0:0:0:0:
256,192,128671,1,8,0:0:0:0:
256,192,128842,1,0,0:0:0:0:
256,192,128928,1,0,0:0:0:0:
256,192,129014,1,0,0:0:0:0:
256,192,129100,1,8,0:0:0:0:
256,192,129185,1,0,0:0:0:0:
256,192,129357,1,8,0:0:0:0:
256,192,129528,1,8,0:0:0:0:
256,192,129614,1,0,0:0:0:0:
256,192,129700,1,0,0:0:0:0:
256,192,129785,1,8,0:0:0:0:
256,192,129957,1,0,0:0:0:0:
256,192,130042,1,8,0:0:0:0:
256,192,130214,1,8,0:0:0:0:
256,192,130300,1,8,0:0:0:0:
256,192,130385,1,0,0:0:0:0:
256,192,130557,1,0,0:0:0:0:
256,192,130642,1,0,0:0:0:0:
256,192,130728,1,8,0:0:0:0:
256,192,130900,1,0,0:0:0:0:
256,192,131071,1,8,0:0:0:0:
256,192,131157,1,8,0:0:0:0:
256,192,131242,1,0,0:0:0:0:
256,192,131328,1,0,0:0:0:0:
256,192,131414,1,8,0:0:0:0:
256,192,131585,1,8,0:0:0:0:
256,192,131757,1,0,0:0:0:0:
256,192,131842,1,0,0:0:0:0:
256,192,131928,1,0,0:0:0:0:
256,192,132014,1,0,0:0:0:0:
256,192,132100,1,8,0:0:0:0:
256,192,132271,1,0,0:0:0:0:
256,192,132357,1,8,0:0:0:0:
256,192,132442,1,0,0:0:0:0:
256,192,132528,1,0,0:0:0:0:
256,192,132614,1,8,0:0:0:0:
256,192,132785,1,8,0:0:0:0:
256,192,133128,1,0,0:0:0:0:
256,192,133300,1,0,0:0:0:0:
256,192,133385,1,0,0:0:0:0:
256,192,133471,1,8,0:0:0:0:
256,192,133642,1,0,0:0:0:0:
256,192,133814,1,0,0:0:0:0:
256,192,133900,1,8,0:0:0:0:
256,192,133985,1,0,0:0:0:0:
256,192,134157,1,8,0:0:0:0:
256,192,134328,1,8,0:0:0:0:
256,192,134500,1,0,0:0:0:0:
256,192,134671,1,0,0:0:0:0:
256,192,134757,1,0,0:0:0:0:
256,192,134842,1,8,0:0:0:0:
256,192,135014,1,0,0:0:0:0:
256,192,135100,1,8,0:0:0:0:
256,192,135185,1,0,0:0:0:0:
256,192,135271,1,8,0:0:0:0:
256,192,135357,1,0,0:0:0:0:
256,192,135528,1,8,0:0:0:0:
256,192,135614,1,0,0:0:0:0:
256,192,135700,1,8,0:0:0:0:
256,192,135785,1,8,0:0:0:0:
256,192,135871,1,0,0:0:0:0:
256,192,136042,1,0,0:0:0:0:
256,192,136214,1,8,0:0:0:0:
256,192,136385,1,0,0:0:0:0:
256,192,136471,1,0,0:0:0:0:
256,192,136557,1,0,0:0:0:0:
256,192,136642,1,8,0:0:0:0:
256,192,136814,1,0,0:0:0:0:
256,192,136900,1,8,0:0:0:0:
256,192,136985,1,0,0:0:0:0:
256,192,137071,1,8,0:0:0:0:
256,192,137157,1,8,0:0:0:0:
256,192,137242,1,0,0:0:0:0:
256,192,137414,1,0,0:0:0:0:
256,192,137500,1,0,0:0:0:0:
256,192,137585,1,8,0:0:0:0:
256,192,137757,1,0,0:0:0:0:
256,192,137842,1,8,0:0:0:0:
256,192,137928,1,0,0:0:0:0:
256,192,138014,1,0,0:0:0:0:
256,192,138100,1,8,0:0:0:0:
256,192,138271,1,8,0:0:0:0:
256,192,138357,1,0,0:0:0:0:
256,192,138442,1,8,0:0:0:0:
256,192,139300,1,0,0:0:0:0:
256,192,139471,1,0,0:0:0:0:
256,192,139557,1,0,0:0:0:0:
256,192,139642,1,8,0:0:0:0:
256,192,139814,1,4,0:0:0:0:
256,192,140157,1,4,0:0:0:0:
256,192,140500,1,12,0:0:0:0:
256,192,140842,1,12,0:0:0:0:
256,192,141014,1,0,0:0:0:0:
256,192,141185,1,0,0:0:0:0:
256,192,141357,1,4,0:0:0:0:
256,192,141700,1,8,0:0:0:0:
256,192,141957,1,8,0:0:0:0:
256,192,142042,1,0,0:0:0:0:
256,192,142214,1,0,0:0:0:0:
256,192,142300,1,0,0:0:0:0:
256,192,142385,1,8,0:0:0:0:
256,192,142557,1,0,0:0:0:0:
256,192,142728,1,0,0:0:0:0:
256,192,142814,1,0,0:0:0:0:
256,192,142900,1,8,0:0:0:0:
256,192,143071,1,8,0:0:0:0:
256,192,143242,1,0,0:0:0:0:
256,192,143328,1,8,0:0:0:0:
256,192,143414,1,0,0:0:0:0:
256,192,143500,1,0,0:0:0:0:
256,192,143585,1,8,0:0:0:0:
256,192,143757,1,0,0:0:0:0:
256,192,143842,1,0,0:0:0:0:
256,192,143928,1,8,0:0:0:0:
256,192,144014,1,8,0:0:0:0:
256,192,144100,1,0,0:0:0:0:
256,192,144442,1,8,0:0:0:0:
256,192,144700,1,8,0:0:0:0:
256,192,144785,1,0,0:0:0:0:
256,192,144871,1,0,0:0:0:0:
256,192,144957,1,8,0:0:0:0:
256,192,145128,1,0,0:0:0:0:
256,192,145300,1,8,0:0:0:0:
256,192,145471,1,0,0:0:0:0:
256,192,145557,1,0,0:0:0:0:
256,192,145642,1,0,0:0:0:0:
256,192,145728,1,0,0:0:0:0:
256,192,145814,1,8,0:0:0:0:
256,192,145985,1,0,0:0:0:0:
256,192,146071,1,8,0:0:0:0:
256,192,146157,1,0,0:0:0:0:
256,192,146328,1,8,0:0:0:0:
256,192,146414,1,0,0:0:0:0:
256,192,146500,1,0,0:0:0:0:
256,192,146585,1,8,0:0:0:0:
256,192,146671,1,8,0:0:0:0:
256,192,146757,1,8,0:0:0:0:
256,192,146842,1,0,0:0:0:0:
256,192,147185,1,0,0:0:0:0:
256,192,147357,1,12,0:0:0:0:
256,192,147700,1,12,0:0:0:0:
256,192,148042,1,4,0:0:0:0:
256,192,148385,1,4,0:0:0:0:
256,192,148728,1,12,0:0:0:0:
256,192,148900,12,0,149414,0:0:0:0:
256,192,149585,5,4,0:0:0:0:
256,192,150100,1,0,0:0:0:0:
256,192,150271,1,0,0:0:0:0:
256,192,150614,1,8,0:0:0:0:
256,192,150785,1,8,0:0:0:0:
256,192,151642,1,0,0:0:0:0:
256,192,151985,1,0,0:0:0:0:
256,192,152328,1,0,0:0:0:0:
256,192,152500,1,8,0:0:0:0:
256,192,152671,1,8,0:0:0:0:
256,192,152842,1,0,0:0:0:0:
256,192,155071,1,0,0:0:0:0:
256,192,155414,1,0,0:0:0:0:
256,192,155585,1,8,0:0:0:0:
256,192,156100,1,8,0:0:0:0:
256,192,156271,1,0,0:0:0:0:
256,192,156785,1,8,0:0:0:0:
256,192,156957,1,0,0:0:0:0:
256,192,157300,1,0,0:0:0:0:
256,192,157471,1,0,0:0:0:0:
256,192,157814,1,8,0:0:0:0:
256,192,158328,1,0,0:0:0:0:
256,192,158500,1,0,0:0:0:0:
256,192,159528,1,0,0:0:0:0:
256,192,159871,1,8,0:0:0:0:
256,192,160214,1,8,0:0:0:0:
256,192,160557,1,4,0:0:0:0:
256,192,160728,1,0,0:0:0:0:
256,192,160900,1,8,0:0:0:0:
256,192,161071,1,8,0:0:0:0:
256,192,161157,1,8,0:0:0:0:
256,192,161242,1,0,0:0:0:0:
256,192,161500,1,0,0:0:0:0:
256,192,161585,1,8,0:0:0:0:
256,192,161757,1,0,0:0:0:0:
256,192,162014,1,0,0:0:0:0:
256,192,162271,1,8,0:0:0:0:
256,192,162442,1,0,0:0:0:0:
256,192,162528,1,0,0:0:0:0:
256,192,162614,1,0,0:0:0:0:
256,192,162785,1,0,0:0:0:0:
256,192,162957,1,8,0:0:0:0:
256,192,163128,1,0,0:0:0:0:
256,192,163300,1,8,0:0:0:0:
256,192,163642,1,8,0:0:0:0:
256,192,163814,1,0,0:0:0:0:
256,192,163900,1,0,0:0:0:0:
256,192,163985,1,8,0:0:0:0:
256,192,164242,1,0,0:0:0:0:
256,192,164500,1,8,0:0:0:0:
256,192,164671,1,0,0:0:0:0:
256,192,164757,1,8,0:0:0:0:
256,192,164928,1,8,0:0:0:0:
256,192,165014,1,0,0:0:0:0:
256,192,165185,1,8,0:0:0:0:
256,192,165357,1,0,0:0:0:0:
256,192,165442,1,0,0:0:0:0:
256,192,165528,1,0,0:0:0:0:
256,192,165614,1,0,0:0:0:0:
256,192,165700,1,8,0:0:0:0:
256,192,165871,1,8,0:0:0:0:
256,192,166042,1,0,0:0:0:0:
256,192,166385,1,0,0:0:0:0:
256,192,166557,1,8,0:0:0:0:
256,192,166728,1,0,0:0:0:0:
256,192,166985,1,0,0:0:0:0:
256,192,167071,1,8,0:0:0:0:
256,192,167242,1,0,0:0:0:0:
256,192,167500,1,8,0:0:0:0:
256,192,167757,1,0,0:0:0:0:
256,192,167928,1,8,0:0:0:0:
256,192,168014,1,8,0:0:0:0:
256,192,168100,1,8,0:0:0:0:
256,192,168271,1,0,0:0:0:0:
256,192,168442,1,8,0:0:0:0:
256,192,168528,1,8,0:0:0:0:
256,192,168614,1,0,0:0:0:0:
256,192,168785,1,12,0:0:0:0:
256,192,169128,1,8,0:0:0:0:
256,192,169300,1,4,0:0:0:0:
256,192,169642,1,0,0:0:0:0:
256,192,169814,1,12,0:0:0:0:
256,192,170157,1,0,0:0:0:0:
256,192,170328,1,0,0:0:0:0:
256,192,170414,1,0,0:0:0:0:
256,192,170500,1,8,0:0:0:0:
256,192,170585,1,8,0:0:0:0:
256,192,170671,1,0,0:0:0:0:
256,192,170757,1,8,0:0:0:0:
256,192,170842,1,0,0:0:0:0:
256,192,170928,1,0,0:0:0:0:
256,192,171014,1,8,0:0:0:0:
256,192,171100,1,0,0:0:0:0:
256,192,171185,1,8,0:0:0:0:
256,192,171357,1,8,0:0:0:0:
256,192,171528,5,4,0:0:0:0:
256,192,171871,1,8,0:0:0:0:
256,192,172128,1,0,0:0:0:0:
256,192,172214,1,0,0:0:0:0:
256,192,172385,1,0,0:0:0:0:
256,192,172557,1,8,0:0:0:0:
256,192,172728,1,8,0:0:0:0:
256,192,172814,1,8,0:0:0:0:
256,192,172900,1,0,0:0:0:0:
256,192,173071,1,0,0:0:0:0:
256,192,173157,1,0,0:0:0:0:
256,192,173242,1,8,0:0:0:0:
256,192,173414,1,0,0:0:0:0:
256,192,173585,1,0,0:0:0:0:
256,192,173671,1,8,0:0:0:0:
256,192,173842,1,0,0:0:0:0:
256,192,173928,1,8,0:0:0:0:
256,192,174100,1,8,0:0:0:0:
256,192,174185,1,8,0:0:0:0:
256,192,174271,1,0,0:0:0:0:
256,192,174614,1,8,0:0:0:0:
256,192,174785,1,0,0:0:0:0:
256,192,174871,1,8,0:0:0:0:
256,192,174957,1,0,0:0:0:0:
256,192,175128,1,0,0:0:0:0:
256,192,175300,1,8,0:0:0:0:
256,192,175471,1,8,0:0:0:0:
256,192,175557,1,0,0:0:0:0:
256,192,175642,1,0,0:0:0:0:
256,192,175814,1,0,0:0:0:0:
256,192,175985,1,8,0:0:0:0:
256,192,176157,1,0,0:0:0:0:
256,192,176242,1,0,0:0:0:0:
256,192,176328,1,0,0:0:0:0:
256,192,176414,1,8,0:0:0:0:
256,192,176585,1,0,0:0:0:0:
256,192,176671,1,8,0:0:0:0:
256,192,176842,1,8,0:0:0:0:
256,192,176900,1,8,0:0:0:0:
256,192,176957,1,8,0:0:0:0:
256,192,177014,1,0,0:0:0:0:
256,192,177357,1,8,0:0:0:0:
256,192,177528,1,0,0:0:0:0:
256,192,177871,1,0,0:0:0:0:
256,192,178042,1,8,0:0:0:0:
256,192,178385,1,0,0:0:0:0:
256,192,178728,1,8,0:0:0:0:
256,192,178985,1,8,0:0:0:0:
256,192,179071,1,0,0:0:0:0:
256,192,179242,1,0,0:0:0:0:
256,192,179414,1,8,0:0:0:0:
256,192,179757,1,0,0:0:0:0:
256,192,180100,1,8,0:0:0:0:
256,192,180271,1,0,0:0:0:0:
256,192,180614,1,0,0:0:0:0:
256,192,180785,1,8,0:0:0:0:
256,192,180957,1,8,0:0:0:0:
256,192,181128,1,0,0:0:0:0:
256,192,181300,1,8,0:0:0:0:
256,192,181642,1,0,0:0:0:0:
256,192,181814,1,8,0:0:0:0:
256,192,181900,1,8,0:0:0:0:
256,192,181985,1,0,0:0:0:0:
256,192,182071,1,0,0:0:0:0:
256,192,182157,1,8,0:0:0:0:
256,192,182242,1,8,0:0:0:0:
256,192,182328,1,8,0:0:0:0:
256,192,182414,1,8,0:0:0:0:
256,192,182500,1,0,0:0:0:0:
256,192,182671,1,0,0:0:0:0:
256,192,182842,1,8,0:0:0:0:
256,192,183014,1,4,0:0:0:0:
256,192,183357,1,4,0:0:0:0:
256,192,183700,1,8,0:0:0:0:
256,192,183785,1,8,0:0:0:0:
256,192,183871,1,0,0:0:0:0:
256,192,184042,1,0,0:0:0:0:
256,192,184214,1,8,0:0:0:0:
256,192,184385,1,4,0:0:0:0:
256,192,184728,1,4,0:0:0:0:
256,192,185071,1,12,0:0:0:0:
256,192,185414,1,0,0:0:0:0:
256,192,185585,1,8,0:0:0:0:
256,192,185757,1,0,0:0:0:0:
256,192,185842,1,8,0:0:0:0:
256,192,185928,1,0,0:0:0:0:
256,192,186100,1,0,0:0:0:0:
256,192,186185,1,0,0:0:0:0:
256,192,186271,1,8,0:0:0:0:
256,192,186442,1,4,0:0:0:0:
256,192,186785,1,12,0:0:0:0:
256,192,186957,1,12,0:0:0:0:
256,192,187128,1,0,0:0:0:0:
256,192,187214,1,0,0:0:0:0:
256,192,187300,1,8,0:0:0:0:
256,192,187471,1,0,0:0:0:0:
256,192,187557,1,0,0:0:0:0:
256,192,187642,1,8,0:0:0:0:
256,192,187728,1,8,0:0:0:0:
256,192,187814,1,0,0:0:0:0:
256,192,187985,5,4,0:0:0:0:
256,192,188157,1,0,0:0:0:0:
256,192,188328,1,8,0:0:0:0:
256,192,188500,1,0,0:0:0:0:
256,192,188842,1,0,0:0:0:0:
256,192,189014,1,8,0:0:0:0:
256,192,189185,1,0,0:0:0:0:
256,192,189700,1,8,0:0:0:0:
256,192,190042,1,8,0:0:0:0:
256,192,190385,1,0,0:0:0:0:
256,192,190728,1,8,0:0:0:0:
256,192,191242,1,0,0:0:0:0:
256,192,191585,1,0,0:0:0:0:
256,192,191928,1,8,0:0:0:0:
256,192,192614,1,0,0:0:0:0:
256,192,192785,1,0,0:0:0:0:
256,192,192957,1,8,0:0:0:0:
256,192,193128,1,8,0:0:0:0:
256,192,193300,1,0,0:0:0:0:
256,192,193471,1,8,0:0:0:0:
256,192,193814,1,0,0:0:0:0:
256,192,193985,1,0,0:0:0:0:
256,192,194157,1,8,0:0:0:0:
256,192,194328,1,0,0:0:0:0:
256,192,194500,1,8,0:0:0:0:
256,192,194671,1,8,0:0:0:0:
256,192,195185,1,0,0:0:0:0:
256,192,195528,1,8,0:0:0:0:
256,192,195871,1,8,0:0:0:0:
256,192,196214,1,0,0:0:0:0:
256,192,196728,1,8,0:0:0:0:
256,192,196814,1,0,0:0:0:0:
256,192,196900,1,8,0:0:0:0:
256,192,197071,1,0,0:0:0:0:
256,192,197414,1,0,0:0:0:0:
256,192,197585,1,8,0:0:0:0:
256,192,197757,1,0,0:0:0:0:
256,192,197842,1,0,0:0:0:0:
256,192,197928,1,8,0:0:0:0:
256,192,198100,1,8,0:0:0:0:
256,192,198271,1,0,0:0:0:0:
256,192,198357,1,8,0:0:0:0:
256,192,198442,1,0,0:0:0:0:
256,192,198528,1,0,0:0:0:0:
256,192,198614,1,8,0:0:0:0:
256,192,198700,1,8,0:0:0:0:
256,192,198785,1,0,0:0:0:0:
256,192,198957,1,4,0:0:0:0:
256,192,199128,1,0,0:0:0:0:
256,192,199214,1,0,0:0:0:0:
256,192,199300,1,8,0:0:0:0:
256,192,199471,1,0,0:0:0:0:
256,192,199814,1,0,0:0:0:0:
256,192,199985,1,8,0:0:0:0:
256,192,200157,1,0,0:0:0:0:
256,192,200500,1,0,0:0:0:0:
256,192,200671,1,8,0:0:0:0:
256,192,201014,1,0,0:0:0:0:
256,192,201185,1,0,0:0:0:0:
256,192,201357,1,8,0:0:0:0:
256,192,201442,1,8,0:0:0:0:
256,192,201528,1,0,0:0:0:0:
256,192,201700,1,12,0:0:0:0:
256,192,201957,1,0,0:0:0:0:
256,192,202042,1,8,0:0:0:0:
256,192,202214,1,0,0:0:0:0:
256,192,202385,1,8,0:0:0:0:
256,192,202642,1,0,0:0:0:0:
256,192,202728,1,8,0:0:0:0:
256,192,202900,1,8,0:0:0:0:
256,192,202985,1,0,0:0:0:0:
256,192,203071,1,8,0:0:0:0:
256,192,203157,1,0,0:0:0:0:
256,192,203242,1,0,0:0:0:0:
256,192,203414,1,8,0:0:0:0:
256,192,203671,1,8,0:0:0:0:
256,192,203757,1,0,0:0:0:0:
256,192,203928,1,0,0:0:0:0:
256,192,204100,1,8,0:0:0:0:
256,192,204271,1,0,0:0:0:0:
256,192,204442,1,12,0:0:0:0:
256,192,204785,1,8,0:0:0:0:
256,192,204957,1,4,0:0:0:0:
256,192,205300,1,0,0:0:0:0:
256,192,205471,1,12,0:0:0:0:
256,192,205814,1,8,0:0:0:0:
256,192,205985,1,4,0:0:0:0:
256,192,206328,1,0,0:0:0:0:
256,192,206500,1,12,0:0:0:0:
256,192,206842,1,0,0:0:0:0:
256,192,207014,1,8,0:0:0:0:
256,192,207185,1,0,0:0:0:0:
256,192,207271,1,0,0:0:0:0:
256,192,207357,1,0,0:0:0:0:
256,192,207528,1,8,0:0:0:0:
256,192,207700,1,0,0:0:0:0:
256,192,207871,1,8,0:0:0:0:
256,192,207957,1,0,0:0:0:0:
256,192,208042,1,8,0:0:0:0:
256,192,208128,1,8,0:0:0:0:
256,192,208214,1,0,0:0:0:0:
256,192,208300,1,0,0:0:0:0:
256,192,208385,1,8,0:0:0:0:
256,192,208471,1,0,0:0:0:0:
256,192,208557,1,8,0:0:0:0:
256,192,209242,1,0,0:0:0:0:
256,192,209328,1,0,0:0:0:0:
256,192,209414,1,0,0:0:0:0:
256,192,209585,1,12,0:0:0:0:
256,160,209928,5,0,0:0:0:0:
256,160,210100,1,0,0:0:0:0:
256,160,210185,1,0,0:0:0:0:
256,160,210271,1,8,0:0:0:0:
256,160,210357,1,0,0:0:0:0:
256,160,210528,1,8,0:0:0:0:
256,160,210700,1,0,0:0:0:0:
256,160,210871,1,0,0:0:0:0:
256,160,210957,1,8,0:0:0:0:
256,160,211042,1,8,0:0:0:0:
256,160,211128,1,0,0:0:0:0:
256,160,211300,1,0,0:0:0:0:
256,160,211385,1,8,0:0:0:0:
256,160,211557,1,8,0:0:0:0:
256,160,211728,1,8,0:0:0:0:
256,160,211814,1,8,0:0:0:0:
256,160,211985,1,0,0:0:0:0:
256,160,212157,1,0,0:0:0:0:
256,160,212242,1,0,0:0:0:0:
256,160,212328,1,8,0:0:0:0:
256,160,212414,1,0,0:0:0:0:
256,160,212500,1,8,0:0:0:0:
256,160,212585,1,8,0:0:0:0:
256,160,212671,1,0,0:0:0:0:
256,160,212928,1,8,0:0:0:0:
256,160,213014,1,0,0:0:0:0:
256,160,213185,1,8,0:0:0:0:
256,160,213357,1,0,0:0:0:0:
256,160,213614,1,8,0:0:0:0:
256,160,213700,1,8,0:0:0:0:
256,160,213871,1,0,0:0:0:0:
256,160,213957,1,8,0:0:0:0:
256,160,214042,1,0,0:0:0:0:
256,160,214128,1,8,0:0:0:0:
256,160,214300,1,8,0:0:0:0:
256,160,214385,1,0,0:0:0:0:
256,160,214557,1,8,0:0:0:0:
256,160,214642,1,8,0:0:0:0:
256,160,214728,1,0,0:0:0:0:
256,160,214814,1,0,0:0:0:0:
256,160,214900,1,8,0:0:0:0:
256,160,215071,1,0,0:0:0:0:
256,160,215157,1,0,0:0:0:0:
256,160,215242,1,8,0:0:0:0:
256,160,215328,1,8,0:0:0:0:
256,160,215414,1,0,0:0:0:0:
256,160,215585,1,0,0:0:0:0:
256,160,215671,1,0,0:0:0:0:
256,160,215757,1,0,0:0:0:0:
256,160,215842,1,8,0:0:0:0:
256,160,216014,1,0,0:0:0:0:
256,160,216185,1,8,0:0:0:0:
256,160,216357,1,0,0:0:0:0:
256,160,216442,1,8,0:0:0:0:
256,160,216528,1,8,0:0:0:0:
256,160,216614,1,0,0:0:0:0:
256,160,216785,1,0,0:0:0:0:
256,160,216871,1,8,0:0:0:0:
256,160,217042,1,0,0:0:0:0:
256,160,217214,1,8,0:0:0:0:
256,160,217300,1,8,0:0:0:0:
256,160,217471,1,0,0:0:0:0:
256,160,217642,1,0,0:0:0:0:
256,160,217728,1,0,0:0:0:0:
256,160,217814,1,8,0:0:0:0:
256,160,217900,1,8,0:0:0:0:
256,160,217985,1,0,0:0:0:0:
256,160,218071,1,8,0:0:0:0:
256,160,218157,1,0,0:0:0:0:
256,160,218414,1,8,0:0:0:0:
256,160,218500,1,0,0:0:0:0:
256,160,218671,1,8,0:0:0:0:
256,160,218757,1,0,0:0:0:0:
256,160,218842,1,0,0:0:0:0:
256,160,219014,1,8,0:0:0:0:
256,160,219357,1,4,0:0:0:0:
256,160,219700,1,0,0:0:0:0:
256,160,219871,1,8,0:0:0:0:
256,160,220042,1,0,0:0:0:0:
256,160,220128,1,8,0:0:0:0:
256,160,220300,1,8,0:0:0:0:
256,160,220385,1,0,0:0:0:0:
256,192,220557,1,12,0:0:0:0:
256,160,220900,1,0,0:0:0:0:
256,160,220985,1,0,0:0:0:0:
256,160,221157,1,0,0:0:0:0:
256,160,221242,1,8,0:0:0:0:
256,160,221328,1,0,0:0:0:0:
256,160,221500,1,8,0:0:0:0:
256,160,221671,1,0,0:0:0:0:
256,160,221842,1,0,0:0:0:0:
256,160,221928,1,8,0:0:0:0:
256,160,222014,1,8,0:0:0:0:
256,160,222100,1,0,0:0:0:0:
256,160,222271,1,0,0:0:0:0:
256,160,222357,1,8,0:0:0:0:
256,160,222528,1,0,0:0:0:0:
256,160,222614,1,0,0:0:0:0:
256,160,222700,1,8,0:0:0:0:
256,160,222785,1,8,0:0:0:0:
256,160,222871,1,0,0:0:0:0:
256,160,223042,1,0,0:0:0:0:
256,160,223128,1,0,0:0:0:0:
256,160,223214,1,0,0:0:0:0:
256,160,223300,1,8,0:0:0:0:
256,160,223385,1,0,0:0:0:0:
256,160,223471,1,8,0:0:0:0:
256,160,223557,1,8,0:0:0:0:
256,160,223642,1,0,0:0:0:0:
256,160,223900,1,8,0:0:0:0:
256,160,223985,1,0,0:0:0:0:
256,160,224157,1,8,0:0:0:0:
256,160,224328,1,0,0:0:0:0:
256,160,224585,1,8,0:0:0:0:
256,160,224671,1,8,0:0:0:0:
256,160,224842,1,0,0:0:0:0:
256,160,224928,1,8,0:0:0:0:
256,160,225014,1,0,0:0:0:0:
256,160,225100,1,8,0:0:0:0:
256,160,225271,1,8,0:0:0:0:
256,160,225357,1,0,0:0:0:0:
256,160,225528,1,8,0:0:0:0:
256,160,225614,1,8,0:0:0:0:
256,160,225700,1,0,0:0:0:0:
256,160,225785,1,0,0:0:0:0:
256,160,225871,1,8,0:0:0:0:
256,160,226042,1,0,0:0:0:0:
256,160,226128,1,0,0:0:0:0:
256,160,226214,1,8,0:0:0:0:
256,160,226300,1,8,0:0:0:0:
256,160,226385,1,0,0:0:0:0:
256,160,226471,1,0,0:0:0:0:
256,160,226642,1,0,0:0:0:0:
256,160,226728,1,0,0:0:0:0:
256,160,226814,1,8,0:0:0:0:
256,160,226985,1,0,0:0:0:0:
256,160,227157,1,8,0:0:0:0:
256,160,227328,1,0,0:0:0:0:
256,160,227414,1,8,0:0:0:0:
256,160,227500,1,8,0:0:0:0:
256,160,227585,1,0,0:0:0:0:
256,160,227757,1,0,0:0:0:0:
256,160,227842,1,8,0:0:0:0:
256,160,228014,1,0,0:0:0:0:
256,160,228100,1,8,0:0:0:0:
256,160,228185,1,8,0:0:0:0:
256,160,228271,1,8,0:0:0:0:
256,160,228357,1,0,0:0:0:0:
256,160,228528,1,0,0:0:0:0:
256,160,228614,1,0,0:0:0:0:
256,160,228700,1,0,0:0:0:0:
256,160,228785,1,8,0:0:0:0:
256,160,228871,1,8,0:0:0:0:
256,160,228957,1,0,0:0:0:0:
256,160,229042,1,8,0:0:0:0:
256,160,229128,1,0,0:0:0:0:
256,160,229300,1,0,0:0:0:0:
256,160,229385,1,8,0:0:0:0:
256,160,229471,1,0,0:0:0:0:
256,160,229557,1,0,0:0:0:0:
256,160,229642,1,8,0:0:0:0:
256,160,229728,1,0,0:0:0:0:
256,160,229814,1,0,0:0:0:0:
256,160,229900,1,8,0:0:0:0:
256,160,229985,1,0,0:0:0:0:
256,160,230071,1,8,0:0:0:0:
256,160,230157,1,0,0:0:0:0:
256,160,230242,1,0,0:0:0:0:
256,160,230328,1,8,0:0:0:0:
256,160,230414,1,8,0:0:0:0:
256,160,230500,1,0,0:0:0:0:
256,160,230842,1,8,0:0:0:0:
256,160,231185,1,8,0:0:0:0:
256,160,231528,1,8,0:0:0:0:
256,192,231871,5,4,0:0:0:0:
256,192,232042,1,0,0:0:0:0:
256,192,232128,1,0,0:0:0:0:
256,192,232214,1,8,0:0:0:0:
256,192,232385,1,0,0:0:0:0:
256,192,232557,1,8,0:0:0:0:
256,192,232642,1,8,0:0:0:0:
256,192,232728,1,0,0:0:0:0:
256,192,232814,1,0,0:0:0:0:
256,192,232900,1,8,0:0:0:0:
256,192,233071,1,0,0:0:0:0:
256,192,233157,1,8,0:0:0:0:
256,192,233242,1,0,0:0:0:0:
256,192,233414,1,0,0:0:0:0:
256,192,233585,1,8,0:0:0:0:
256,192,233757,1,0,0:0:0:0:
256,192,233842,1,8,0:0:0:0:
256,192,233928,1,8,0:0:0:0:
256,192,234014,1,0,0:0:0:0:
256,192,234100,1,8,0:0:0:0:
256,192,234185,1,8,0:0:0:0:
256,192,234271,1,0,0:0:0:0:
256,192,234442,1,8,0:0:0:0:
256,192,234528,1,0,0:0:0:0:
256,192,234614,1,8,0:0:0:0:
256,192,234785,1,0,0:0:0:0:
256,192,234871,1,0,0:0:0:0:
256,192,234957,1,8,0:0:0:0:
256,192,235042,1,8,0:0:0:0:
256,192,235128,1,0,0:0:0:0:
256,192,235300,1,8,0:0:0:0:
256,192,235471,1,0,0:0:0:0:
256,192,235557,1,0,0:0:0:0:
256,192,235642,1,8,0:0:0:0:
256,192,235814,1,8,0:0:0:0:
256,192,235985,1,0,0:0:0:0:
256,192,236157,1,0,0:0:0:0:
256,192,236242,1,0,0:0:0:0:
256,192,236328,1,8,0:0:0:0:
256,192,236500,1,0,0:0:0:0:
256,192,236585,1,8,0:0:0:0:
256,192,236671,1,0,0:0:0:0:
256,192,236842,1,8,0:0:0:0:
256,192,236928,1,0,0:0:0:0:
256,192,237014,1,8,0:0:0:0:
256,192,237100,1,8,0:0:0:0:
256,192,237185,1,0,0:0:0:0:
256,192,237357,1,8,0:0:0:0:
256,192,237528,1,0,0:0:0:0:
256,192,237614,1,8,0:0:0:0:
256,192,237700,1,0,0:0:0:0:
256,192,237871,1,0,0:0:0:0:
256,192,237957,1,0,0:0:0:0:
256,192,238042,1,8,0:0:0:0:
256,192,238214,1,0,0:0:0:0:
256,192,238385,1,8,0:0:0:0:
256,192,238557,1,8,0:0:0:0:
256,192,238642,1,8,0:0:0:0:
256,192,238728,1,0,0:0:0:0:
256,192,238900,1,8,0:0:0:0:
256,192,239071,1,0,0:0:0:0:
256,192,239242,1,0,0:0:0:0:
256,192,239328,1,0,0:0:0:0:
256,192,239414,1,8,0:0:0:0:
256,192,239500,1,8,0:0:0:0:
256,192,239585,1,0,0:0:0:0:
256,192,239671,1,0,0:0:0:0:
256,192,239757,1,8,0:0:0:0:
256,192,239928,1,8,0:0:0:0:
256,192,240100,1,0,0:0:0:0:
256,192,240271,1,0,0:0:0:0:
256,192,240357,1,0,0:0:0:0:
256,192,240442,1,8,0:0:0:0:
256,192,240614,1,8,0:0:0:0:
256,192,240700,1,0,0:0:0:0:
256,192,240785,1,8,0:0:0:0:
256,192,240871,1,8,0:0:0:0:
256,192,240957,1,0,0:0:0:0:
256,192,241128,1,8,0:0:0:0:
256,192,241300,1,4,0:0:0:0:
256,192,241471,1,8,0:0:0:0:
256,192,241557,1,8,0:0:0:0:
256,192,241642,1,0,0:0:0:0:
256,192,241728,1,0,0:0:0:0:
256,192,241814,1,8,0:0:0:0:
256,192,241900,1,0,0:0:0:0:
256,192,241985,1,8,0:0:0:0:
256,192,242071,1,8,0:0:0:0:
256,192,242157,1,0,0:0:0:0:
256,192,242328,1,0,0:0:0:0:
256,192,242500,1,12,0:0:0:0:
256,192,242842,1,4,0:0:0:0:
256,192,243014,1,0,0:0:0:0:
256,192,243100,1,0,0:0:0:0:
256,192,243185,1,8,0:0:0:0:
256,192,243271,1,8,0:0:0:0:
256,192,243357,1,0,0:0:0:0:
256,192,243528,1,8,0:0:0:0:
256,192,243700,1,0,0:0:0:0:
256,192,243785,1,0,0:0:0:0:
256,192,243871,1,8,0:0:0:0:
256,192,244042,1,0,0:0:0:0:
256,192,244128,1,8,0:0:0:0:
256,192,244214,1,0,0:0:0:0:
256,192,244385,1,8,0:0:0:0:
256,192,244557,1,0,0:0:0:0:
256,192,244728,1,8,0:0:0:0:
256,192,244814,1,8,0:0:0:0:
256,192,244900,1,0,0:0:0:0:
256,192,244985,1,8,0:0:0:0:
256,192,245071,1,0,0:0:0:0:
256,192,245157,1,0,0:0:0:0:
256,192,245242,1,8,0:0:0:0:
256,192,245414,1,0,0:0:0:0:
256,192,245585,1,8,0:0:0:0:
256,192,245671,1,8,0:0:0:0:
256,192,245757,1,0,0:0:0:0:
256,192,245842,1,0,0:0:0:0:
256,192,245928,1,8,0:0:0:0:
256,192,246100,1,0,0:0:0:0:
256,192,246185,1,8,0:0:0:0:
256,192,246271,1,0,0:0:0:0:
256,192,246442,1,8,0:0:0:0:
256,192,246614,1,0,0:0:0:0:
256,192,246785,1,8,0:0:0:0:
256,192,246871,1,0,0:0:0:0:
256,192,246957,1,0,0:0:0:0:
256,192,247042,1,8,0:0:0:0:
256,192,247128,1,0,0:0:0:0:
256,192,247300,1,8,0:0:0:0:
256,192,247471,1,0,0:0:0:0:
256,192,247557,1,8,0:0:0:0:
256,192,247642,1,0,0:0:0:0:
256,192,247728,1,0,0:0:0:0:
256,192,247814,1,8,0:0:0:0:
256,192,247900,1,0,0:0:0:0:
256,192,247985,1,8,0:0:0:0:
256,192,248071,1,8,0:0:0:0:
256,192,248157,1,0,0:0:0:0:
256,192,248242,1,8,0:0:0:0:
256,192,248328,1,0,0:0:0:0:
256,192,248500,1,0,0:0:0:0:
256,192,248671,1,8,0:0:0:0:
256,192,248842,1,8,0:0:0:0:
256,192,248928,1,8,0:0:0:0:
256,192,249014,1,0,0:0:0:0:
256,192,249185,1,8,0:0:0:0:
256,192,249357,1,8,0:0:0:0:
256,192,249528,1,0,0:0:0:0:
256,192,249614,1,8,0:0:0:0:
256,192,249700,1,0,0:0:0:0:
256,192,249871,1,0,0:0:0:0:
256,192,250042,1,8,0:0:0:0:
256,192,250214,1,8,0:0:0:0:
256,192,250300,1,0,0:0:0:0:
256,192,250385,1,8,0:0:0:0:
256,192,250471,1,8,0:0:0:0:
256,192,250557,1,0,0:0:0:0:
256,192,250728,1,8,0:0:0:0:
256,192,250900,1,8,0:0:0:0:
256,192,250985,1,0,0:0:0:0:
256,192,251071,1,0,0:0:0:0:
256,192,251242,1,0,0:0:0:0:
256,192,251328,1,0,0:0:0:0:
256,192,251414,1,8,0:0:0:0:
256,192,251585,1,0,0:0:0:0:
256,192,251757,1,8,0:0:0:0:
256,192,251842,1,8,0:0:0:0:
256,192,251928,1,8,0:0:0:0:
256,192,252014,1,0,0:0:0:0:
256,192,252100,1,8,0:0:0:0:
256,192,252271,1,0,0:0:0:0:
256,192,252357,1,8,0:0:0:0:
256,192,252442,1,0,0:0:0:0:
256,192,252614,1,0,0:0:0:0:
256,192,252785,1,8,0:0:0:0:
256,192,252957,1,0,0:0:0:0:
256,192,253042,1,0,0:0:0:0:
256,192,253128,1,0,0:0:0:0:
256,192,253300,1,0,0:0:0:0:
256,192,253471,1,8,0:0:0:0:
256,192,253642,1,12,0:0:0:0:
256,192,254500,1,0,0:0:0:0:
256,192,254842,1,0,0:0:0:0:
256,192,255014,1,12,0:0:0:0:
256,192,255357,1,12,0:0:0:0:
256,192,255700,1,12,0:0:0:0:
256,192,256042,1,4,0:0:0:0:
256,192,256557,5,4,0:0:0:0:
256,192,257928,1,0,0:0:0:0:
256,192,258442,1,8,0:0:0:0:
256,192,258528,1,8,0:0:0:0:
256,192,258614,1,8,0:0:0:0:
256,192,258871,1,8,0:0:0:0:
256,192,259128,1,8,0:0:0:0:
256,192,259300,1,0,0:0:0:0:
256,192,259814,1,8,0:0:0:0:
256,192,259900,1,8,0:0:0:0:
256,192,259985,1,8,0:0:0:0:
224,192,260328,1,8,0:0:0:0:
224,192,260671,1,0,0:0:0:0:
224,192,261014,1,8,0:0:0:0:
256,192,261357,1,0,0:0:0:0:
256,192,261700,1,8,0:0:0:0:
224,192,261871,1,0,0:0:0:0:
256,192,262042,1,0,0:0:0:0:
256,192,262385,1,8,0:0:0:0:
256,192,262728,1,0,0:0:0:0:
256,192,263071,1,8,0:0:0:0:
256,192,263242,1,0,0:0:0:0:
256,192,263414,1,0,0:0:0:0:
256,192,263757,1,8,0:0:0:0:
256,192,263928,1,0,0:0:0:0:
256,192,264100,1,0,0:0:0:0:
256,192,264357,1,8,0:0:0:0:
256,192,264614,1,8,0:0:0:0:
256,192,264785,1,0,0:0:0:0:
256,192,265042,1,0,0:0:0:0:
256,192,265128,1,8,0:0:0:0:
256,192,265300,1,0,0:0:0:0:
256,192,265471,1,0,0:0:0:0:
256,192,265814,1,8,0:0:0:0:
256,192,265985,1,0,0:0:0:0:
256,192,266071,1,0,0:0:0:0:
256,192,266157,1,0,0:0:0:0:
256,192,266328,1,8,0:0:0:0:
256,192,266671,1,0,0:0:0:0:
256,192,266842,1,8,0:0:0:0:
256,192,267014,1,8,0:0:0:0:
256,192,267100,1,8,0:0:0:0:
256,192,267185,1,0,0:0:0:0:
256,192,267271,1,0,0:0:0:0:
256,192,267357,1,0,0:0:0:0:
256,192,267528,1,4,0:0:0:0:
256,192,267871,1,8,0:0:0:0:
256,192,268042,1,0,0:0:0:0:
256,192,268385,1,0,0:0:0:0:
256,192,268557,1,8,0:0:0:0:
256,192,268728,1,0,0:0:0:0:
256,192,268814,1,0,0:0:0:0:
256,192,268900,1,0,0:0:0:0:
256,192,269071,1,8,0:0:0:0:
256,192,269242,1,0,0:0:0:0:
256,192,269414,1,0,0:0:0:0:
256,192,269500,1,8,0:0:0:0:
256,192,269671,1,0,0:0:0:0:
256,192,269757,1,8,0:0:0:0:
256,192,269928,1,0,0:0:0:0:
256,192,270014,1,0,0:0:0:0:
256,192,270100,1,8,0:0:0:0:
256,192,270185,1,8,0:0:0:0:
256,192,270271,1,0,0:0:0:0:
256,192,270614,1,8,0:0:0:0:
256,192,270785,1,0,0:0:0:0:
256,192,271128,1,0,0:0:0:0:
256,192,271300,1,8,0:0:0:0:
256,192,271471,1,8,0:0:0:0:
256,192,271642,1,0,0:0:0:0:
256,192,271728,1,0,0:0:0:0:
256,192,271814,1,8,0:0:0:0:
256,192,271985,1,0,0:0:0:0:
256,192,272157,1,0,0:0:0:0:
256,192,272242,1,0,0:0:0:0:
256,192,272328,1,8,0:0:0:0:
256,192,272414,1,8,0:0:0:0:
256,192,272500,1,0,0:0:0:0:
256,192,272585,1,8,0:0:0:0:
256,192,272671,1,0,0:0:0:0:
256,192,272757,1,0,0:0:0:0:
256,192,272842,1,8,0:0:0:0:
256,192,272928,1,8,0:0:0:0:
256,192,273014,1,0,0:0:0:0:
256,192,273185,1,0,0:0:0:0:
256,192,273357,1,8,0:0:0:0:
256,192,273528,1,4,0:0:0:0:
256,192,273871,1,4,0:0:0:0:
256,192,274214,1,8,0:0:0:0:
256,192,274300,1,8,0:0:0:0:
256,192,274385,1,0,0:0:0:0:
256,192,274557,1,0,0:0:0:0:
256,192,274728,1,8,0:0:0:0:
256,192,274900,1,4,0:0:0:0:
256,192,275242,1,4,0:0:0:0:
256,192,275585,1,12,0:0:0:0:
256,192,275928,1,0,0:0:0:0:
256,192,276100,1,8,0:0:0:0:
256,192,276271,1,0,0:0:0:0:
256,192,276357,1,0,0:0:0:0:
256,192,276442,1,8,0:0:0:0:
256,192,276614,1,0,0:0:0:0:
256,192,276700,1,0,0:0:0:0:
256,192,276785,1,8,0:0:0:0:
256,192,276957,1,4,0:0:0:0:
256,192,277300,1,12,0:0:0:0:
256,192,277471,1,12,0:0:0:0:
256,192,277642,1,0,0:0:0:0:
256,192,277728,1,8,0:0:0:0:
256,192,277814,1,0,0:0:0:0:
256,192,277985,1,8,0:0:0:0:
256,192,278071,1,0,0:0:0:0:
256,192,278157,1,8,0:0:0:0:
256,192,278242,1,8,0:0:0:0:
256,192,278328,1,0,0:0:0:0:
256,192,278500,5,4,0:0:0:0:
256,192,278671,1,0,0:0:0:0:
256,192,278842,1,8,0:0:0:0:
256,192,279014,1,0,0:0:0:0:
256,192,279357,1,0,0:0:0:0:
256,192,279528,1,8,0:0:0:0:
256,192,279700,1,0,0:0:0:0:
256,192,280042,1,0,0:0:0:0:
256,192,280214,1,8,0:0:0:0:
256,192,280557,1,8,0:0:0:0:
256,192,280900,1,0,0:0:0:0:
256,192,281242,1,12,0:0:0:0:
256,192,281585,1,8,0:0:0:0:
256,192,281757,1,0,0:0:0:0:
256,192,282100,1,0,0:0:0:0:
256,192,282271,1,8,0:0:0:0:
256,192,282442,1,4,0:0:0:0:
256,192,282614,1,0,0:0:0:0:
256,192,282785,1,8,0:0:0:0:
256,192,283128,1,0,0:0:0:0:
256,192,283300,1,0,0:0:0:0:
256,192,283471,1,8,0:0:0:0:
256,192,283642,1,8,0:0:0:0:
256,192,283814,1,0,0:0:0:0:
256,192,283985,1,8,0:0:0:0:
256,192,284328,1,0,0:0:0:0:
256,192,284500,1,8,0:0:0:0:
256,192,284671,1,0,0:0:0:0:
256,192,284928,1,0,0:0:0:0:
256,192,285014,1,8,0:0:0:0:
256,192,285185,1,8,0:0:0:0:
256,192,285357,1,0,0:0:0:0:
256,192,285528,1,8,0:0:0:0:
256,192,285700,1,0,0:0:0:0:
256,192,285871,1,0,0:0:0:0:
256,192,286042,1,8,0:0:0:0:
256,192,286300,1,0,0:0:0:0:
256,192,286557,1,8,0:0:0:0:
256,192,286728,1,0,0:0:0:0:
256,192,286900,1,8,0:0:0:0:
256,192,286985,1,8,0:0:0:0:
256,192,287071,1,0,0:0:0:0:
256,192,287157,1,0,0:0:0:0:
256,192,287242,1,8,0:0:0:0:
256,192,287328,1,8,0:0:0:0:
256,192,287414,1,0,0:0:0:0:
256,192,287500,1,0,0:0:0:0:
256,192,287585,1,0,0:0:0:0:
256,192,287671,1,0,0:0:0:0:
256,192,287757,1,8,0:0:0:0:
256,192,287842,1,8,0:0:0:0:
256,192,287928,1,8,0:0:0:0:
256,192,288014,1,8,0:0:0:0:
256,192,288100,1,0,0:0:0:0:
256,192,289471,1,0,0:0:0:0:
256,192,289814,1,12,0:0:0:0:
256,192,289985,1,0,0:0:0:0:
256,192,290071,1,0,0:0:0:0:
256,192,290157,1,8,0:0:0:0:
256,192,290242,1,8,0:0:0:0:
256,192,290328,1,0,0:0:0:0:
256,192,290500,1,8,0:0:0:0:
256,192,290671,1,0,0:0:0:0:
256,192,290757,1,8,0:0:0:0:
256,192,290842,1,0,0:0:0:0:
256,192,291014,1,0,0:0:0:0:
256,192,291185,1,8,0:0:0:0:
256,192,291271,1,8,0:0:0:0:
256,192,291357,1,0,0:0:0:0:
256,192,291442,1,0,0:0:0:0:
256,192,291528,1,8,0:0:0:0:
256,192,291700,1,0,0:0:0:0:
256,192,291871,1,8,0:0:0:0:
256,192,292042,1,0,0:0:0:0:
256,192,292128,1,0,0:0:0:0:
256,192,292214,1,8,0:0:0:0:
256,192,292385,1,0,0:0:0:0:
256,192,292471,1,8,0:0:0:0:
256,192,292642,1,8,0:0:0:0:
256,192,292728,1,0,0:0:0:0:
256,192,292900,1,0,0:0:0:0:
256,192,292985,1,0,0:0:0:0:
256,192,293071,1,0,0:0:0:0:
256,192,293157,1,8,0:0:0:0:
256,192,293242,1,8,0:0:0:0:
256,192,293414,1,0,0:0:0:0:
256,192,293500,1,8,0:0:0:0:
256,192,293585,1,0,0:0:0:0:
256,192,293671,1,8,0:0:0:0:
256,192,293757,1,8,0:0:0:0:
256,192,293842,1,0,0:0:0:0:
256,192,293928,1,8,0:0:0:0:
256,192,294100,1,0,0:0:0:0:
256,192,294185,1,0,0:0:0:0:
256,192,294271,1,8,0:0:0:0:
256,192,294357,1,0,0:0:0:0:
256,192,294442,1,8,0:0:0:0:
256,192,294528,1,8,0:0:0:0:
256,192,294614,1,0,0:0:0:0:
256,192,294700,1,8,0:0:0:0:
256,192,294785,1,0,0:0:0:0:
256,192,294957,1,8,0:0:0:0:
256,192,295128,1,0,0:0:0:0:
256,192,295214,1,0,0:0:0:0:
256,192,295300,1,8,0:0:0:0:
256,192,295471,1,0,0:0:0:0:
256,192,295557,1,0,0:0:0:0:
256,192,295642,1,8,0:0:0:0:
256,192,295814,1,0,0:0:0:0:
256,192,295985,1,8,0:0:0:0:
256,192,296071,1,8,0:0:0:0:
256,192,296157,1,8,0:0:0:0:
256,192,296242,1,8,0:0:0:0:
256,192,296328,1,0,0:0:0:0:
256,192,296500,1,8,0:0:0:0:
256,192,296671,1,0,0:0:0:0:
256,192,296757,1,8,0:0:0:0:
256,192,296842,1,0,0:0:0:0:
256,192,296928,1,0,0:0:0:0:
256,192,297014,1,8,0:0:0:0:
256,192,297185,1,0,0:0:0:0:
256,192,297271,1,0,0:0:0:0:
256,192,297357,1,8,0:0:0:0:
256,192,297442,1,0,0:0:0:0:
256,192,297528,1,8,0:0:0:0:
256,192,297614,1,8,0:0:0:0:
256,192,297700,1,0,0:0:0:0:
256,192,297871,1,0,0:0:0:0:
256,192,298042,1,8,0:0:0:0:
256,192,298214,1,8,0:0:0:0:
256,192,298300,1,0,0:0:0:0:
256,192,298385,1,8,0:0:0:0:
256,192,298557,1,0,0:0:0:0:
256,192,298642,1,0,0:0:0:0:
256,192,298728,1,8,0:0:0:0:
256,192,298900,1,4,0:0:0:0:
256,192,299071,1,8,0:0:0:0:
256,192,299157,1,8,0:0:0:0:
256,192,299242,1,0,0:0:0:0:
256,192,299328,1,8,0:0:0:0:
256,192,299414,1,0,0:0:0:0:
256,192,299500,1,0,0:0:0:0:
256,192,299585,1,8,0:0:0:0:
256,192,299671,1,0,0:0:0:0:
256,192,299757,1,8,0:0:0:0:
256,192,299928,1,8,0:0:0:0:
256,192,300014,1,0,0:0:0:0:
256,192,300100,1,8,0:0:0:0:
256,192,300185,1,8,0:0:0:0:
256,192,300271,1,0,0:0:0:0:
256,192,300357,1,8,0:0:0:0:
256,192,300442,5,0,0:0:0:0:
256,192,300528,1,0,0:0:0:0:
256,192,300614,1,0,0:0:0:0:
256,192,300785,1,8,0:0:0:0:
256,192,300957,1,0,0:0:0:0:
256,192,301042,1,8,0:0:0:0:
256,192,301128,1,0,0:0:0:0:
256,192,301300,1,0,0:0:0:0:
256,192,301385,1,0,0:0:0:0:
256,192,301471,1,8,0:0:0:0:
256,192,301557,1,0,0:0:0:0:
256,192,301642,1,8,0:0:0:0:
256,192,301728,1,8,0:0:0:0:
256,192,301814,1,0,0:0:0:0:
256,192,301985,1,0,0:0:0:0:
256,192,302071,1,8,0:0:0:0:
256,192,302157,1,0,0:0:0:0:
256,192,302242,1,0,0:0:0:0:
256,192,302328,1,8,0:0:0:0:
256,192,302500,1,8,0:0:0:0:
256,192,302585,1,8,0:0:0:0:
256,192,302671,1,0,0:0:0:0:
256,192,302842,1,8,0:0:0:0:
256,192,302928,1,0,0:0:0:0:
256,192,303014,1,8,0:0:0:0:
256,192,303100,1,8,0:0:0:0:
256,192,303185,1,0,0:0:0:0:
256,192,303271,1,0,0:0:0:0:
256,192,303357,1,8,0:0:0:0:
256,192,303528,1,8,0:0:0:0:
256,192,303614,1,0,0:0:0:0:
256,192,303700,1,0,0:0:0:0:
256,192,303785,1,8,0:0:0:0:
256,192,303871,1,0,0:0:0:0:
256,192,303957,1,8,0:0:0:0:
256,192,304128,1,8,0:0:0:0:
256,192,304214,1,0,0:0:0:0:
256,192,304385,1,8,0:0:0:0:
256,192,304471,1,8,0:0:0:0:
256,192,304557,1,0,0:0:0:0:
256,192,304642,1,0,0:0:0:0:
256,192,304728,1,8,0:0:0:0:
256,192,304814,1,0,0:0:0:0:
256,192,304900,1,8,0:0:0:0:
256,192,304985,1,8,0:0:0:0:
256,192,305071,1,0,0:0:0:0:
256,192,305157,1,8,0:0:0:0:
256,192,305242,1,0,0:0:0:0:
256,192,305328,1,0,0:0:0:0:
256,192,305414,1,0,0:0:0:0:
256,192,305500,1,8,0:0:0:0:
256,192,305585,1,0,0:0:0:0:
256,192,305671,1,0,0:0:0:0:
256,192,305757,1,8,0:0:0:0:
256,192,305842,1,8,0:0:0:0:
256,192,305928,1,0,0:0:0:0:
256,192,306100,1,0,0:0:0:0:
256,192,306185,1,0,0:0:0:0:
256,192,306271,1,8,0:0:0:0:
256,192,306442,1,0,0:0:0:0:
256,192,306528,1,0,0:0:0:0:
256,192,306614,1,0,0:0:0:0:
256,192,306700,1,8,0:0:0:0:
256,192,306871,1,0,0:0:0:0:
256,192,306957,1,8,0:0:0:0:
256,192,307128,1,8,0:0:0:0:
256,192,307214,1,8,0:0:0:0:
256,192,307300,1,0,0:0:0:0:
256,192,307471,1,0,0:0:0:0:
256,192,307557,1,0,0:0:0:0:
256,192,307642,1,8,0:0:0:0:
256,192,307814,1,0,0:0:0:0:
256,192,307900,1,8,0:0:0:0:
256,192,307985,1,0,0:0:0:0:
256,192,308071,1,8,0:0:0:0:
256,192,308242,1,0,0:0:0:0:
256,192,308328,1,8,0:0:0:0:
256,192,308414,1,0,0:0:0:0:
256,192,308500,1,8,0:0:0:0:
256,192,308585,1,8,0:0:0:0:
256,192,308671,1,0,0:0:0:0:
256,192,308842,1,0,0:0:0:0:
256,192,308928,1,0,0:0:0:0:
256,192,309014,1,8,0:0:0:0:
256,192,309100,1,0,0:0:0:0:
256,192,309185,1,0,0:0:0:0:
256,192,309271,1,8,0:0:0:0:
256,192,309357,1,8,0:0:0:0:
256,192,309528,1,0,0:0:0:0:
256,192,309614,1,0,0:0:0:0:
256,192,309700,1,8,0:0:0:0:
256,192,309785,1,0,0:0:0:0:
256,192,309871,1,8,0:0:0:0:
256,192,310042,1,0,0:0:0:0:
256,192,310128,1,0,0:0:0:0:
256,192,310214,1,0,0:0:0:0:
256,192,310300,1,0,0:0:0:0:
256,192,310385,1,8,0:0:0:0:
256,192,310557,1,0,0:0:0:0:
256,192,310642,1,8,0:0:0:0:
256,192,310728,1,0,0:0:0:0:
256,192,310814,1,0,0:0:0:0:
256,192,310900,1,8,0:0:0:0:
256,192,310985,1,0,0:0:0:0:
256,192,311071,1,0,0:0:0:0:
256,192,311157,1,0,0:0:0:0:
256,192,311242,1,8,0:0:0:0:
256,192,312100,1,0,0:0:0:0:
256,192,312271,1,0,0:0:0:0:
256,192,312357,1,0,0:0:0:0:
256,192,312442,1,8,0:0:0:0:
256,192,312614,1,4,0:0:0:0:
256,192,312957,1,4,0:0:0:0:
256,192,313300,1,12,0:0:0:0:
256,192,313642,1,12,0:0:0:0:
256,192,313814,1,0,0:0:0:0:
256,192,313985,1,0,0:0:0:0:
256,192,314157,1,4,0:0:0:0:
256,192,314500,1,8,0:0:0:0:
256,192,314757,1,8,0:0:0:0:
256,192,314842,1,0,0:0:0:0:
256,192,315014,1,0,0:0:0:0:
256,192,315100,1,8,0:0:0:0:
256,192,315185,1,0,0:0:0:0:
256,192,315271,1,0,0:0:0:0:
256,192,315357,1,8,0:0:0:0:
256,192,315528,1,0,0:0:0:0:
256,192,315614,1,0,0:0:0:0:
256,192,315700,1,8,0:0:0:0:
256,192,315871,1,8,0:0:0:0:
256,192,316042,1,0,0:0:0:0:
256,192,316128,1,8,0:0:0:0:
256,192,316214,1,0,0:0:0:0:
256,192,316300,1,8,0:0:0:0:
256,192,316385,1,8,0:0:0:0:
256,192,316557,1,0,0:0:0:0:
256,192,316642,1,0,0:0:0:0:
256,192,316728,1,8,0:0:0:0:
256,192,316814,1,8,0:0:0:0:
256,192,316900,1,0,0:0:0:0:
256,192,317242,1,8,0:0:0:0:
256,192,317500,1,8,0:0:0:0:
256,192,317585,1,0,0:0:0:0:
256,192,317671,1,0,0:0:0:0:
256,192,317757,1,8,0:0:0:0:
256,192,317928,1,0,0:0:0:0:
256,192,318014,1,8,0:0:0:0:
256,192,318100,1,8,0:0:0:0:
256,192,318185,1,8,0:0:0:0:
256,192,318271,1,0,0:0:0:0:
256,192,318442,1,0,0:0:0:0:
256,192,318528,1,8,0:0:0:0:
256,192,318614,1,8,0:0:0:0:
256,192,318785,1,0,0:0:0:0:
256,192,318871,1,8,0:0:0:0:
256,192,318957,1,0,0:0:0:0:
256,192,319128,1,8,0:0:0:0:
256,192,319214,1,0,0:0:0:0:
256,192,319300,1,0,0:0:0:0:
256,192,319385,1,8,0:0:0:0:
256,192,319471,1,8,0:0:0:0:
256,192,319557,1,8,0:0:0:0:
256,192,319642,1,0,0:0:0:0:
256,192,319985,1,0,0:0:0:0:
256,192,320157,1,12,0:0:0:0:
256,192,320500,1,12,0:0:0:0:
256,192,320842,1,4,0:0:0:0:
256,192,321185,1,4,0:0:0:0:
256,192,321528,1,12,0:0:0:0:
256,192,321700,1,0,0:0:0:0:
256,192,321785,1,0,0:0:0:0:
256,192,321871,1,8,0:0:0:0:
256,192,321957,1,0,0:0:0:0:
256,192,322042,1,8,0:0:0:0:
256,192,322128,1,8,0:0:0:0:
256,192,322214,1,8,0:0:0:0:
256,192,322300,1,8,0:0:0:0:
256,192,322385,5,0,0:0:0:0:
256,192,322557,1,0,0:0:0:0:
256,192,322728,1,12,0:0:0:0:
256,192,323071,1,0,0:0:0:0:
256,192,323242,1,0,0:0:0:0:
256,192,323328,1,0,0:0:0:0:
256,192,323414,1,8,0:0:0:0:
256,192,323671,1,8,0:0:0:0:
256,192,323757,1,0,0:0:0:0:
256,192,323928,1,0,0:0:0:0:
256,192,324100,1,8,0:0:0:0:
256,192,324271,1,8,0:0:0:0:
256,192,324442,1,0,0:0:0:0:
256,192,324614,1,0,0:0:0:0:
256,192,324785,1,8,0:0:0:0:
256,192,324871,1,8,0:0:0:0:
256,192,324957,1,0,0:0:0:0:
256,192,325042,1,0,0:0:0:0:
256,192,325128,1,8,0:0:0:0:
256,192,325300,1,0,0:0:0:0:
256,192,325471,1,8,0:0:0:0:
256,192,325642,1,0,0:0:0:0:
256,192,325728,1,0,0:0:0:0:
256,192,325814,1,0,0:0:0:0:
256,192,325985,1,0,0:0:0:0:
256,192,326157,1,8,0:0:0:0:
256,192,326328,1,8,0:0:0:0:
256,192,326414,1,8,0:0:0:0:
256,192,326500,1,0,0:0:0:0:
256,192,326671,1,0,0:0:0:0:
256,192,326842,1,8,0:0:0:0:
256,192,327014,1,0,0:0:0:0:
256,192,327185,1,0,0:0:0:0:
256,192,327357,1,8,0:0:0:0:
256,192,327528,1,0,0:0:0:0:
256,192,327614,1,8,0:0:0:0:
256,192,327700,1,0,0:0:0:0:
256,192,327785,1,0,0:0:0:0:
256,192,327871,1,8,0:0:0:0:
256,192,328042,1,0,0:0:0:0:
256,192,328214,1,8,0:0:0:0:
256,192,328385,1,8,0:0:0:0:
256,192,328471,1,8,0:0:0:0:
256,192,328557,1,0,0:0:0:0:
256,192,328728,1,0,0:0:0:0:
256,192,328900,1,8,0:0:0:0:
256,192,328985,1,0,0:0:0:0:
256,192,329071,1,8,0:0:0:0:
256,192,329157,1,8,0:0:0:0:
256,192,329242,1,0,0:0:0:0:
256,192,329414,1,0,0:0:0:0:
256,192,329585,1,8,0:0:0:0:
256,192,329757,1,8,0:0:0:0:
256,192,329928,1,0,0:0:0:0:
256,192,330014,1,0,0:0:0:0:
256,192,330100,1,8,0:0:0:0:
256,192,330271,1,8,0:0:0:0:
256,192,330442,1,0,0:0:0:0:
256,192,330528,1,8,0:0:0:0:
256,192,330614,1,0,0:0:0:0:
256,192,330785,1,8,0:0:0:0:
256,192,330871,1,8,0:0:0:0:
256,192,330957,1,8,0:0:0:0:
256,192,331128,1,0,0:0:0:0:
256,192,331214,1,0,0:0:0:0:
256,192,331300,1,0,0:0:0:0:
256,192,331471,1,8,0:0:0:0:
256,192,331814,1,4,0:0:0:0:
256,192,332157,1,4,0:0:0:0:
256,192,332500,1,12,0:0:0:0:
256,192,332842,1,12,0:0:0:0:
256,192,333357,1,4,0:0:0:0:
256,192,333700,1,8,0:0:0:0:
256,192,333871,1,8,0:0:0:0:
256,192,333957,1,8,0:0:0:0:
256,192,334042,1,0,0:0:0:0:
256,192,334214,1,0,0:0:0:0:
256,192,334385,1,8,0:0:0:0:
256,192,334557,1,0,0:0:0:0:
256,192,334642,1,8,0:0:0:0:
256,192,334728,1,0,0:0:0:0:
256,192,334900,1,0,0:0:0:0:
256,192,335071,1,8,0:0:0:0:
256,192,335242,1,0,0:0:0:0:
256,192,335328,1,0,0:0:0:0:
256,192,335414,1,8,0:0:0:0:
256,192,335585,1,0,0:0:0:0:
256,192,335757,1,8,0:0:0:0:
256,192,335928,1,8,0:0:0:0:
256,192,336100,1,4,0:0:0:0:
256,192,336614,1,12,0:0:0:0:
256,192,336957,1,4,0:0:0:0:
256,192,337300,1,12,0:0:0:0:
256,192,337814,1,8,0:0:0:0:
256,192,337985,1,8,0:0:0:0:
256,192,338071,1,8,0:0:0:0:
256,192,338157,1,0,0:0:0:0:
256,192,338328,1,0,0:0:0:0:
256,192,338500,1,8,0:0:0:0:
256,192,338671,1,0,0:0:0:0:
256,192,338757,1,0,0:0:0:0:
256,192,338842,1,8,0:0:0:0:
256,192,338928,1,8,0:0:0:0:
256,192,339014,1,0,0:0:0:0:
256,192,339185,1,8,0:0:0:0:
256,192,339357,1,0,0:0:0:0:
256,192,339442,1,0,0:0:0:0:
256,192,339528,1,0,0:0:0:0:
256,192,339700,1,0,0:0:0:0:
256,192,339871,1,8,0:0:0:0:
256,192,340042,1,0,0:0:0:0:
256,192,340128,1,0,0:0:0:0:
256,192,340214,1,8,0:0:0:0:
256,192,340385,1,0,0:0:0:0:
256,192,340557,1,8,0:0:0:0:
256,192,340728,1,8,0:0:0:0:
256,192,340814,1,8,0:0:0:0:
256,192,340900,1,0,0:0:0:0:
256,192,341071,1,0,0:0:0:0:
256,192,341242,1,8,0:0:0:0:
256,192,341414,1,8,0:0:0:0:
256,192,341585,1,4,0:0:0:0:
256,192,341757,1,4,0:0:0:0:
256,192,341928,1,4,0:0:0:0:
256,192,342100,1,12,0:0:0:0:
256,192,342442,1,12,0:0:0:0:
256,192,342785,1,4,0:0:0:0:
256,192,344328,12,0,351185,0:0:0:0:
