osu file format v14

[General]
AudioFilename: Plastic Memories OP.mp3
AudioLeadIn: 0
PreviewTime: 53135
Countdown: 0
SampleSet: Soft
StackLeniency: 0.7
Mode: 0
LetterboxInBreaks: 0
WidescreenStoryboard: 0

[Editor]
DistanceSpacing: 1.1
BeatDivisor: 4
GridSize: 4
TimelineZoom: 1

[Metadata]
Title:Ring of Fortune
TitleUnicode:Ring of Fortune
Artist:Eri Sasaki
ArtistUnicode:佐々木恵梨
Creator:Crystal
Version:Hard
Source:プラスティック・メモリーズ
Tags:Anime opening Plastic Memories tv size Kagamine_Ren Karen
BeatmapID:720908
BeatmapSetID:324451

[Difficulty]
HPDrainRate:5
CircleSize:4
OverallDifficulty:6
ApproachRate:7.5
SliderMultiplier:1.4
SliderTickRate:1

[Events]
//Background and Video events
Video,0,"memory.flv"
0,0,"456.jpg",0,0
//Break Periods
//Storyboard Layer 0 (Background)
//Storyboard Layer 1 (Fail)
//Storyboard Layer 2 (Pass)
//Storyboard Layer 3 (Foreground)
//Storyboard Sound Samples

[TimingPoints]
951,405.405405405405,4,2,1,35,1,0
3383,379.746835443038,4,2,1,35,1,8
3762,-83.3333333333333,4,2,1,35,0,0
4142,379.746835443038,4,2,1,55,1,0
4142,-90.9090909090909,4,2,1,55,0,0
12306,-111.111111111111,4,2,1,25,0,0
35281,-100,4,2,1,35,0,0
35660,-90.9090909090909,4,2,1,45,0,0
36040,-90.9090909090909,4,2,1,55,0,0
54268,-83.3333333333333,4,2,1,65,0,1
66325,-83.3333333333333,4,2,1,65,0,0
66420,-83.3333333333333,4,2,1,65,0,1
81610,-90.9090909090909,4,2,1,65,0,0
87306,-90.9090909090909,4,2,1,45,0,0
87686,-90.9090909090909,4,2,1,35,0,0
88066,-90.9090909090909,4,2,1,25,0,0
88445,-100,4,2,1,15,0,0

[Colours]
Combo1 : 128,255,255
Combo2 : 0,128,255
Combo3 : 255,128,192
Combo4 : 255,143,89

[HitObjects]
152,84,951,6,0,P|96:124|200:152,1,210,2|2,0:0|0:0,0:0:0:0:
329,179,2572,2,0,P|415:154|360:84,1,210,2|2,0:0|0:0,0:0:0:0:
256,240,3572,1,0,1:0:0:0:
316,300,3762,2,0,L|388:296,2,41.9999987182618,10|2|0,0:0|0:0|0:0,0:0:0:0:
244,352,4142,6,0,P|192:352|144:320,1,77.0000023498536,4|2,0:0|0:0,0:0:0:0:
112,276,4521,2,0,P|96:224|112:152,1,115.50000352478,8|0,0:0|3:0,0:0:0:0:
120,136,4901,2,0,L|204:128,2,77.0000023498536,0|2|8,1:0|0:0|0:0,0:0:0:0:
80,52,5471,2,0,L|-4:44,2,77.0000023498536,4|2|0,0:0|0:0|1:0,0:0:0:0:
168,24,6040,1,8,0:0:0:0:
252,64,6230,2,0,P|300:72|356:60,1,77.0000023498536,2|0,0:0|1:0,0:0:0:0:
448,32,6610,5,0,1:0:0:0:
456,124,6800,1,8,0:0:0:0:
416,208,6990,1,2,0:0:0:0:
440,296,7179,2,0,P|384:292|324:212,1,154.000004699707,4|8,0:0|0:0,0:0:0:0:
232,172,7749,5,12,0:0:0:0:
79,69,8129,1,10,0:0:0:0:
67,253,8509,1,2,0:0:0:0:
232,172,8888,1,10,0:0:0:0:
127,157,9268,1,4,0:0:0:0:
256,192,9458,12,0,11736,0:0:0:0:
116,104,12306,5,0,0:0:0:0:
116,104,12496,2,0,P|176:120|240:88,1,125.999996154785,0|0,0:0|0:0,0:0:0:0:
308,112,13066,2,0,P|364:87|456:224,1,251.999992309571,2|2,0:0|0:0,0:0:0:0:
410,294,14015,6,0,P|369:249|368:187,1,125.999996154785,0|0,0:0|0:0,0:0:0:0:
368,187,14774,2,0,L|280:191,1,62.9999980773926,2|0,0:0|0:0,0:0:0:0:
244,244,15154,1,0,0:0:0:0:
244,244,15344,2,0,L|96:240,2,125.999996154785,0|0|2,0:0|0:0|0:0,0:0:0:0:
176,328,16293,6,0,L|96:324,1,62.9999980773926,0|2,0:0|0:0,0:0:0:0:
44,280,16673,2,0,P|32:236|44:204,1,62.9999980773926,0|2,0:0|0:0,0:0:0:0:
104,72,17243,2,0,P|172:88|232:64,1,125.999996154785,2|0,0:0|0:0,0:0:0:0:
300,44,17812,6,0,L|380:36,2,62.9999980773926,0|0|0,0:0|0:0|0:0,0:0:0:0:
288,124,18382,2,0,L|436:128,1,125.999996154785,2|0,0:0|0:0,0:0:0:0:
476,184,18952,2,0,P|484:228|472:264,1,62.9999980773926,2|0,0:0|0:0,0:0:0:0:
396,288,19331,6,0,L|400:224,2,62.9999980773926,0|0|0,0:0|0:0|0:0,0:0:0:0:
468,328,19901,2,0,P|432:360|340:348,1,125.999996154785,2|2,0:0|0:0,0:0:0:0:
280,324,20471,2,0,P|240:316|208:320,1,62.9999980773926
160,384,20850,6,0,B|132:336|132:336|140:192,1,188.999994232178,2|2,0:0|0:0,0:0:0:0:
144,120,21610,1,0,0:0:0:0:
144,120,22179,2,0,L|76:128,2,62.9999980773926,0|2|0,0:0|0:0|0:0,0:0:0:0:
220,148,22749,5,0,0:0:0:0:
355,117,23129,2,0,P|350:86|356:56,1,62.9999980773926,2|8,0:0|1:3,0:0:0:0:
432,88,23509,1,4,0:3:0:0:
440,100,23888,6,0,P|445:130|439:161,1,62.9999980773926,4|0,0:0|0:0,0:0:0:0:
384,224,24268,2,0,P|328:204|260:236,1,125.999996154785,2|0,3:2|1:0,0:0:0:0:
208,284,24838,2,0,P|150:307|92:287,1,125.999996154785,0|0,0:0|0:0,0:0:0:0:
40,224,25407,5,0,0:0:0:0:
40,224,25597,1,0,0:0:0:0:
84,152,25787,2,0,L|80:16,2,125.999996154785,0|0|0,3:0|1:0|3:0,0:0:0:0:
84,152,26926,2,0,P|168:168|212:136,1,125.999996154785,2|0,1:2|3:0,0:0:0:0:
256,88,27496,1,2,0:0:0:0:
328,132,27686,2,0,P|352:176|328:256,1,125.999996154785,0|0,1:0|3:0,0:0:0:0:
268,296,28255,1,0,0:0:0:0:
268,296,28445,6,0,L|192:300,1,62.9999980773926,2|0,1:2|0:0,0:0:0:0:
124,300,28825,2,0,B|92:276|92:276|84:180,1,125.999996154785
116,64,29585,6,0,P|148:64|192:68,1,62.9999980773926,0|2,3:0|1:2,0:0:0:0:
248,112,29964,2,0,P|320:96|360:36,1,125.999996154785,0|0,1:0|3:0,0:0:0:0:
404,124,30534,2,0,L|492:112,1,62.9999980773926,2|0,0:2|1:0,0:0:0:0:
466,115,31104,6,0,L|464:192,1,62.9999980773926,0|0,3:0|0:0,0:0:0:0:
400,228,31483,2,0,P|392:272|448:344,1,125.999996154785,2|0,1:2|3:0,0:0:0:0:
433,337,32053,2,0,L|352:340,1,62.9999980773926,2|0,0:2|1:0,0:0:0:0:
84,204,32812,5,0,1:0:0:0:
132,280,33002,2,0,P|72:292|16:264,1,125.999996154785,0|0,1:0|3:0,0:0:0:0:
176,204,33572,2,0,P|216:249|216:316,1,125.999996154785,2|0,0:0|0:0,0:0:0:0:
152,368,34142,1,0,3:0:0:0:
152,368,34901,6,0,L|244:364,1,62.9999980773926,0|0,0:0|1:0,0:0:0:0:
280,300,35281,6,0,L|368:304,1,70,8|0,0:0|1:0,0:0:0:0:
440,352,35660,5,8,0:0:0:0:
440,352,35755,1,8,0:0:0:0:
440,352,35850,1,8,0:0:0:0:
484,264,36040,6,0,P|456:196|488:112,2,154.000004699707,4|0|8,0:0|1:0|0:0,0:0:0:0:
484,264,36990,2,0,L|392:272,1,77.0000023498536,2|0,1:2|0:0,0:0:0:0:
332,232,37369,1,2,0:0:0:0:
52,260,38129,2,0,L|4:256,2,38.5000011749268,0|0|8,1:0|3:0|0:0,0:0:0:0:
112,320,38509,1,0,0:0:0:0:
188,284,38698,1,2,0:0:0:0:
256,336,38888,1,0,0:0:0:0:
328,292,39078,6,0,P|396:276|472:344,2,154.000004699707,2|2|8,1:2|0:0|0:0,0:0:0:0:
328,292,40028,2,0,L|324:204,1,77.0000023498536,2|0,1:2|0:0,0:0:0:0:
404,188,40407,2,0,L|408:96,1,77.0000023498536,2|0,0:0|0:0,0:0:0:0:
348,48,40787,1,2,1:2:0:0:
348,48,41167,6,0,P|288:60|264:52,1,77.0000023498536,0|8,1:0|0:0,0:0:0:0:
196,24,41547,1,0,1:0:0:0:
124,68,41736,2,0,L|80:72,3,38.5000011749268,8|8|2|2,0:0|0:0|0:0|0:0,0:0:0:0:
52,44,42116,6,0,L|48:144,1,77.0000023498536,4|0,0:0|0:0,0:0:0:0:
116,176,42496,2,0,L|108:272,1,77.0000023498536,0|2,0:0|0:0,0:0:0:0:
44,304,42876,2,0,P|88:332|180:296,1,154.000004699707,0|0,1:0|1:0,0:0:0:0:
344,324,43635,6,0,P|412:320|464:332,1,115.50000352478,0|0,1:0|0:0,0:0:0:0:
476,344,44015,2,0,L|468:184,1,154.000004699707,2|2,1:2|1:2,0:0:0:0:
360,60,44774,1,8,0:0:0:0:
300,120,44964,1,0,3:0:0:0:
300,120,45059,1,0,3:0:0:0:
300,120,45154,6,0,P|252:128|208:116,1,77.0000023498536,4|0,0:0|0:0,0:0:0:0:
156,68,45534,2,0,P|118:62|80:70,1,77.0000023498536,0|0,1:0|0:0,0:0:0:0:
8,24,45914,2,0,P|-4:84|64:156,1,154.000004699707,0|0,1:0|1:0,0:0:0:0:
200,232,46673,6,0,P|224:276|196:356,1,115.50000352478,0|0,1:0|0:0,0:0:0:0:
192,352,47053,2,0,L|360:348,1,154.000004699707,2|2,1:2|0:2,0:0:0:0:
424,312,47623,2,0,L|500:316,1,77.0000023498536,0|8,1:0|0:0,0:0:0:0:
464,224,48002,6,0,L|460:176,2,38.5000011749268,0|0|4,3:0|3:0|0:0,0:0:0:0:
368,220,48382,2,0,L|364:268,2,38.5000011749268,0|0|8,3:0|3:0|0:0,0:0:0:0:
320,148,48762,1,2,3:2:0:0:
152,116,49142,1,2,3:2:0:0:
320,148,49521,1,2,3:2:0:0:
152,116,49901,2,0,P|136:180|140:204,1,77.0000023498536,2|8,3:2|0:0,0:0:0:0:
180,264,50281,5,4,0:0:0:0:
348,240,50660,2,0,L|440:244,1,77.0000023498536,0|8,3:0|0:0,0:0:0:0:
492,192,51040,5,6,0:0:0:0:
504,184,51420,1,0,1:0:0:0:
436,235,51610,2,0,P|431:295|447:327,1,77.0000023498536,10|0,0:0|1:0,0:0:0:0:
504,360,51990,1,10,0:0:0:0:
504,360,52179,1,0,0:0:0:0:
424,332,52369,1,10,0:0:0:0:
344,356,52559,2,0,P|280:364|212:284,1,154.000004699707,4|0,0:0|3:0,0:0:0:0:
300,280,53129,5,2,3:2:0:0:
24,100,53888,6,0,P|78:112|128:85,1,115.50000352478,8|0,0:3|0:0,0:0:0:0:
144,68,54268,6,0,L|140:168,1,83.9999974365235,4|0,0:0|1:0,0:0:0:0:
92,232,54648,1,8,0:0:0:0:
92,232,54838,2,0,P|156:244|200:228,1,83.9999974365235,2|0,0:0|1:0,0:0:0:0:
256,196,55217,1,0,1:0:0:0:
332,248,55407,1,8,0:0:0:0:
420,216,55597,2,0,B|431:97|431:97|408:52,1,167.999994873047,2|0,1:2|1:0,0:0:0:0:
320,32,56167,6,0,L|232:36,1,83.9999974365235,10|0,0:2|0:0,0:0:0:0:
164,96,56547,2,0,L|64:92,1,83.9999974365235,2|0,1:2|1:0,0:0:0:0:
20,164,56926,1,8,0:0:0:0:
20,164,57116,1,0,1:0:0:0:
92,220,57306,6,0,P|120:280|76:372,1,167.999994873047,2|8,0:0|0:0,0:0:0:0:
200,356,57876,1,2,3:2:0:0:
200,356,57971,1,0,3:0:0:0:
200,356,58066,2,0,P|256:336|312:348,1,83.9999974365235,0|0,0:0|1:0,0:0:0:0:
368,360,58445,1,8,0:0:0:0:
456,328,58635,2,0,B|468:248|448:160,1,167.999994873047,2|2,0:2|0:0,0:0:0:0:
388,92,59205,5,8,0:0:0:0:
352,188,59395,1,2,0:0:0:0:
352,188,59490,1,2,0:0:0:0:
352,188,59585,2,0,P|284:192|252:180,1,83.9999974365235,0|0,1:0|1:0,0:0:0:0:
204,124,59964,2,0,P|206:83|208:40,1,83.9999974365235,8|2,0:0|0:0,0:0:0:0:
116,88,60344,6,0,P|116:164|120:264,1,167.999994873047,4|8,0:0|0:0,0:0:0:0:
168,336,60914,1,2,0:0:0:0:
248,288,61104,2,0,P|300:280|344:292,2,83.9999974365235,0|2|8,1:0|1:2|0:0,0:0:0:0:
168,336,61673,2,0,P|108:344|32:276,1,167.999994873047,4|0,0:0|1:0,0:0:0:0:
80,196,62243,6,0,P|77:153|76:104,1,83.9999974365235,8|0,0:0|0:0,0:0:0:0:
172,56,62623,2,0,P|172:112|168:160,1,83.9999974365235,2|0,0:0|1:0,0:0:0:0:
244,196,63002,1,10,0:0:0:0:
244,196,63192,1,0,0:0:0:0:
320,148,63382,6,0,P|400:128|488:184,1,167.999994873047,2|8,0:0|0:0,0:0:0:0:
428,248,63952,1,2,0:0:0:0:
428,248,64047,1,2,0:0:0:0:
428,248,64142,2,0,P|375:249|342:236,1,83.9999974365235,0|0,1:0|1:0,0:0:0:0:
272,296,64521,1,8,0:0:0:0:
192,252,64711,6,0,L|88:260,2,83.9999974365235,4|2|0,0:0|0:0|1:0,0:0:0:0:
272,296,65281,1,8,0:0:0:0:
352,340,65471,2,0,L|435:333,1,83.9999974365235,6|0,0:0|0:0,0:0:0:0:
500,268,65850,1,0,1:0:0:0:
440,196,66040,1,8,0:0:0:0:
440,196,66135,1,8,0:0:0:0:
440,196,66230,1,0,0:0:0:0:
484,116,66420,6,0,P|492:64|480:28,1,83.9999974365235,4|2,0:0|0:0,0:0:0:0:
400,76,66800,1,8,0:0:0:0:
400,76,66990,2,0,P|380:26|352:1,1,83.9999974365235,2|0,0:0|1:0,0:0:0:0:
304,80,67369,2,0,P|262:47|225:39,1,83.9999974365235,0|8,1:0|0:0,0:0:0:0:
224,132,67749,2,0,P|168:152|64:104,1,167.999994873047,2|0,0:0|1:0,0:0:0:0:
71,113,68319,6,0,P|68:159|64:216,1,83.9999974365235,10|0,0:0|0:0,0:0:0:0:
132,264,68698,2,0,P|136:312|144:372,1,83.9999974365235,2|0,1:2|1:0,0:0:0:0:
228,376,69078,1,8,0:0:0:0:
308,332,69268,1,2,0:0:0:0:
396,352,69458,2,0,P|480:352|488:272,1,167.999994873047,0|8,3:0|0:0,0:0:0:0:
424,220,70028,5,2,0:0:0:0:
468,140,70217,1,0,1:0:0:0:
408,72,70407,1,2,0:0:0:0:
408,72,70787,6,0,L|320:76,1,83.9999974365235,4|0,0:0|0:0,0:0:0:0:
240,120,71167,2,0,L|136:108,1,83.9999974365235,2|8,0:0|0:0,0:0:0:0:
72,72,71547,2,0,P|64:112|80:164,1,83.9999974365235,6|0,0:0|0:0,0:0:0:0:
140,220,71926,1,2,0:0:0:0:
96,300,72116,1,8,0:0:0:0:
96,300,72306,1,0,1:0:0:0:
172,352,72496,6,0,P|220:352|276:348,1,83.9999974365235,4|0,0:0|1:0,0:0:0:0:
348,364,72876,1,8,0:0:0:0:
392,284,73066,2,0,P|440:272|504:364,1,167.999994873047,6|2,0:0|0:0,0:0:0:0:
456,192,73825,5,0,0:0:0:0:
456,192,74015,2,0,P|415:130|467:26,1,167.999994873047,4|8,0:0|0:0,0:0:0:0:
440,45,74585,2,0,P|380:61|344:45,1,83.9999974365235,6|0,0:0|0:0,0:0:0:0:
272,36,74964,2,0,P|230:29|192:46,1,83.9999974365235,2|0,0:0|0:0,0:0:0:0:
132,116,75344,1,4,0:0:0:0:
132,116,75724,5,0,1:0:0:0:
60,176,75914,2,0,P|56:224|72:280,1,83.9999974365235,12|0,0:0|0:0,0:0:0:0:
148,292,76293,2,0,P|152:340|136:396,1,83.9999974365235,0|0,1:0|1:0,0:0:0:0:
236,340,76673,1,8,0:0:0:0:
236,340,76863,6,0,P|288:308|404:352,1,167.999994873047,4|0,0:0|1:0,0:0:0:0:
476,360,77433,2,0,P|488:316|484:272,1,83.9999974365235,8|2,0:0|0:0,0:0:0:0:
428,204,77812,1,0,1:0:0:0:
480,128,78002,1,2,1:2:0:0:
480,128,78192,1,8,0:0:0:0:
432,48,78382,6,0,P|340:56|248:56,1,167.999994873047,4|0,0:0|1:0,0:0:0:0:
172,40,78952,2,0,P|112:40|80:48,1,83.9999974365235,8|4,0:3|0:3,0:0:0:0:
28,116,79331,1,0,3:0:0:0:
28,116,79521,1,0,3:0:0:0:
72,196,79711,1,8,0:0:0:0:
36,280,79901,5,6,0:0:0:0:
280,268,80281,1,10,0:0:0:0:
36,280,80660,1,4,0:0:0:0:
280,268,81040,1,10,0:0:0:0:
352,324,81230,1,8,0:0:0:0:
436,288,81420,1,8,0:0:0:0:
436,288,81515,1,8,0:0:0:0:
436,288,81610,6,0,P|428:224|436:192,1,77.0000023498536,6|0,0:0|0:0,0:0:0:0:
500,160,81990,2,0,P|444:184|364:144,1,154.000004699707,10|2,0:0|1:2,0:0:0:0:
288,92,82559,2,0,P|244:88|204:88,1,77.0000023498536,2|8,1:2|0:0,0:0:0:0:
136,144,82939,2,0,P|98:145|48:144,2,77.0000023498536,2|2|0,0:0|0:0|1:0,0:0:0:0:
212,200,83509,2,0,P|250:201|288:200,2,77.0000023498536,10|2|0,0:0|0:0|0:0,0:0:0:0:
148,268,84078,1,2,1:2:0:0:
200,344,84268,1,8,0:0:0:0:
200,344,84363,1,8,0:0:0:0:
200,344,84458,1,2,0:0:0:0:
288,316,84648,6,0,P|348:300|424:360,1,154.000004699707,4|8,0:0|0:0,0:0:0:0:
419,349,85217,2,0,P|408:296|424:260,1,77.0000023498536,6|0,0:0|0:0,0:0:0:0:
480,208,85597,1,10,0:0:0:0:
328,104,85977,1,2,0:0:0:0:
316,288,86357,1,10,0:0:0:0:
452,80,86736,5,4,0:0:0:0:
256,192,86926,12,0,89205,0:0:0:0:
