osu file format v14

[General]
AudioFilename: Ring of Fortune.mp3
AudioLeadIn: 0
PreviewTime: 68996
Countdown: 0
SampleSet: Soft
StackLeniency: 0.7
Mode: 0
LetterboxInBreaks: 1
WidescreenStoryboard: 0

[Editor]
Bookmarks: 3745,131969,257071
DistanceSpacing: 1.5
BeatDivisor: 4
GridSize: 4
TimelineZoom: 1

[Metadata]
Title:Ring of Fortune
TitleUnicode:Ring of Fortune
Artist:Eri Sasaki
ArtistUnicode:佐々木恵梨
Creator:CelsiusLK
Version:Hard
Source:プラスティック・メモリーズ
Tags:plastic memories opening full plamemo
BeatmapID:707339
BeatmapSetID:317236

[Difficulty]
HPDrainRate:5
CircleSize:4
OverallDifficulty:6
ApproachRate:7
SliderMultiplier:1.47
SliderTickRate:2

[Events]
//Background and Video events
0,0,"sadtim.jpg",0,0
//Break Periods
2,178088,188711
//Storyboard Layer 0 (Background)
//Storyboard Layer 1 (Fail)
//Storyboard Layer 2 (Pass)
//Storyboard Layer 3 (Foreground)
//Storyboard Sound Samples

[TimingPoints]
1313,405.405405405405,4,2,1,40,1,0
1313,-133.333333333333,4,2,1,40,0,0
7799,-133.333333333333,4,2,1,60,0,0
10231,379.746835443038,4,2,2,60,1,0
10990,379.746835443038,4,2,2,75,1,0
10990,-111.111111111111,4,2,2,75,0,0
25230,-166.666666666667,4,2,2,75,0,0
27698,-166.666666666667,4,2,1,45,0,0
39850,-133.333333333333,4,2,2,50,0,0
52002,-111.111111111111,4,2,2,60,0,0
58078,-111.111111111111,4,2,2,50,0,0
69850,-166.666666666667,4,2,2,40,0,0
70230,-100,4,2,2,90,0,1
97572,-100,4,2,2,75,0,0
105736,-166.666666666667,4,2,2,60,0,0
108205,-166.666666666667,4,2,1,45,0,0
120357,-133.333333333333,4,2,2,50,0,0
132508,-111.111111111111,4,2,2,60,0,0
138584,-111.111111111111,4,2,2,50,0,0
150357,-166.666666666667,4,2,2,40,0,0
150736,-100,4,2,2,90,0,1
177888,-133.333333333333,4,2,1,55,0,0
189660,-133.333333333333,4,2,2,55,0,0
190230,-133.333333333333,4,2,2,50,0,0
196306,-111.111111111111,4,2,2,60,0,0
202382,-166.666666666667,4,2,1,40,0,0
208458,-133.333333333333,4,2,2,50,0,0
212825,-133.333333333333,4,2,2,75,0,0
214534,-100,4,2,2,90,0,1
241876,-100,4,2,2,90,0,0
250040,-166.666666666667,4,2,1,75,0,0
251084,-166.666666666667,4,2,1,5,0,0

[Colours]
Combo1 : 255,0,128
Combo2 : 0,128,255
Combo3 : 255,145,34
Combo4 : 255,47,47

[HitObjects]
112,176,1313,6,0,P|160:156|220:160,1,110.250004205704,2|0,0:0|0:0,0:0:0:0:
264,228,1921,2,0,P|268:168|280:44,1,165.375006308556,2|0,0:0|0:0,0:0:0:0:
392,184,2934,6,0,P|386:242|376:308,1,110.250004205704,2|0,0:0|0:0,0:0:0:0:
296,308,3542,1,2,0:0:0:0:
296,308,3745,2,0,P|252:308|176:320,1,110.250004205704,4|0,0:1|0:0,0:0:0:0:
24,348,4556,6,0,P|28:288|56:228,1,110.250004205704,2|0,0:0|0:0,0:0:0:0:
104,180,5164,2,0,L|112:52,2,110.250004205704,2|2|0,0:0|0:0|0:0,0:0:0:0:
132,256,6177,5,2,0:0:0:0:
132,256,6380,2,0,L|241:245,1,110.250004205704,2|0,0:0|0:0,0:0:0:0:
300,304,6988,2,0,P|356:308|400:252,1,110.250004205704,2|0,0:0|0:0,0:0:0:0:
408,108,7799,6,0,B|356:136|356:88|288:124,1,110.250004205704,4|0,0:0|0:0,0:0:0:0:
228,156,8407,2,0,P|152:132|132:44,1,165.375006308556,2|2,0:0|0:0,0:0:0:0:
292,20,9421,6,0,L|408:24,1,110.250004205704,4|0,0:0|0:0,0:0:0:0:
472,68,10029,1,2,0:0:0:0:
396,284,10420,5,2,0:0:0:0:
396,284,10610,2,0,P|360:276|312:240,1,73.5,8|0,0:0|0:0,0:0:0:0:
268,180,10990,6,0,B|232:176|232:176|120:188,1,132.299995962525,4|2,0:0|0:0,0:0:0:0:
76,248,11559,2,0,P|112:312|176:324,1,132.299995962525,4|2,0:0|0:0,0:0:0:0:
240,284,12129,1,4,0:0:0:0:
240,284,12508,5,2,0:0:0:0:
308,336,12698,2,0,L|444:324,1,132.299995962525,4|2,0:0|0:0,0:0:0:0:
404,248,13268,2,0,L|408:164,1,66.1499979812623,4|0,0:0|0:0,0:0:0:0:
464,116,13648,2,0,L|468:32,1,66.1499979812623,4|0,0:0|0:0,0:0:0:0:
336,28,14027,6,0,L|329:160,1,132.299995962525,4|8,0:0|0:0,0:0:0:0:
252,196,14597,1,2,0:0:0:0:
252,196,14692,1,8,0:0:0:0:
252,196,14787,2,0,P|216:200|160:188,1,66.1499979812623,2|2,0:0|0:0,0:0:0:0:
156,116,15167,1,8,0:0:0:0:
92,60,15357,1,2,0:0:0:0:
56,136,15546,6,0,P|65:196|76:272,1,132.299995962525,2|8,0:0|0:0,0:0:0:0:
128,336,16116,2,0,P|162:331|200:324,1,66.1499979812623,2|2,0:0|0:0,0:0:0:0:
272,288,16496,1,2,0:0:0:0:
332,224,16686,2,0,P|348:252|355:284,1,66.1499979812623,8|0,0:0|0:0,0:0:0:0:
412,348,17065,6,0,P|412:280|428:204,1,132.299995962525,2|8,0:0|0:0,0:0:0:0:
448,136,17635,1,0,0:0:0:0:
448,136,17730,1,0,0:0:0:0:
448,136,17825,2,0,L|364:120,1,66.1499979812623,2|2,0:0|0:0,0:0:0:0:
312,76,18205,1,8,0:0:0:0:
248,136,18395,6,0,P|196:164|124:172,1,132.299995962525,4|2,0:0|0:0,0:0:0:0:
40,164,18964,2,0,L|52:248,1,66.1499979812623,8|2,0:0|0:0,0:0:0:0:
76,264,19249,1,0,0:0:0:0:
76,264,19344,2,0,P|112:260|152:264,1,66.1499979812623,2|2,0:0|0:0,0:0:0:0:
216,304,19724,2,0,P|248:292|276:276,1,66.1499979812623,8|0,0:0|0:0,0:0:0:0:
304,196,20103,6,0,P|324:140|392:168,1,132.299995962525,4|8,0:0|0:0,0:0:0:0:
384,240,20673,1,2,0:0:0:0:
384,240,20768,1,8,0:0:0:0:
384,240,20863,1,2,0:0:0:0:
320,296,21053,2,0,L|254:304,1,66.1499979812623,2|8,0:0|0:0,0:0:0:0:
176,268,21433,1,4,0:0:0:0:
176,268,21622,6,0,L|152:120,1,132.299995962525,2|8,0:0|0:0,0:0:0:0:
80,96,22192,2,0,P|132:56|208:72,1,132.299995962525,0|2,0:0|0:0,0:0:0:0:
264,116,22762,1,8,0:0:0:0:
264,116,22857,1,8,0:0:0:0:
264,116,22952,1,8,0:0:0:0:
320,52,23141,6,0,P|316:136|316:188,1,132.299995962525,4|8,0:0|0:0,0:0:0:0:
388,228,23711,2,0,L|464:224,1,66.1499979812623,4|0,0:0|0:0,0:0:0:0:
380,324,24091,2,0,L|313:327,1,66.1499979812623,4|0,0:0|0:0,0:0:0:0:
244,276,24471,6,0,P|216:280|160:300,1,66.1499979812623,4|0,0:0|0:0,0:0:0:0:
92,296,24850,2,0,L|96:212,1,66.1499979812623,4|0,0:0|0:0,0:0:0:0:
128,84,25230,6,0,P|104:160|220:172,1,220.499993270874,4|0,0:0|0:0,0:0:0:0:
448,48,26749,6,0,L|508:68,2,44.0999986541748,4|8|8,0:3|0:3|0:3,0:0:0:0:
360,52,27319,2,0,L|312:76,1,44.0999986541748,8|0,0:3|0:0,0:0:0:0:
264,128,27698,6,0,P|252:180|256:232,1,88.1999973083497,4|0,0:0|0:0,0:0:0:0:
348,344,28458,2,0,L|456:352,1,88.1999973083497,2|0,0:0|0:0,0:0:0:0:
328,252,29027,6,0,L|178:263,1,132.299995962525,2|0,0:0|0:0,0:0:0:0:
40,348,29977,1,0,0:0:0:0:
116,188,30357,1,0,0:0:0:0:
44,28,30736,6,0,L|-16:16,2,44.0999986541748,2|0|2,0:0|0:0|0:0,0:0:0:0:
124,64,31306,2,0,P|192:84|248:64,1,132.299995962525,2|0,0:0|0:0,0:0:0:0:
324,20,32065,1,2,0:0:0:0:
324,20,32255,6,0,L|336:80,1,44.0999986541748,2|0,0:0|0:0,0:0:0:0:
388,132,32635,1,2,0:0:0:0:
388,132,32825,2,0,L|369:225,1,88.1999973083497,2|0,0:0|0:0,0:0:0:0:
136,336,33774,6,0,L|28:328,1,88.1999973083497,2|0,0:0|0:0,0:0:0:0:
88,248,34344,2,0,L|175:241,1,88.1999973083497,2|0,0:0|0:0,0:0:0:0:
236,176,34914,1,2,0:0:0:0:
308,228,35103,1,0,0:0:0:0:
352,304,35293,6,0,P|404:292|440:260,1,88.1999973083497,2|0,0:0|0:0,0:0:0:0:
444,184,35863,2,0,P|424:144|416:96,1,88.1999973083497,2|2,0:0|0:0,0:0:0:0:
392,16,36433,2,0,L|332:20,1,44.0999986541748,2|0,0:0|0:0,0:0:0:0:
232,68,36812,6,0,P|223:135|216:220,1,132.299995962525,2|0,0:0|0:0,0:0:0:0:
260,276,37572,1,2,0:0:0:0:
260,276,38331,6,0,L|160:288,1,88.1999973083497,2|2,0:0|0:0,0:0:0:0:
40,168,39091,1,2,0:0:0:0:
124,192,39281,2,0,L|128:132,1,44.0999986541748,8|12,0:3|0:3,0:0:0:0:
252,27,39850,6,0,L|308:24,1,55.1250021028519,4|0,0:0|0:0,0:0:0:0:
344,100,40230,2,0,L|400:97,1,55.1250021028519,2|0,0:0|0:0,0:0:0:0:
480,176,40610,2,0,L|424:179,1,55.1250021028519,2|0,0:0|0:0,0:0:0:0:
384,252,40990,2,0,L|328:255,1,55.1250021028519,2|0,0:0|0:0,0:0:0:0:
248,244,41369,6,0,L|256:184,2,55.1250021028519,2|0|2,0:0|0:0|0:0,0:0:0:0:
212,320,41939,1,0,0:0:0:0:
132,296,42129,2,0,P|108:244|104:180,1,110.250004205704,2|2,0:0|0:0,0:0:0:0:
124,112,42698,1,0,0:0:0:0:
200,144,42888,6,0,P|252:136|304:110,1,110.250004205704,2|2,0:0|0:0,0:0:0:0:
360,52,43458,1,0,0:0:0:0:
360,52,43648,2,0,P|364:120|372:184,1,110.250004205704,2|2,0:0|0:0,0:0:0:0:
420,224,44217,1,0,0:0:0:0:
364,284,44407,6,0,L|292:292,1,55.1250021028519,2|0,0:0|0:0,0:0:0:0:
228,268,44787,2,0,L|173:261,1,55.1250021028519,2|0,0:0|0:0,0:0:0:0:
100,296,45167,2,0,P|120:240|124:172,1,110.250004205704,2|2,0:0|0:0,0:0:0:0:
88,116,45736,1,0,0:0:0:0:
140,52,45926,6,0,P|196:68|248:112,1,110.250004205704,2|2,0:0|0:0,0:0:0:0:
232,184,46496,1,0,0:0:0:0:
304,224,46686,2,0,L|420:212,1,110.250004205704,2|2,0:0|0:0,0:0:0:0:
464,148,47255,1,0,0:0:0:0:
440,68,47445,6,0,B|396:56|396:56|364:72|312:64,1,110.250004205704,2|2,0:0|0:0,0:0:0:0:
252,48,48015,1,0,0:0:0:0:
180,92,48205,2,0,L|120:68,2,55.1250021028519,2|0|2,0:0|0:0|0:0,0:0:0:0:
224,160,48774,1,0,0:0:0:0:
144,180,48964,6,0,L|152:308,1,110.250004205704,2|2,0:0|0:0,0:0:0:0:
208,352,49534,2,0,P|260:348|312:316,1,110.250004205704,2|0,0:0|0:0,0:0:0:0:
324,236,50103,1,2,0:0:0:0:
324,236,50483,5,2,0:0:0:0:
432,112,50863,2,0,L|424:32,1,55.1250021028519,2|2,0:0|0:0,0:0:0:0:
344,72,51243,2,0,L|352:-8,1,55.1250021028519,8|2,0:0|0:0,0:0:0:0:
268,32,51622,2,0,L|220:20,2,27.562501051426,8|8|8,0:0|0:0|0:0,0:0:0:0:
276,120,52002,6,0,B|184:116|184:116|144:134,1,132.299995962525,4|2,0:0|0:0,0:0:0:0:
68,288,52762,1,8,0:0:0:0:
68,288,52952,2,0,L|148:280,1,66.1499979812623,2|0,0:0|0:0,0:0:0:0:
184,212,53331,1,2,0:0:0:0:
252,264,53521,6,0,P|312:296|380:280,2,132.299995962525,2|0|2,0:0|0:0|0:0,0:0:0:0:
184,212,54471,1,2,0:0:0:0:
236,144,54660,2,0,L|224:64,1,66.1499979812623,2|0,0:0|0:0,0:0:0:0:
320,136,55040,6,0,L|332:216,1,66.1499979812623,4|0,0:0|0:0,0:0:0:0:
408,240,55420,2,0,L|420:320,1,66.1499979812623,2|0,0:0|0:0,0:0:0:0:
352,364,55800,1,8,0:0:0:0:
276,320,55990,2,0,P|208:313|116:312,1,132.299995962525,2|4,0:0|0:0,0:0:0:0:
64,348,56559,5,0,0:0:0:0:
48,264,56749,2,0,L|60:180,1,66.1499979812623,2|0,0:0|0:0,0:0:0:0:
88,116,57129,1,8,0:3:0:0:
164,160,57319,2,0,P|204:160|244:144,1,66.1499979812623,8|2,0:3|0:0,0:0:0:0:
284,84,57698,2,0,L|340:68,3,33.0749989906311,8|8|8|8,0:0|0:0|0:0|0:0,0:0:0:0:
356,88,58078,6,0,P|388:104|432:112,1,66.1499979812623,4|0,0:0|0:0,0:0:0:0:
488,160,58458,2,0,P|468:192|456:232,1,66.1499979812623,2|0,0:0|0:0,0:0:0:0:
404,284,58838,2,0,P|372:288|324:300,1,66.1499979812623,2|0,0:0|0:0,0:0:0:0:
260,332,59217,2,0,P|224:320|192:304,1,66.1499979812623,2|0,0:0|0:0,0:0:0:0:
172,212,59597,6,0,P|156:264|108:332,1,132.299995962525,2|2,0:0|0:0,0:0:0:0:
40,284,60167,1,2,0:3:0:0:
40,284,60262,1,2,0:3:0:0:
40,284,60357,2,0,L|44:200,1,66.1499979812623,2|0,0:2|0:0,0:0:0:0:
88,144,60736,2,0,L|84:60,1,66.1499979812623,8|0,0:0|0:0,0:0:0:0:
168,24,61116,6,0,P|180:92|236:112,1,132.299995962525,6|2,0:0|0:0,0:0:0:0:
316,84,61686,1,0,0:0:0:0:
364,156,61876,2,0,L|352:304,1,132.299995962525,2|2,0:0|0:0,0:0:0:0:
416,348,62445,1,0,0:0:0:0:
476,288,62635,6,0,P|484:260|489:192,1,66.1499979812623,2|0,0:0|0:0,0:0:0:0:
448,148,63015,2,0,P|444:112|456:64,1,66.1499979812623,2|2,0:0|0:0,0:0:0:0:
456,40,63300,1,2,0:0:0:0:
456,40,63395,2,0,L|388:36,1,66.1499979812623,2|8,0:0|0:3,0:0:0:0:
316,84,63774,2,0,L|248:88,1,66.1499979812623,12|8,0:3|0:0,0:0:0:0:
172,52,64154,6,0,P|160:144|144:200,1,132.299995962525,4|8,0:0|0:0,0:0:0:0:
88,240,64724,2,0,P|72:212|56:160,1,66.1499979812623,4|0,0:0|0:0,0:0:0:0:
64,96,65103,2,0,P|76:64|96:20,1,66.1499979812623,4|0,0:0|0:0,0:0:0:0:
172,52,65483,6,0,P|240:52|316:40,1,132.299995962525,4|2,0:0|0:0,0:0:0:0:
388,36,66053,1,8,0:0:0:0:
388,36,66243,2,0,P|380:120|384:184,1,132.299995962525,4|8,0:0|0:3,0:0:0:0:
400,208,66717,1,8,0:3:0:0:
400,208,66812,1,8,0:3:0:0:
384,292,67002,6,0,L|252:284,1,132.299995962525,4|2,0:0|0:0,0:0:0:0:
180,328,67572,2,0,P|144:324|96:300,1,66.1499979812623,8|0,0:0|0:0,0:0:0:0:
76,236,67952,2,0,L|52:156,2,66.1499979812623,8|2|8,0:0|0:0|0:0,0:0:0:0:
160,228,68521,6,0,P|228:236|276:288,1,132.299995962525,4|8,0:0|0:0,0:0:0:0:
296,364,69091,1,12,0:0:0:0:
440,268,69471,1,0,0:0:0:0:
408,112,69850,6,0,L|344:116,1,44.0999986541748,0|0,0:0|0:0,0:0:0:0:
236,156,70230,6,0,P|176:148|128:80,1,147,4|8,0:0|0:0,0:0:0:0:
204,32,70800,2,0,L|288:40,1,73.5,0|2,0:0|0:0,0:0:0:0:
364,20,71179,1,2,0:0:0:0:
364,20,71369,1,8,0:0:0:0:
440,64,71559,6,0,P|446:135|448:240,1,147,4|2,0:0|0:0,0:0:0:0:
380,268,72129,2,0,P|384:304|396:344,1,73.5,8|2,0:0|0:0,0:0:0:0:
368,188,72508,2,0,P|324:192|284:200,1,73.5,2|2,0:0|0:0,0:0:0:0:
232,260,72888,2,0,P|196:260|152:248,1,73.5,8|2,0:0|0:0,0:0:0:0:
132,144,73268,6,0,P|120:228|80:281,1,147,4|8,0:0|0:0,0:0:0:0:
32,208,73838,1,2,0:0:0:0:
32,208,74027,2,0,L|24:132,2,73.5,2|2|8,0:0|0:0|0:0,0:0:0:0:
85,277,74597,6,0,P|128:332|216:336,1,147,4|2,0:0|0:0,0:0:0:0:
252,268,75167,2,0,P|264:236|272:192,1,73.5,8|2,0:0|0:0,0:0:0:0:
256,112,75546,2,0,L|344:128,1,73.5,2|2,0:0|0:0,0:0:0:0:
392,64,75926,2,0,L|480:48,1,73.5,8|0,0:0|0:0,0:0:0:0:
468,140,76306,6,0,P|396:156|376:232,1,147,4|8,0:0|0:0,0:0:0:0:
420,296,76876,1,2,0:0:0:0:
420,296,77065,1,2,0:0:0:0:
340,328,77255,2,0,L|252:336,1,73.5,2|8,0:0|0:0,0:0:0:0:
180,356,77635,6,0,P|200:296|160:204,1,147,4|2,0:0|0:0,0:0:0:0:
104,164,78205,2,0,P|90:198|87:234,1,73.5,8|2,0:0|0:0,0:0:0:0:
156,92,78584,2,0,P|120:76|68:84,1,73.5,2|2,0:0|0:0,0:0:0:0:
104,164,78964,2,0,P|144:180|184:176,1,73.5,8|0,0:0|0:0,0:0:0:0:
268,116,79344,6,0,P|232:188|240:272,1,147,4|8,0:0|0:0,0:0:0:0:
288,324,79914,1,2,0:0:0:0:
288,324,80008,1,2,0:0:0:0:
288,324,80103,2,0,L|359:306,1,73.5,2|2,0:0|0:0,0:0:0:0:
444,332,80483,1,8,0:0:0:0:
468,248,80673,1,4,0:0:0:0:
420,172,80863,6,0,L|408:72,1,73.5,2|0,0:0|0:0,0:0:0:0:
340,48,81243,1,8,0:0:0:0:
276,140,81433,2,0,P|195:143|120:152,1,147,4|2,0:0|0:0,0:0:0:0:
60,208,82002,2,0,L|24:200,2,36.75,8|8|0,0:0|0:0|0:0,0:0:0:0:
140,248,82382,6,0,B|184:268|184:268|224:248|284:252,1,147,4|8,0:0|0:0,0:0:0:0:
364,276,82952,2,0,P|392:252|412:208,1,73.5,2|2,0:0|0:0,0:0:0:0:
380,136,83331,2,0,L|368:48,1,73.5,2|8,0:0|0:0,0:0:0:0:
288,32,83711,6,0,B|216:12|216:64|136:40,1,147,4|2,0:0|0:0,0:0:0:0:
56,40,84281,2,0,P|36:68|20:104,1,73.5,8|2,0:0|0:0,0:0:0:0:
88,160,84660,2,0,P|100:192|108:256,1,73.5,2|2,0:0|0:0,0:0:0:0:
92,320,85040,2,0,L|165:313,1,73.5,8|2,0:0|0:0,0:0:0:0:
220,244,85420,6,0,P|292:240|352:284,1,147,4|8,0:0|0:0,0:0:0:0:
400,356,85990,1,0,0:0:0:0:
400,356,86179,1,2,0:0:0:0:
460,288,86369,2,0,L|456:180,1,73.5,2|8,0:0|0:0,0:0:0:0:
440,128,86749,6,0,L|356:136,1,73.5,4|0,0:0|0:0,0:0:0:0:
288,60,87129,2,0,P|328:52|368:60,1,73.5,4|8,0:0|0:0,0:0:0:0:
288,140,87508,2,0,P|252:136|212:100,1,73.5,4|8,0:0|0:0,0:0:0:0:
148,68,87888,2,0,L|139:154,1,73.5,4|8,0:0|0:0,0:0:0:0:
124,184,88173,1,8,0:0:0:0:
124,184,88268,1,8,0:0:0:0:
56,240,88458,6,0,P|44:312|112:344,1,147,4|8,0:0|0:0,0:0:0:0:
172,296,89027,2,0,P|214:290|248:296,1,73.5,4|2,0:0|0:0,0:0:0:0:
324,332,89407,2,0,P|360:324|396:296,1,73.5,4|8,0:0|0:0,0:0:0:0:
428,224,89787,1,8,0:0:0:0:
368,160,89977,6,0,P|352:88|348:16,1,147,4|8,0:0|0:0,0:0:0:0:
260,24,90546,2,0,P|257:60|244:116,1,73.5,4|2,0:0|0:0,0:0:0:0:
180,152,90926,2,0,L|96:144,1,73.5,4|8,0:0|0:0,0:0:0:0:
136,252,91306,6,0,L|296:232,1,147,4|2,0:0|0:0,0:0:0:0:
364,200,91876,2,0,P|364:240|372:288,1,73.5,8|8,0:0|0:0,0:0:0:0:
396,308,92160,1,8,0:0:0:0:
396,308,92255,1,2,0:0:0:0:
468,256,92445,1,2,0:0:0:0:
456,168,92635,1,8,0:0:0:0:
444,80,92825,6,0,P|384:56|288:72,1,147,4|2,0:0|0:0,0:0:0:0:
228,112,93395,2,0,L|244:196,1,73.5,8|2,0:0|0:0,0:0:0:0:
220,268,93774,1,2,0:0:0:0:
152,212,93964,2,0,L|136:132,1,73.5,2|8,0:0|0:0,0:0:0:0:
168,56,94344,6,0,P|232:32|300:72,1,147,4|2,0:0|0:0,0:0:0:0:
336,148,94914,2,0,L|416:140,1,73.5,8|2,0:0|0:0,0:0:0:0:
476,196,95293,2,0,P|484:232|480:296,1,73.5,2|0,0:0|0:0,0:0:0:0:
412,320,95673,1,8,0:0:0:0:
344,264,95863,6,0,L|252:280,1,73.5,4|0,0:0|0:0,0:0:0:0:
188,304,96243,2,0,P|156:288|120:252,1,73.5,4|0,0:0|0:0,0:0:0:0:
216,152,96622,2,0,P|216:192|200:232,1,73.5,4|0,0:0|0:0,0:0:0:0:
132,176,97002,1,4,0:0:0:0:
48,204,97192,2,0,L|40:128,1,73.5,2|8,0:0|0:0,0:0:0:0:
56,88,97477,1,8,0:0:0:0:
56,88,97572,6,0,B|80:72|80:72|144:68,1,73.5,4|0,0:0|0:0,0:0:0:0:
212,72,97952,2,0,P|300:68|372:56,1,147,8|2,0:0|0:0,0:0:0:0:
444,48,98521,2,0,P|432:80|428:144,1,73.5,2|8,0:0|0:0,0:0:0:0:
436,208,98901,1,2,0:0:0:0:
392,284,99091,6,0,L|292:288,1,73.5,2|0,0:0|0:0,0:0:0:0:
240,248,99471,1,8,0:0:0:0:
164,288,99660,1,2,0:0:0:0:
164,288,99755,1,2,0:0:0:0:
164,288,99850,2,0,P|144:252|140:200,1,73.5,2|2,0:0|0:0,0:0:0:0:
196,152,100230,2,0,P|208:120|208:68,1,73.5,8|0,0:0|0:0,0:0:0:0:
116,24,100610,6,0,P|208:40|276:24,1,147,2|8,0:0|0:0,0:0:0:0:
348,16,101179,1,2,0:0:0:0:
348,16,101274,1,2,0:0:0:0:
348,16,101369,1,2,0:0:0:0:
420,68,101559,2,0,L|412:156,1,73.5,2|8,0:0|0:0,0:0:0:0:
436,228,101939,1,2,0:0:0:0:
372,288,102129,6,0,P|304:268|226:268,1,147,2|8,0:0|0:0,0:0:0:0:
152,308,102698,2,0,P|124:280|104:228,1,73.5,2|2,0:0|0:0,0:0:0:0:
136,164,103078,1,0,0:0:0:0:
84,96,103268,2,0,L|44:104,2,36.75,8|8|8,0:0|0:0|0:0,0:0:0:0:
168,64,103648,6,0,P|236:60|308:104,1,147,4|8,0:0|0:0,0:0:0:0:
352,172,104217,2,0,L|448:160,1,73.5,4|0,0:0|0:0,0:0:0:0:
356,272,104597,2,0,L|260:260,1,73.5,4|0,0:0|0:0,0:0:0:0:
216,208,104977,6,0,P|180:216|128:244,1,73.5,4|0,0:0|0:0,0:0:0:0:
144,352,105357,2,0,P|180:344|232:316,1,73.5,4|0,0:0|0:0,0:0:0:0:
216,208,105736,6,0,B|204:264|236:320|272:328|272:328|324:296|364:312,1,220.499993270874,4|0,0:0|0:0,0:0:0:0:
464,72,107255,2,0,L|488:20,2,44.0999986541748,4|8|8,0:3|0:3|0:3,0:0:0:0:
388,116,107825,2,0,L|360:80,1,44.0999986541748,8|0,0:3|0:0,0:0:0:0:
280,44,108205,6,0,L|192:51,1,88.1999973083497,4|0,0:0|0:0,0:0:0:0:
64,172,108964,2,0,L|151:179,1,88.1999973083497,2|0,0:0|0:0,0:0:0:0:
236,148,109534,1,0,0:0:0:0:
320,176,109724,6,0,P|348:220|356:260,1,88.1999973083497,2|0,0:0|0:0,0:0:0:0:
192,320,110483,2,0,L|200:224,1,88.1999973083497,2|2,0:0|0:0,0:0:0:0:
264,68,111243,6,0,L|306:57,2,44.0999986541748,2|0|0,0:0|0:0|0:0,0:0:0:0:
180,40,111812,2,0,P|116:72|92:144,1,132.299995962525,2|0,0:0|0:0,0:0:0:0:
104,212,112572,1,0,0:0:0:0:
128,296,112762,6,0,P|176:300|232:296,1,88.1999973083497,2|2,0:0|0:0,0:0:0:0:
248,216,113331,2,0,P|316:200|378:193,1,132.299995962525,2|0,0:0|0:0,0:0:0:0:
484,336,114281,6,0,L|481:380,2,44.0999986541748,2|0|0,0:0|0:0|0:0,0:0:0:0:
456,252,114850,2,0,P|444:192|448:108,1,132.299995962525,2|2,0:0|0:0,0:0:0:0:
476,40,115610,1,0,0:0:0:0:
476,40,115800,6,0,P|416:48|384:48,1,88.1999973083497,2|0,0:0|0:0,0:0:0:0:
304,28,116369,2,0,P|292:88|232:124,1,132.299995962525,2|2,0:0|0:0,0:0:0:0:
76,48,117319,6,0,L|93:134,1,88.1999973083497,2|0,0:0|0:0,0:0:0:0:
120,220,117888,1,0,0:0:0:0:
120,220,118078,2,0,L|207:209,1,88.1999973083497,2|0,0:0|0:0,0:0:0:0:
368,136,118838,6,0,B|332:116|332:116|272:100,1,88.1999973083497,2|2,0:0|0:0,0:0:0:0:
284,280,119597,2,0,P|332:288|384:276,1,88.1999973083497,2|12,0:0|0:3,0:0:0:0:
460,144,120357,6,0,L|468:88,1,55.1250021028519,4|0,0:0|0:0,0:0:0:0:
384,92,120736,2,0,L|376:36,1,55.1250021028519,0|2,0:0|0:0,0:0:0:0:
304,80,121116,2,0,L|292:148,1,55.1250021028519,8|0,0:0|0:0,0:0:0:0:
212,140,121496,2,0,L|221:194,1,55.1250021028519,2|0,0:0|0:0,0:0:0:0:
244,272,121876,6,0,P|188:248|116:260,1,110.250004205704,2|0,0:0|0:0,0:0:0:0:
68,288,122445,1,8,0:0:0:0:
68,288,122635,2,0,L|44:216,1,55.1250021028519,2|0,0:0|0:0,0:0:0:0:
32,156,123015,2,0,L|56:84,1,55.1250021028519,8|2,0:0|0:0,0:0:0:0:
84,28,123395,6,0,P|108:80|164:116,1,110.250004205704,2|0,0:0|0:0,0:0:0:0:
232,96,123964,1,2,0:0:0:0:
304,56,124154,2,0,P|368:60|416:76,1,110.250004205704,8|0,0:0|0:0,0:0:0:0:
436,152,124724,1,2,0:0:0:0:
420,232,124914,6,0,L|432:304,1,55.1250021028519,2|2,0:0|0:0,0:0:0:0:
376,352,125293,1,2,0:0:0:0:
304,312,125483,1,0,0:0:0:0:
228,344,125673,2,0,P|172:348|92:344,1,110.250004205704,2|8,0:0|0:0,0:0:0:0:
68,280,126243,1,0,0:0:0:0:
104,204,126433,6,0,L|92:132,1,55.1250021028519,2|0,0:0|0:0,0:0:0:0:
148,88,126812,1,0,0:0:0:0:
148,88,127002,1,2,0:0:0:0:
212,140,127192,2,0,L|272:132,1,55.1250021028519,8|0,0:0|0:0,0:0:0:0:
332,80,127572,1,2,0:0:0:0:
332,80,127762,1,0,0:0:0:0:
400,124,127952,6,0,P|408:184|396:248,1,110.250004205704,2|2,0:0|0:0,0:0:0:0:
340,288,128521,1,0,0:0:0:0:
272,244,128711,2,0,P|224:244|156:264,1,110.250004205704,8|2,0:0|0:0,0:0:0:0:
112,324,129281,1,0,0:0:0:0:
112,324,129471,6,0,L|96:204,1,110.250004205704,2|0,0:0|0:0,0:0:0:0:
64,140,130040,1,2,0:0:0:0:
120,80,130230,2,0,L|180:72,1,55.1250021028519,8|0,0:0|0:0,0:0:0:0:
248,112,130610,2,0,L|302:119,1,55.1250021028519,4|0,0:0|0:0,0:0:0:0:
380,88,130990,5,2,0:0:0:0:
344,248,131369,1,2,0:0:0:0:
488,164,131749,1,8,0:0:0:0:
488,164,131939,1,8,0:3:0:0:
452,244,132129,2,0,L|440:304,1,55.1250021028519,8|8,0:0|0:0,0:0:0:0:
360,332,132508,6,0,L|264:344,1,66.1499979812623,4|0,0:0|0:0,0:0:0:0:
212,308,132888,2,0,P|184:300|120:296,1,66.1499979812623,2|0,0:0|0:0,0:0:0:0:
68,324,133268,2,0,P|52:272|56:176,1,132.299995962525,8|0,0:0|0:0,0:0:0:0:
104,124,133838,1,2,0:0:0:0:
184,92,134027,6,0,P|254:91|332:96,2,132.299995962525,2|8|8,0:0|0:0|0:0,0:0:0:0:
104,124,134977,1,0,0:0:0:0:
160,188,135167,2,0,L|176:264,1,66.1499979812623,2|0,0:0|0:0,0:0:0:0:
224,320,135546,6,0,P|280:268|344:265,1,132.299995962525,4|2,0:0|0:0,0:0:0:0:
484,344,136306,1,8,0:0:0:0:
484,344,136496,2,0,L|488:264,1,66.1499979812623,2|0,0:0|0:0,0:0:0:0:
464,196,136876,1,4,0:0:0:0:
400,140,137065,6,0,L|308:156,1,66.1499979812623,0|2,0:0|0:0,0:0:0:0:
256,120,137445,1,0,0:0:0:0:
180,160,137635,1,2,0:0:0:0:
180,160,137730,1,2,0:0:0:0:
180,160,137825,2,0,P|152:124|68:112,1,132.299995962525,8|8,0:0|0:0,0:0:0:0:
116,276,138584,6,0,L|204:260,1,66.1499979812623,4|0,0:0|0:0,0:0:0:0:
268,252,138964,2,0,P|272:288|296:320,1,66.1499979812623,2|0,0:0|0:0,0:0:0:0:
348,252,139344,2,0,P|364:212|368:184,1,66.1499979812623,2|0,0:0|0:0,0:0:0:0:
364,104,139724,2,0,L|276:88,1,66.1499979812623,2|0,0:0|0:0,0:0:0:0:
224,52,140103,6,0,P|176:80|92:108,1,132.299995962525,2|2,0:0|0:0,0:0:0:0:
40,48,140673,1,2,0:3:0:0:
40,48,140768,1,2,0:3:0:0:
40,48,140863,2,0,L|64:208,1,132.299995962525,2|4,0:0|0:0,0:0:0:0:
44,264,141433,1,0,0:0:0:0:
100,328,141622,6,0,P|140:332|180:320,1,66.1499979812623,4|0,0:0|0:0,0:0:0:0:
244,292,142002,1,2,0:0:0:0:
328,308,142192,2,0,L|393:313,1,66.1499979812623,0|2,0:0|0:0,0:0:0:0:
460,260,142572,1,2,0:3:0:0:
460,260,142762,2,0,L|449:194,1,66.1499979812623,2|0,0:0|0:0,0:0:0:0:
436,108,143141,6,0,P|388:72|304:88,1,132.299995962525,2|2,0:0|0:0,0:0:0:0:
276,152,143711,1,2,0:3:0:0:
276,152,143806,1,2,0:3:0:0:
276,152,143901,2,0,P|240:152|208:148,1,66.1499979812623,2|8,0:0|0:3,0:0:0:0:
152,84,144281,2,0,P|120:92|68:116,1,66.1499979812623,12|8,0:3|0:0,0:0:0:0:
28,164,144660,6,0,P|38:236|44:300,1,132.299995962525,4|8,0:0|0:0,0:0:0:0:
124,324,145230,2,0,P|164:328|192:336,1,66.1499979812623,4|0,0:0|0:0,0:0:0:0:
276,348,145610,2,0,P|308:320|332:284,1,66.1499979812623,4|0,0:0|0:0,0:0:0:0:
376,236,145990,6,0,P|384:304|412:368,1,132.299995962525,4|4,0:0|0:0,0:0:0:0:
488,324,146559,1,8,0:0:0:0:
488,324,146749,2,0,L|480:192,1,132.299995962525,4|2,0:0|0:0,0:0:0:0:
464,108,147319,1,8,0:0:0:0:
388,144,147508,6,0,P|324:156|260:112,1,132.299995962525,4|0,0:0|0:0,0:0:0:0:
277,41,148078,2,0,L|211:52,1,66.1499979812623,8|0,0:0|0:0,0:0:0:0:
132,80,148458,2,0,L|96:-4,2,66.1499979812623,8|0|8,0:0|0:0|0:0,0:0:0:0:
184,148,149027,6,0,P|192:208|180:292,1,132.299995962525,4|2,0:0|0:0,0:0:0:0:
120,336,149597,1,4,0:0:0:0:
12,200,149977,1,0,0:0:0:0:
136,100,150357,6,0,P|152:136|164:152,1,44.0999986541748,0|0,0:0|0:0,0:0:0:0:
288,128,150736,6,0,B|336:112|336:112|384:136|384:196,1,147,4|8,0:0|0:0,0:0:0:0:
344,268,151306,2,0,L|268:264,1,73.5,2|2,0:0|0:0,0:0:0:0:
188,236,151686,1,2,0:0:0:0:
188,236,151876,1,8,0:0:0:0:
112,280,152065,6,0,P|80:220|88:124,1,147,4|2,0:0|0:0,0:0:0:0:
156,92,152635,2,0,P|188:84|236:84,1,73.5,8|2,0:0|0:0,0:0:0:0:
268,100,152920,1,2,0:0:0:0:
268,100,153015,2,0,P|308:104|352:92,1,73.5,2|2,0:0|0:0,0:0:0:0:
416,52,153395,2,0,P|432:96|440:128,1,73.5,8|0,0:0|0:0,0:0:0:0:
460,228,153774,6,0,P|416:172|328:184,1,147,4|8,0:0|0:0,0:0:0:0:
284,236,154344,1,0,0:0:0:0:
196,244,154534,2,0,L|196:348,2,73.5,2|2|8,0:0|0:0|0:0,0:0:0:0:
176,136,155103,6,0,P|160:216|88:248,1,147,4|2,0:0|0:0,0:0:0:0:
24,220,155673,2,0,L|12:140,1,73.5,8|0,0:0|0:0,0:0:0:0:
64,76,156053,2,0,L|52:-4,2,73.5,2|2|8,0:0|0:0|0:0,0:0:0:0:
148,48,156622,1,0,0:0:0:0:
232,72,156812,6,0,P|312:52|384:56,1,147,4|8,0:0|0:0,0:0:0:0:
440,116,157382,1,0,0:0:0:0:
408,200,157572,2,0,L|414:273,1,73.5,2|2,0:0|0:0,0:0:0:0:
468,344,157952,1,8,0:0:0:0:
360,332,158141,6,0,P|288:328|188:332,1,147,4|2,0:0|0:0,0:0:0:0:
128,352,158711,2,0,P|116:316|116:272,1,73.5,8|2,0:0|0:0,0:0:0:0:
136,196,159091,2,0,P|172:196|216:208,1,73.5,2|0,0:0|0:0,0:0:0:0:
292,236,159471,2,0,P|320:228|360:209,1,73.5,8|0,0:0|0:0,0:0:0:0:
396,132,159850,6,0,P|340:88|256:88,1,147,4|8,0:0|0:0,0:0:0:0:
192,132,160420,1,2,0:0:0:0:
192,132,160515,1,2,0:0:0:0:
192,132,160610,1,2,0:0:0:0:
112,96,160800,2,0,P|88:100|32:112,1,73.5,2|8,0:0|0:0,0:0:0:0:
28,196,161179,1,4,0:0:0:0:
64,276,161369,6,0,L|60:360,2,73.5,2|2|8,0:0|0:0|0:0,0:0:0:0:
132,216,161939,2,0,P|196:228|272:192,1,147,4|2,0:0|0:0,0:0:0:0:
328,132,162508,2,0,P|364:132|420:148,1,73.5,8|8,0:0|0:0,0:0:0:0:
444,220,162888,6,0,L|419:289,1,73.5,4|0,0:0|0:0,0:0:0:0:
352,348,163268,1,8,0:0:0:0:
276,304,163458,2,0,L|196:308,1,73.5,2|2,0:0|0:0,0:0:0:0:
128,356,163838,2,0,P|116:320|108:256,1,73.5,2|8,0:0|0:0,0:0:0:0:
72,180,164217,6,0,B|144:160|144:212|236:188,1,147,4|2,0:0|0:0,0:0:0:0:
276,128,164787,2,0,P|308:120|356:120,1,73.5,8|2,0:0|0:0,0:0:0:0:
388,136,165072,1,2,0:0:0:0:
388,136,165167,2,0,P|428:112|456:80,1,73.5,2|2,0:0|0:0,0:0:0:0:
388,28,165546,2,0,L|296:20,1,73.5,8|2,0:0|0:0,0:0:0:0:
228,44,165926,6,0,P|156:44|84:76,1,147,4|8,0:0|0:0,0:0:0:0:
60,156,166496,1,2,0:0:0:0:
120,220,166686,2,0,L|116:296,1,73.5,2|2,0:0|0:0,0:0:0:0:
48,352,167065,1,8,0:0:0:0:
156,368,167255,6,0,L|236:364,1,73.5,4|0,0:0|0:0,0:0:0:0:
292,300,167635,2,0,L|372:296,1,73.5,4|8,0:0|0:0,0:0:0:0:
464,204,168015,2,0,L|390:207,1,73.5,4|8,0:0|0:0,0:0:0:0:
320,156,168395,2,0,L|246:159,1,73.5,4|8,0:0|0:0,0:0:0:0:
208,180,168679,1,2,0:0:0:0:
208,180,168774,1,2,0:0:0:0:
136,128,168964,6,0,P|84:168|68:244,1,147,4|8,0:0|0:0,0:0:0:0:
128,312,169534,2,0,L|216:304,1,73.5,4|0,0:0|0:0,0:0:0:0:
276,256,169914,2,0,L|364:248,1,73.5,4|8,0:0|0:0,0:0:0:0:
408,184,170293,1,0,0:0:0:0:
380,100,170483,6,0,P|416:48|436:112,1,147,4|8,0:0|0:0,0:0:0:0:
320,156,171053,2,0,L|224:148,1,73.5,4|0,0:0|0:0,0:0:0:0:
160,172,171433,2,0,L|64:164,1,73.5,4|8,0:0|0:0,0:0:0:0:
44,64,171812,6,0,L|206:50,1,147,4|2,0:0|0:0,0:0:0:0:
280,60,172382,2,0,P|315:43|352:48,1,73.5,8|2,0:0|0:0,0:0:0:0:
388,68,172667,1,2,0:0:0:0:
388,68,172762,2,0,L|392:152,1,73.5,0|2,0:0|0:0,0:0:0:0:
452,208,173141,1,8,0:0:0:0:
412,288,173331,6,0,P|344:308|252:300,1,147,4|2,0:0|0:0,0:0:0:0:
202,245,173901,2,0,L|180:316,1,73.5,8|2,0:0|0:0,0:0:0:0:
92,296,174281,2,0,L|19:306,2,73.5,0|2|8,0:0|0:0|0:0,0:0:0:0:
120,212,174850,6,0,P|128:144|100:56,1,147,4|2,0:0|0:0,0:0:0:0:
188,28,175420,2,0,P|228:40|276:48,1,73.5,8|2,0:0|0:0,0:0:0:0:
304,44,175705,1,2,0:0:0:0:
304,44,175800,2,0,P|348:32|392:24,1,73.5,2|2,0:0|0:0,0:0:0:0:
448,76,176179,1,8,0:0:0:0:
415,154,176369,6,0,L|407:234,1,73.5,4|0,0:0|0:0,0:0:0:0:
396,316,176749,2,0,L|480:308,1,73.5,4|0,0:0|0:0,0:0:0:0:
324,256,177129,2,0,L|240:264,1,73.5,4|0,0:0|0:0,0:0:0:0:
184,320,177508,2,0,L|180:356,2,36.75,8|8|8,0:0|0:0|0:0,0:0:0:0:
172,236,177888,1,4,0:0:0:0:
224,192,189660,5,8,0:0:0:0:
296,232,189850,2,0,L|300:280,2,27.562501051426,8|8|8,0:0|0:0|0:0,0:0:0:0:
316,152,190230,6,0,L|311:97,1,55.1250021028519,4|0,0:0|0:0,0:0:0:0:
248,44,190610,2,0,P|220:56|192:64,1,55.1250021028519,2|0,0:0|0:0,0:0:0:0:
112,68,190990,2,0,P|112:104|116:136,1,55.1250021028519,2|0,0:0|0:0,0:0:0:0:
140,200,191369,2,0,P|140:236|136:268,1,55.1250021028519,2|0,0:0|0:0,0:0:0:0:
104,332,191749,6,0,P|164:332|220:348,1,110.250004205704,2|2,0:0|0:0,0:0:0:0:
292,368,192319,1,2,0:3:0:0:
292,368,192414,1,2,0:3:0:0:
292,368,192508,2,0,P|320:352|348:320,1,55.1250021028519,2|0,0:0|0:0,0:0:0:0:
372,260,192888,2,0,L|368:196,1,55.1250021028519,2|0,0:0|0:0,0:0:0:0:
408,132,193268,6,0,P|368:116|296:116,1,110.250004205704,6|2,0:0|0:0,0:0:0:0:
240,168,193838,1,0,0:0:0:0:
164,136,194027,2,0,P|124:176|108:248,1,110.250004205704,2|2,0:0|0:0,0:0:0:0:
132,308,194597,1,0,0:0:0:0:
212,284,194787,6,0,B|232:272|232:272|252:280|252:280|284:268|328:280,1,110.250004205704,4|2,0:0|0:0,0:0:0:0:
388,320,195357,1,2,0:3:0:0:
388,320,195452,1,2,0:3:0:0:
388,320,195546,2,0,P|408:292|416:256,1,55.1250021028519,2|8,0:0|0:3,0:0:0:0:
376,200,195926,2,0,L|368:128,1,55.1250021028519,12|8,0:3|0:0,0:0:0:0:
316,60,196306,6,0,P|312:128|280:208,1,132.299995962525,4|0,0:0|0:0,0:0:0:0:
216,144,196876,2,0,P|180:144|136:152,1,66.1499979812623,4|0,0:0|0:0,0:0:0:0:
76,192,197255,2,0,L|88:276,1,66.1499979812623,4|0,0:0|0:0,0:0:0:0:
160,300,197635,6,0,P|232:288|292:296,1,132.299995962525,4|2,0:0|0:0,0:0:0:0:
368,332,198205,1,8,0:0:0:0:
420,264,198395,2,0,P|423:203|424:128,1,132.299995962525,4|2,0:0|0:0,0:0:0:0:
388,52,198964,1,8,0:0:0:0:
324,112,199154,6,0,P|264:108|224:40,1,132.299995962525,4|2,0:0|0:0,0:0:0:0:
152,104,199724,2,0,L|140:180,1,66.1499979812623,8|0,0:0|0:0,0:0:0:0:
100,244,200103,2,0,L|36:262,2,66.1499979812623,8|2|8,0:0|0:0|0:0,0:0:0:0:
188,252,200673,6,0,P|252:256|296:200,1,132.299995962525,4|8,0:0|0:0,0:0:0:0:
244,136,201243,1,4,0:0:0:0:
376,24,201622,1,0,0:0:0:0:
460,172,202002,1,8,0:0:0:0:
316,72,202382,6,0,B|340:120|336:184|312:236|312:236|256:208|208:240,1,264.599991925049,4|0,0:0|0:0,0:0:0:0:
132,304,203901,6,0,B|56:180|144:180|84:32,1,264.599991925049,2|0,0:0|0:0,0:0:0:0:
204,36,205420,6,0,B|276:80|276:20|348:44|348:44|332:80,1,176.399994616699,2|2,0:0|0:0,0:0:0:0:
320,144,206369,2,0,L|380:148,1,44.0999986541748,2|0,0:0|0:0,0:0:0:0:
420,236,206749,6,0,B|380:260|364:304|364:304|304:268|304:328|232:300,1,220.499993270874,2|0,0:0|0:0,0:0:0:0:
156,240,208078,1,0,0:0:0:0:
180,76,208458,6,0,L|100:84,1,55.1250021028519,4|0,0:0|0:0,0:0:0:0:
64,140,208838,2,0,P|63:168|60:216,1,55.1250021028519,2|0,0:0|0:0,0:0:0:0:
36,272,209217,2,0,P|35:305|60:356,1,82.6875031542779,2|0,0:0|0:0,0:0:0:0:
96,336,209597,2,0,P|128:332|172:336,1,55.1250021028519,2|0,0:0|0:0,0:0:0:0:
232,344,209977,6,0,P|268:308|272:228,1,110.250004205704,4|2,0:0|0:0,0:0:0:0:
252,172,210546,1,0,0:0:0:0:
252,172,210736,2,0,P|312:176|352:200,1,82.6875031542779,2|0,0:0|0:0,0:0:0:0:
360,216,211116,2,0,P|392:204|424:184,1,55.1250021028519,2|0,0:0|0:0,0:0:0:0:
456,124,211496,6,0,L|476:48,2,55.1250021028519,4|0|2,0:0|0:0|0:0,0:0:0:0:
376,104,212065,2,0,P|336:80|268:72,1,110.250004205704,0|2,0:0|0:0,0:0:0:0:
196,100,212635,1,2,0:0:0:0:
196,100,212825,6,0,L|204:232,1,110.250004205704,4|2,0:0|0:0,0:0:0:0:
156,280,213395,2,0,L|88:276,1,55.1250021028519,4|0,0:0|0:0,0:0:0:0:
84,196,213774,2,0,L|16:192,1,55.1250021028519,4|0,0:0|0:0,0:0:0:0:
28,108,214154,2,0,L|0:108,2,27.562501051426,8|8|8,0:0|0:0|0:0,0:0:0:0:
112,76,214534,6,0,P|152:28|192:28,1,73.5,4|0,0:0|0:0,0:0:0:0:
248,32,214914,1,8,0:0:0:0:
308,96,215103,2,0,L|396:88,1,73.5,2|2,0:0|0:0,0:0:0:0:
460,52,215483,1,2,0:0:0:0:
472,140,215673,1,8,0:0:0:0:
432,220,215863,6,0,P|360:240|280:204,1,147,4|2,0:0|0:0,0:0:0:0:
232,156,216433,2,0,P|196:168|164:192,1,73.5,8|2,0:0|0:0,0:0:0:0:
144,224,216717,1,2,0:0:0:0:
144,224,216812,2,0,L|56:228,1,73.5,2|2,0:0|0:0,0:0:0:0:
84,140,217192,2,0,L|10:143,1,73.5,8|0,0:0|0:0,0:0:0:0:
116,56,217572,6,0,P|184:40|260:80,1,147,4|8,0:0|0:0,0:0:0:0:
232,156,218141,1,2,0:0:0:0:
276,232,218331,2,0,L|272:324,2,73.5,2|0|8,0:0|0:0|0:0,0:0:0:0:
336,168,218901,6,0,B|392:132|448:128|448:128|424:180,1,147,4|2,0:0|0:0,0:0:0:0:
404,236,219471,2,0,L|396:324,1,73.5,8|2,0:0|0:0,0:0:0:0:
368,344,219755,1,0,0:0:0:0:
368,344,219850,1,2,0:0:0:0:
284,316,220040,1,2,0:0:0:0:
200,340,220230,2,0,L|116:336,1,73.5,8|2,0:0|0:0,0:0:0:0:
40,240,220610,6,0,P|96:208|192:224,1,147,4|8,0:0|0:0,0:0:0:0:
260,236,221179,1,0,0:0:0:0:
328,180,221369,2,0,L|343:108,2,73.5,2|2|8,0:0|0:0|0:0,0:0:0:0:
364,260,221939,6,0,P|436:248|476:184,1,147,4|2,0:0|0:0,0:0:0:0:
428,116,222508,2,0,L|420:40,1,73.5,8|2,0:0|0:0,0:0:0:0:
336,12,222888,2,0,L|328:85,1,73.5,2|0,0:0|0:0,0:0:0:0:
256,132,223268,2,0,P|212:124|182:128,1,73.5,8|0,0:0|0:0,0:0:0:0:
120,248,223648,6,0,B|176:264|176:264|204:232|256:224,1,147,4|8,0:0|0:0,0:0:0:0:
332,260,224217,1,2,0:0:0:0:
332,260,224312,1,2,0:0:0:0:
332,260,224407,1,2,0:0:0:0:
412,220,224597,2,0,L|432:308,1,73.5,2|8,0:0|0:0,0:0:0:0:
364,352,224977,1,4,0:0:0:0:
280,332,225167,6,0,L|206:338,1,73.5,2|2,0:0|0:0,0:0:0:0:
124,368,225546,1,8,0:0:0:0:
48,320,225736,2,0,P|36:252|56:156,1,147,4|4,0:0|0:0,0:0:0:0:
112,116,226306,2,0,L|115:79,2,36.75,8|8|8,0:0|0:0|0:0,0:0:0:0:
180,172,226686,6,0,P|252:168|320:124,1,147,4|8,0:0|0:0,0:0:0:0:
392,88,227255,2,0,L|408:168,1,73.5,2|2,0:0|0:0,0:0:0:0:
452,236,227635,2,0,L|436:316,1,73.5,2|8,0:0|0:0,0:0:0:0:
352,280,228015,6,0,P|284:280|184:292,1,147,4|2,0:0|0:0,0:0:0:0:
128,328,228584,2,0,P|112:292|104:237,1,73.5,8|2,0:0|0:0,0:0:0:0:
104,216,228869,1,2,0:0:0:0:
104,216,228964,2,0,P|136:200|184:192,1,73.5,2|2,0:0|0:0,0:0:0:0:
260,208,229344,2,0,P|300:204|336:192,1,73.5,8|2,0:0|0:0,0:0:0:0:
392,100,229724,6,0,P|392:188|416:256,1,147,4|8,0:0|0:0,0:0:0:0:
476,300,230293,1,0,0:0:0:0:
404,352,230483,1,2,0:0:0:0:
332,300,230673,2,0,L|248:304,1,73.5,0|8,0:0|0:0,0:0:0:0:
172,324,231053,6,0,L|180:248,1,73.5,4|0,0:0|0:0,0:0:0:0:
260,208,231433,2,0,L|252:132,1,73.5,4|8,0:0|0:0,0:0:0:0:
100,176,231812,2,0,L|184:168,1,73.5,4|8,0:0|0:0,0:0:0:0:
252,134,232192,1,4,0:0:0:0:
332,100,232382,2,0,L|352:48,2,36.75,8|8|8,0:0|0:0|0:0,0:0:0:0:
348,188,232762,6,0,P|384:208|420:216,1,73.5,4|0,0:0|0:0,0:0:0:0:
488,168,233141,1,8,0:0:0:0:
440,92,233331,2,0,L|424:16,1,73.5,4|0,0:0|0:0,0:0:0:0:
336,16,233711,1,4,0:0:0:0:
252,44,233901,2,0,L|220:0,2,36.75,8|8|8,0:0|0:0|0:0,0:0:0:0:
252,134,234281,6,0,P|180:148|128:208,1,147,4|8,0:0|0:0,0:0:0:0:
136,288,234850,2,0,P|176:288|232:276,1,73.5,4|0,0:0|0:0,0:0:0:0:
288,240,235230,2,0,P|328:232|380:232,1,73.5,4|0,0:0|0:0,0:0:0:0:
428,320,235610,6,0,P|434:267|448:168,1,147,4|2,0:0|0:0,0:0:0:0:
484,96,236179,2,0,P|416:120|332:112,1,147,8|2,0:0|0:0,0:0:0:0:
276,56,236749,1,2,0:0:0:0:
192,36,236939,1,8,0:0:0:0:
116,80,237129,6,0,P|96:164|104:224,1,147,4|2,0:0|0:0,0:0:0:0:
144,304,237698,2,0,P|184:296|232:272,1,73.5,8|0,0:0|0:0,0:0:0:0:
284,228,238078,1,2,0:0:0:0:
364,256,238268,1,2,0:0:0:0:
364,256,238363,1,2,0:0:0:0:
364,256,238458,1,10,0:0:0:0:
428,196,238648,6,0,P|428:116|400:52,1,147,4|2,0:0|0:0,0:0:0:0:
320,92,239217,2,0,P|288:100|236:92,1,73.5,8|2,0:0|0:0,0:0:0:0:
216,68,239502,1,2,0:0:0:0:
216,68,239597,2,0,P|144:68|64:92,1,147,2|8,0:0|0:0,0:0:0:0:
44,172,240167,6,0,L|60:260,1,73.5,4|0,0:0|0:0,0:0:0:0:
116,308,240546,2,0,L|208:304,1,73.5,4|0,0:0|0:0,0:0:0:0:
272,176,240926,2,0,P|196:176|144:228,1,147,4|4,0:0|0:0,0:0:0:0:
116,308,241496,1,4,0:3:0:0:
204,296,241686,1,8,0:0:0:0:
204,296,241781,1,8,0:0:0:0:
204,296,241876,6,0,B|276:276|276:332|380:300,1,147,4|8,0:0|0:0,0:0:0:0:
412,240,242445,1,0,0:0:0:0:
412,240,242540,1,0,0:0:0:0:
412,240,242635,1,2,0:0:0:0:
360,168,242825,2,0,L|356:76,1,73.5,2|8,0:0|0:0,0:0:0:0:
300,28,243205,1,2,0:0:0:0:
224,76,243395,6,0,L|150:69,1,73.5,2|2,0:0|0:0,0:0:0:0:
68,40,243774,1,8,0:0:0:0:
84,128,243964,2,0,L|80:212,1,73.5,2|2,0:0|0:0,0:0:0:0:
76,288,244344,2,0,P|40:296|-12:284,2,73.5,2|8|0,0:0|0:0|0:0,0:0:0:0:
160,256,244914,6,0,P|196:256|260:264,1,73.5,4|0,0:0|0:0,0:0:0:0:
312,300,245293,2,0,P|318:245|339:206,1,73.5,8|2,0:0|0:0,0:0:0:0:
404,192,245673,2,0,P|397:137|377:98,1,73.5,2|2,0:0|0:0,0:0:0:0:
316,72,246053,1,8,0:0:0:0:
248,128,246243,1,2,0:0:0:0:
176,76,246433,6,0,P|109:81|8:96,1,147,2|8,0:0|0:0,0:0:0:0:
80,168,247002,2,0,P|76:212|84:264,1,73.5,2|2,0:0|0:0,0:0:0:0:
144,304,247382,1,2,0:0:0:0:
220,260,247572,1,8,0:0:0:0:
220,260,247667,1,8,0:0:0:0:
220,260,247762,1,8,0:0:0:0:
292,308,247952,6,0,P|356:316|408:252,1,147,4|0,0:0|0:0,0:0:0:0:
368,180,248521,2,0,L|268:188,1,73.5,4|0,0:0|0:0,0:0:0:0:
224,132,248901,2,0,L|124:140,1,73.5,4|0,0:0|0:0,0:0:0:0:
256,48,249281,6,0,L|329:42,1,73.5,4|0,0:0|0:0,0:0:0:0:
400,92,249660,2,0,L|473:86,1,73.5,4|0,0:0|0:0,0:0:0:0:
492,172,250040,6,0,P|484:256|428:180,1,220.499993270874,4|0,0:0|0:0,0:0:0:0:
256,192,251084,12,0,257065,0:0:0:0:
