osu file format v14

[General]
AudioFilename: Plastic Memories OP.mp3
AudioLeadIn: 0
PreviewTime: 53129
Countdown: 0
SampleSet: Soft
StackLeniency: 0.7
Mode: 0
LetterboxInBreaks: 0
WidescreenStoryboard: 0

[Editor]
Bookmarks: 3180,23129,23319,61009,61768
DistanceSpacing: 1.4
BeatDivisor: 2
GridSize: 8
TimelineZoom: 1.3

[Metadata]
Title:Ring of Fortune
TitleUnicode:Ring of Fortune
Artist:Eri Sasaki
ArtistUnicode:佐々木恵梨
Creator:Airachi
Version:Hard
Source:プラスティック・メモリーズ
Tags:-lemons Plastic Memories プラメモ Intelli opening tv size
BeatmapID:826889
BeatmapSetID:374300

[Difficulty]
HPDrainRate:5
CircleSize:3.6
OverallDifficulty:6
ApproachRate:7.5
SliderMultiplier:1.2
SliderTickRate:1

[Events]
//Background and Video events
0,0,"islasacutie.jpg",0,0
//Break Periods
//Storyboard Layer 0 (Background)
//Storyboard Layer 1 (Fail)
//Storyboard Layer 2 (Pass)
//Storyboard Layer 3 (Foreground)
//Storyboard Sound Samples

[TimingPoints]
951,405.405405405405,4,2,1,30,1,0
3383,379.746835443038,4,2,1,50,1,0
4142,379.746835443038,4,2,1,50,1,0
11736,-100,4,2,1,30,0,0
14015,-100,4,2,1,30,0,0
14110,-100,4,2,1,30,0,0
17243,-100,4,1,1,30,0,0
17812,-100,4,2,1,30,0,0
21610,-100,4,1,1,30,0,0
22369,-100,4,2,1,30,0,0
32243,-100,4,1,1,30,0,0
32812,-100,4,2,1,30,0,0
34901,-100,4,2,1,50,0,0
53129,-100,4,2,1,15,0,0
53888,-100,4,2,1,50,0,0
54268,-100,4,2,1,70,0,1
54458,-83.3333333333333,4,2,1,70,0,1
81610,-100,4,2,1,55,0,0
86926,-100,4,2,1,40,0,0
87116,-100,4,2,1,35,0,0
87306,-100,4,2,1,30,0,0
87496,-100,4,2,1,25,0,0
87686,-100,4,2,1,20,0,0
87876,-100,4,2,1,15,0,0
88066,-100,4,2,1,10,0,0
88825,-100,4,2,1,5,0,0

[Colours]
Combo1 : 128,128,255
Combo2 : 192,192,192
Combo3 : 255,128,255
Combo4 : 242,24,57

[HitObjects]
128,156,951,6,0,P|188:176|256:148,1,120,0|2,0:0|0:0,0:0:0:0:
187,84,1559,1,0,0:0:0:0:
416,48,2167,2,0,L|316:48,1,60,2|0,0:0|0:0,0:0:0:0:
283,96,2572,5,0,0:0:0:0:
347,197,2978,1,2,0:0:0:0:
347,197,3180,1,0,0:0:0:0:
284,304,3572,5,0,0:0:0:0:
241,231,3762,1,10,0:0:0:0:
400,304,4142,5,4,0:0:0:0:
445,233,4331,2,0,P|458:197|458:166,1,60,0|8,0:0|0:0,0:0:0:0:
458,85,4711,1,0,0:0:0:0:
384,44,4901,2,0,P|374:77|381:120,1,60,2|0,0:0|0:0,0:0:0:0:
302,146,5281,1,8,0:0:0:0:
228,105,5471,6,0,L|228:33,1,60,6|0,0:0|0:0,0:0:0:0:
145,9,5850,1,0,0:0:0:0:
69,57,6040,2,0,L|69:141,1,60,10|0,0:0|0:0,0:0:0:0:
71,207,6420,1,0,0:0:0:0:
147,159,6610,1,0,0:0:0:0:
209,224,6800,2,0,L|268:221,1,60,10|0,0:0|0:0,0:0:0:0:
373,160,7179,6,0,P|391:220|367:297,1,120,6|8,0:0|0:0,0:0:0:0:
304,320,7749,1,2,0:0:0:0:
176,277,8129,1,2,0:0:0:0:
176,144,8508,1,0,0:3:0:0:
304,105,8888,1,0,0:3:0:0:
381,211,9268,1,0,0:3:0:0:
256,192,9458,12,0,11736,0:0:0:0:
184,93,12306,5,0,0:0:0:0:
120,156,12496,2,0,P|156:180|240:160,1,120,0|2,0:0|0:0,0:0:0:0:
297,110,13066,2,0,P|333:86|417:106,1,120,0|0,0:0|0:0,0:0:0:0:
424,244,13825,1,0,0:0:0:0:
424,244,14015,6,0,P|398:298|326:318,1,120,2|2,0:0|0:0,0:0:0:0:
236,192,14774,1,0,0:0:0:0:
317,229,14964,1,0,0:0:0:0:
314,143,15154,1,2,0:0:0:0:
313,143,15344,2,0,P|233:99|146:198,1,240,0|2,0:0|0:0,0:0:0:0:
212,245,16293,5,2,0:0:0:0:
294,230,16482,1,2,0:0:0:0:
347,295,16672,1,2,0:0:0:0:
430,281,16862,1,2,0:0:0:0:
469,160,17243,1,2,0:0:0:0:
469,160,17812,5,0,0:0:0:0:
394,120,18002,1,0,0:0:0:0:
310,131,18192,1,2,0:0:0:0:
248,187,18382,2,0,P|176:233|69:201,1,180,0|2,0:0|0:0,0:0:0:0:
12,252,19142,1,0,0:0:0:0:
22,170,19331,6,0,P|34:110|26:46,1,120,2|2,0:0|0:0,0:0:0:0:
107,79,19901,1,0,0:0:0:0:
256,92,20281,1,0,0:0:0:0:
332,56,20471,1,2,0:0:0:0:
404,96,20660,1,0,0:0:0:0:
388,180,20850,6,0,P|320:188|260:180,1,120,0|0,0:0|0:0,0:0:0:0:
194,141,21420,1,0,0:0:0:0:
213,58,21610,2,0,P|277:49|341:58,1,120,2|0,0:0|0:0,0:0:0:0:
268,248,22369,5,2,0:0:0:0:
132,152,22748,1,2,0:0:0:0:
284,84,23129,2,0,L|350:50,2,60,0|0|8,0:3|0:3|0:3,0:0:0:0:
152,184,23888,6,0,L|228:212,1,60,4|0,0:0|0:0,0:0:0:0:
272,260,24268,2,0,L|208:296,1,60,2|0,0:0|0:0,0:0:0:0:
140,264,24648,1,2,0:0:0:0:
80,208,24838,2,0,P|72:136|104:72,1,120,2|0,0:0|0:0,0:0:0:0:
152,38,25407,5,0,0:0:0:0:
320,38,25787,2,0,P|340:93|332:152,2,120,2|2|2,0:0|0:0|0:0,0:0:0:0:
272,226,26926,6,0,P|324:246|400:218,1,120,0|2,0:0|0:0,0:0:0:0:
444,166,27496,2,0,L|472:222,1,60,0|0,0:0|0:0,0:0:0:0:
353,340,28066,2,0,L|290:340,1,60,2|0,0:0|0:0,0:0:0:0:
219,299,28445,5,0,0:0:0:0:
100,180,28825,1,2,0:0:0:0:
57,342,29205,1,0,0:0:0:0:
219,299,29585,2,0,L|220:215,1,60,2|0,0:0|0:0,0:0:0:0:
269,171,29964,6,0,L|269:111,1,60,0|0,0:0|0:0,0:0:0:0:
347,143,30344,1,2,0:0:0:0:
425,112,30534,2,0,L|425:172,1,60,0|0,0:0|0:0,0:0:0:0:
323,306,31104,2,0,L|243:306,1,60,2|0,0:0|0:0,0:0:0:0:
209,241,31483,5,2,0:0:0:0:
88,123,31863,2,0,P|81:87|99:46,1,60,2|0,0:0|0:0,0:0:0:0:
192,32,32243,1,2,0:0:0:0:
192,32,32812,1,2,0:0:0:0:
272,56,33002,6,0,L|220:116,1,60,2|0,0:0|0:0,0:0:0:0:
148,100,33382,1,2,0:0:0:0:
83,153,33572,2,0,L|135:213,1,60,6|0,0:0|0:0,0:0:0:0:
204,178,33952,1,2,0:0:0:0:
269,231,34142,2,0,L|217:291,1,60,6|0,0:0|0:0,0:0:0:0:
166,351,34521,5,0,0:0:0:0:
333,336,34901,2,0,P|320:305|320:265,1,60,10|0,0:0|0:0,0:0:0:0:
389,233,35281,2,0,P|398:199|401:164,1,60,2|0,0:0|0:0,0:0:0:0:
468,297,35660,1,10,0:0:0:0:
468,297,35755,1,0,0:0:0:0:
468,297,35850,1,0,0:0:0:0:
333,336,36040,6,0,P|265:344|193:316,2,120,2|10|2,0:0|0:0|0:0,0:0:0:0:
355,254,36990,1,0,0:0:0:0:
338,171,37179,2,0,L|290:107,1,60,10|0,0:0|0:0,0:0:0:0:
383,100,37559,6,0,P|418:157|404:222,1,120,2|8,0:0|0:0,0:0:0:0:
345,259,38129,1,0,0:0:0:0:
345,259,38224,1,0,0:0:0:0:
345,259,38319,2,0,L|273:259,1,60,2|0,0:0|0:0,0:0:0:0:
215,212,38698,1,10,0:0:0:0:
258,140,38888,1,0,0:0:0:0:
215,68,39078,5,10,0:0:0:0:
326,35,39458,1,10,0:0:0:0:
267,179,39838,1,0,0:0:0:0:
255,95,40028,1,2,0:0:0:0:
389,202,40407,1,2,0:0:0:0:
411,283,40597,5,2,0:0:0:0:
472,225,40787,2,0,P|484:162|472:108,1,120,2|0,0:0|0:0,0:0:0:0:
389,202,41357,1,0,0:0:0:0:
252,348,41736,1,8,0:0:0:0:
252,348,41831,1,0,0:0:0:0:
252,348,41926,1,0,0:0:0:0:
192,288,42116,6,0,L|124:324,1,60,4|0,0:0|0:0,0:0:0:0:
80,256,42496,2,0,L|152:220,1,60,8|0,0:0|0:0,0:0:0:0:
180,159,42876,2,0,L|127:102,1,60,0|0,0:0|0:0,0:0:0:0:
216,84,43255,2,0,L|269:144,1,60,8|0,0:0|0:0,0:0:0:0:
308,64,43635,5,0,0:0:0:0:
140,56,44015,2,0,L|140:128,1,60,10|0,0:0|0:0,0:0:0:0:
60,172,44395,2,0,L|60:88,1,60,2|0,0:0|0:0,0:0:0:0:
148,48,44774,2,0,L|148:132,1,60,12|0,0:0|0:0,0:0:0:0:
163,197,45154,5,4,0:0:0:0:
191,276,45344,1,0,0:0:0:0:
244,211,45534,1,8,0:0:0:0:
328,211,45724,2,0,P|355:218|410:210,1,60,0|0,0:0|0:0,0:0:0:0:
429,144,46104,2,0,P|397:137|368:138,1,60,0|8,0:0|0:0,0:0:0:0:
297,95,46483,1,0,0:0:0:0:
297,95,46673,5,2,0:0:0:0:
476,32,47053,2,0,L|476:104,1,60,10|0,0:0|0:0,0:0:0:0:
396,148,47433,2,0,L|396:64,1,60,2|0,0:0|0:0,0:0:0:0:
484,24,47812,2,0,L|484:108,1,60,10|0,0:0|0:0,0:0:0:0:
480,188,48192,5,4,0:0:0:0:
447,265,48382,1,0,0:0:0:0:
365,284,48572,1,8,0:0:0:0:
292,242,48762,1,2,0:2:0:0:
125,262,49142,1,2,0:0:0:0:
191,107,49522,1,2,0:0:0:0:
228,280,49901,5,2,0:0:0:0:
147,303,50091,1,8,0:0:0:0:
165,221,50281,2,0,P|205:177|273:185,1,120,4|2,0:0|0:0,0:0:0:0:
277,185,50755,1,0,0:0:0:0:
289,193,50850,1,8,0:0:0:0:
317,272,51040,6,0,P|357:316|425:308,1,120,4|2,0:0|0:0,0:0:0:0:
425,308,51515,1,0,0:0:0:0:
437,300,51610,1,8,0:0:0:0:
485,232,51800,1,2,0:0:0:0:
502,150,51990,1,0,0:0:0:0:
455,79,52180,1,0,0:0:0:0:
373,63,52369,1,8,0:0:0:0:
303,109,52559,1,0,0:0:0:0:
344,232,52939,5,8,0:0:0:0:
344,232,53129,2,0,P|264:244|220:220,2,120,8|0|8,0:0|0:0|0:0,0:0:0:0:
422,99,54268,5,4,0:0:0:0:
333,51,54458,1,0,0:0:0:0:
233,65,54648,1,8,0:0:0:0:
142,109,54838,2,0,P|88:122|48:114,1,71.9999978027344,0|0,0:0|0:0,0:0:0:0:
79,221,55217,1,0,0:0:0:0:
175,251,55407,1,8,0:0:0:0:
248,181,55597,6,0,L|316:157,1,71.9999978027344,0|0,0:0|0:0,0:0:0:0:
416,165,55977,1,0,0:0:0:0:
344,236,56167,2,0,L|264:268,1,71.9999978027344,10|0,0:0|0:0,0:0:0:0:
175,251,56547,2,0,P|128:165|148:97,1,143.999995605469,2|10,0:0|0:0,0:0:0:0:
210,77,57116,1,0,0:0:0:0:
233,160,57306,6,0,L|337:160,1,71.9999978027344,0|0,0:0|0:0,0:0:0:0:
384,96,57686,1,8,0:0:0:0:
408,192,57876,1,0,0:0:0:0:
493,138,58066,2,0,P|506:180|505:214,1,71.9999978027344,2|0,0:0|0:0,0:0:0:0:
422,266,58445,1,10,0:0:0:0:
335,213,58635,6,0,P|321:249|323:289,1,71.9999978027344,2|0,0:0|0:0,0:0:0:0:
224,240,59015,1,2,0:0:0:0:
128,184,59205,1,10,0:0:0:0:
80,288,59395,1,0,0:0:0:0:
80,288,59490,1,0,0:0:0:0:
80,288,59585,1,2,0:0:0:0:
180,316,59774,1,0,0:0:0:0:
268,268,59964,1,10,0:0:0:0:
284,168,60154,1,0,0:0:0:0:
178,92,60344,6,0,P|137:86|83:97,1,71.9999978027344,6|0,0:0|0:0,0:0:0:0:
56,176,60724,2,0,P|96:182|156:171,1,71.9999978027344,10|0,0:0|0:0,0:0:0:0:
228,169,61104,2,0,P|268:163|328:174,1,71.9999978027344,2|0,0:0|0:0,0:0:0:0:
408,236,61483,1,10,0:0:0:0:
360,325,61673,2,0,P|324:329|262:318,1,71.9999978027344,2|0,0:0|0:0,0:0:0:0:
220,252,62053,5,0,0:0:0:0:
133,303,62243,2,0,P|61:315|-3:271,2,143.999995605469,10|2|10,0:0|0:0|0:0,0:0:0:0:
220,252,63192,1,0,0:0:0:0:
304,308,63382,6,0,P|386:319|447:263,1,143.999995605469,2|8,0:0|0:0,0:0:0:0:
364,224,63952,1,0,0:0:0:0:
364,224,64047,1,0,0:0:0:0:
364,224,64142,2,0,L|368:132,1,71.9999978027344,2|0,0:0|0:0,0:0:0:0:
372,52,64521,1,10,0:0:0:0:
452,112,64711,1,4,0:0:0:0:
456,212,64901,5,2,0:0:0:0:
404,296,65091,1,0,0:0:0:0:
304,296,65281,1,10,0:0:0:0:
236,220,65471,2,0,P|224:140|228:72,2,143.999995605469,6|0|0,0:0|0:0|0:0,0:0:0:0:
236,316,66420,6,0,L|152:336,1,71.9999978027344,4|0,0:0|0:0,0:0:0:0:
84,276,66800,2,0,L|160:256,1,71.9999978027344,8|2,0:0|0:0,0:0:0:0:
148,161,67179,1,0,0:0:0:0:
109,68,67369,2,0,L|33:19,1,71.9999978027344,2|8,0:0|0:0,0:0:0:0:
24,121,67749,6,0,P|77:166|148:161,1,143.999995605469,2|0,0:0|0:0,0:0:0:0:
234,112,68319,2,0,P|180:67|110:68,2,143.999995605469,10|2|10,0:0|0:0|0:0,0:0:0:0:
220,212,69268,1,0,0:0:0:0:
316,184,69458,6,0,P|400:148|432:104,1,143.999995605469,2|8,0:0|0:0,0:0:0:0:
388,16,70028,1,0,0:0:0:0:
292,52,70217,1,0,0:0:0:0:
200,92,70407,2,0,L|120:128,1,71.9999978027344,0|8,0:0|0:0,0:0:0:0:
224,168,70787,6,0,L|308:128,1,71.9999978027344,6|0,0:0|0:0,0:0:0:0:
268,236,71167,2,0,L|188:272,1,71.9999978027344,2|8,0:0|0:0,0:0:0:0:
292,312,71547,2,0,L|376:272,1,71.9999978027344,2|0,0:0|0:0,0:0:0:0:
444,232,71926,2,0,L|444:80,1,143.999995605469,2|0,0:0|0:0,0:0:0:0:
364,24,72496,5,0,0:0:0:0:
280,80,72686,1,0,0:0:0:0:
196,24,72876,1,8,0:0:0:0:
124,96,73066,2,0,L|60:152,1,71.9999978027344,2|0,0:0|0:0,0:0:0:0:
68,244,73445,2,0,B|104:224|139:228|139:244|176:256|232:224,1,143.999995605469,2|0,0:0|0:0,0:0:0:0:
276,160,74015,5,0,0:0:0:0:
276,160,74110,1,0,0:0:0:0:
276,160,74205,1,0,0:0:0:0:
312,256,74395,1,8,0:0:0:0:
404,292,74585,1,2,0:0:0:0:
396,92,74964,1,2,0:0:0:0:
200,48,75344,6,0,P|184:116|200:196,1,143.999995605469,2|0,0:0|0:0,0:0:0:0:
324,156,75914,2,0,L|328:240,1,71.9999978027344,10|0,0:0|0:0,0:0:0:0:
335,235,76198,1,0,0:0:0:0:
342,242,76293,1,2,0:0:0:0:
275,317,76483,1,0,0:0:0:0:
174,312,76673,1,10,0:0:0:0:
111,233,76863,6,0,P|95:165|111:85,1,143.999995605469,2|0,0:0|0:0,0:0:0:0:
208,81,77433,1,8,0:0:0:0:
275,156,77623,2,0,L|335:100,1,71.9999978027344,2|0,0:0|0:0,0:0:0:0:
428,111,78002,1,2,0:0:0:0:
434,119,78097,1,0,0:0:0:0:
440,127,78192,1,8,0:0:0:0:
416,228,78382,6,0,L|312:336,1,143.999995605469,6|0,0:0|0:0,0:0:0:0:
244,264,78952,1,8,0:0:0:0:
144,284,79142,1,0,0:0:0:0:
56,332,79331,2,0,L|40:232,1,71.9999978027344,0|0,0:0|0:0,0:0:0:0:
144,284,79711,1,8,0:0:0:0:
276,340,79901,1,2,0:0:0:0:
368,136,80281,5,2,0:0:0:0:
172,84,80660,1,2,0:0:0:0:
144,284,81040,1,2,0:0:0:0:
220,220,81230,1,10,0:0:0:0:
128,180,81420,1,0,0:0:0:0:
128,180,81515,1,0,0:0:0:0:
128,180,81610,6,0,L|104:112,1,60,2|2,0:0|0:0,0:0:0:0:
44,176,81990,2,0,L|68:236,1,60,10|0,0:0|0:0,0:0:0:0:
144,284,82369,1,2,0:0:0:0:
228,282,82559,2,0,L|313:283,1,60,2|8,0:0|0:0,0:0:0:0:
367,309,82939,1,2,0:0:0:0:
429,253,83129,6,0,L|439:186,1,60,2|0,0:0|0:0,0:0:0:0:
354,205,83509,1,10,0:0:0:0:
268,140,83698,2,0,L|268:56,1,60,2|0,0:0|0:0,0:0:0:0:
200,28,84078,1,2,0:0:0:0:
152,96,84268,1,10,0:0:0:0:
104,168,84458,1,0,0:0:0:0:
48,228,84648,6,0,L|88:266,3,30,6|0|0|0,0:0|0:0|0:0|0:0,0:0:0:0:
106,270,85028,1,8,0:0:0:0:
208,236,85217,5,2,0:0:0:0:
309,338,85597,1,2,0:0:0:0:
411,236,85977,1,0,0:3:0:0:
309,134,86357,1,0,0:3:0:0:
208,236,86736,1,0,0:3:0:0:
256,192,86926,12,0,88825,0:0:0:0:
