osu file format v9

[General]
AudioFilename: Erasure - Always - 2009 Mix.mp3
AudioLeadIn: 0
PreviewTime: 56934
Countdown: 1
SampleSet: Soft
StackLeniency: 0.7
Mode: 0
LetterboxInBreaks: 0
EpilepsyWarning: 1

[Editor]
Bookmarks: 38297,56938,76744,222371
DistanceSpacing: 1.1
BeatDivisor: 4
GridSize: 8

[Metadata]
Title:Always (2009 Mix)
Artist:Erasure
Creator:CheeseWarlock
Version:Oh Love!
Source:
Tags:robot unicorn attack adult swim internet meme

[Difficulty]
HPDrainRate:5
CircleSize:4
OverallDifficulty:7
ApproachRate:7
SliderMultiplier:2.6
SliderTickRate:2

[Events]
//Background and Video events
0,0,"Image 16.jpg"
//Break Periods
2,47614,56034
2,77813,85160
2,143638,151568
2,161988,170209
//Storyboard Layer 0 (Background)
//Storyboard Layer 1 (Fail)
//Storyboard Layer 2 (Pass)
//Storyboard Layer 3 (Foreground)
//Storyboard Sound Samples
//Background Colour Transformations
3,100,163,162,255

[TimingPoints]
19652.8596025485,582.52427184466,4,2,0,70,1,0
36546,-100,4,2,1,70,0,0
56351,-100,4,2,0,70,0,0
103536,-100,4,2,1,70,0,0
112856,-100,4,2,0,70,0,0
182759,-100,4,2,0,70,0,1

[Colours]
Combo1 : 106,6,255
Combo2 : 255,60,94
Combo3 : 255,208,23
Combo4 : 13,255,0
Combo5 : 0,191,255

[HitObjects]
352,40,19652,5,0
400,176,19944,1,0
400,176,20089,1,2
464,48,20381,1,0
464,48,20526,1,0
344,120,20817,2,0,B|280:88|216:104,1,130
328,192,21400,1,0
184,168,21691,1,8
40,160,21982,5,0
160,240,22274,1,0
160,240,22419,1,2
64,344,22711,1,0
64,344,22856,1,2
208,320,23148,2,0,B|249:370|328:352,1,130
424,248,23730,2,0,B|376:288|296:264,1,130,8|0
432,328,24313,5,0
368,200,24604,1,0
368,200,24749,1,2
488,280,25041,1,0
488,280,25186,1,0
488,280,25332,1,0
480,152,25478,6,8,B|472:80|400:56,1,130
256,56,26060,1,0
109,56,26351,2,0,B|38:76|32:152,1,130,4|2
280,248,28973,5,4
144,280,29264,1,0
144,280,29410,1,2
240,176,29701,1,0
240,176,29847,1,0
112,120,30138,2,0,B|200:72|272:136|368:80,1,260
336,224,31012,1,8
432,120,31303,5,0
464,256,31594,1,0
464,256,31740,1,2
360,152,32031,1,0
360,152,32177,1,2
344,296,32468,2,0,B|280:272|264:328|216:320,1,130
80,280,33050,2,0,B|124:296|138:228|202:255,1,130,8|0
88,168,33633,5,0
184,56,33924,1,0
184,56,34070,1,2
328,56,34361,1,0
328,56,34507,1,0
328,56,34652,1,0
432,128,34798,2,0,B|352:152|336:224,1,130
280,344,35381,1,0
400,264,35672,1,0
264,200,35963,1,2
64,320,37419,5,0
184,320,37711,1,0
288,264,38002,2,2,B|328:244|329:184|273:147|242:146|185:184|186:240|229:265,3,260,2|8|0|8
344,120,40332,2,2,B|424:208|416:328|344:376|256:384|168:376|96:328|88:208|168:120,1,650,2|8
192,248,42080,1,0
88,344,42371,1,0
40,224,42662,6,2,B|48:168|88:48|128:0|256:0|384:0|424:48|464:168|472:224,1,650,2|4
360,264,44410,1,8
240,216,44701,1,0
328,128,44992,5,2
192,136,45283,2,0,B|76:113|42:226,1,195,0|0
72,264,45866,2,0,B|174:304|120:208,1,130,0|8
368,48,56934,5,4
448,88,57225,2,0,B|414:150|336:136,1,130,0|0
120,96,57808,1,2
408,328,58390,1,8
448,208,58681,1,0
320,232,58973,1,8
144,336,59264,5,2
64,296,59555,2,0,B|98:234|176:248,1,130,0|0
392,256,60138,1,2
104,56,60720,1,8
192,152,61012,1,0
64,176,61303,1,8
96,336,61594,6,0,B|232:336,1,130,2|0
320,336,62177,1,0
344,336,62322,1,0
368,336,62468,1,2
448,296,62759,2,0,B|414:290|400:256,1,65
384,216,63050,1,8
376,128,63342,1,0
456,168,63633,1,0
303,285,63924,5,2
190,225,64215,1,0
303,149,64507,1,4
324,315,64798,5,2
154,224,65089,1,0
318,121,65381,1,4
344,344,65672,5,8
150,36,66254,1,10
337,247,66837,6,0,B|416:232|448:296,1,130,4|0
368,336,67419,1,0
120,288,67711,1,2
408,56,68293,1,8
448,176,68584,1,0
320,152,68876,1,8
144,48,69167,5,2
64,88,69458,2,0,B|98:150|176:136,1,130,0|0
392,128,70041,1,2
408,56,70623,1,8
320,152,70914,1,0
448,176,71206,1,8
416,336,71497,6,0,B|280:336,1,130,2|0
192,336,72080,1,0
168,336,72225,1,0
144,336,72371,1,2
64,296,72662,2,0,B|98:290|112:256,1,65
128,216,72953,1,8
136,128,73245,1,0
56,168,73536,1,0
209,285,73827,5,2
322,225,74118,1,0
209,149,74410,1,4
188,315,74701,5,2
358,224,74992,1,0
194,121,75283,1,4
168,344,75575,5,8
362,36,76157,1,10
112,168,76740,6,0,B|56:176|56:216|104:240|160:224|264:168|416:200,1,390,4|0
280,160,86060,5,0
120,72,86351,1,0
120,72,86497,1,2
304,56,86788,1,0
304,56,86934,1,0
176,184,87225,2,0,B|120:224|48:208,1,130
184,280,87808,1,0
248,304,87953,1,0
288,248,88099,1,8
352,272,88245,1,0
416,240,88390,5,0
408,96,88681,1,0
408,96,88827,1,2
448,344,89118,1,0
448,344,89264,1,2
344,192,89555,1,0
272,176,89701,1,0
200,192,89847,1,0
112,304,90138,2,0,B|160:344|240:320,1,130,8|0
376,288,90720,5,0
328,112,91012,1,0
328,112,91157,1,2
440,256,91448,1,0
440,256,91594,1,0
440,256,91740,1,0
368,200,91885,5,0
176,288,92177,1,0
240,96,92468,1,0
32,128,92759,2,0,B|104:152|109:224,1,130,4|2
352,40,95381,5,0
400,216,95672,1,0
400,216,95817,1,2
464,48,96109,1,0
464,48,96254,1,0
296,128,96546,2,0,B|208:80|136:144|40:88,1,260
200,184,97419,1,8
24,232,97711,5,0
208,256,98002,1,0
208,256,98148,1,2
48,344,98439,1,0
48,344,98584,1,2
232,336,98876,2,0,B|296:312|312:368|360:360,1,130
472,216,99458,2,0,B|422:232|414:167|350:191,1,130,8|0
168,208,100041,5,0
64,56,100332,1,0
64,56,100478,1,2
248,64,100769,1,0
248,64,100914,1,0
248,64,101060,1,0
352,64,101206,2,0,B|391:255|298:332|167:343,1,390,8|4
256,208,102371,1,2
96,80,103827,5,0
72,224,104118,1,0
208,168,104410,1,0
96,80,104992,1,8
72,224,105283,1,0
208,168,105575,1,2
416,184,106157,5,0
440,328,106448,1,0
304,272,106740,1,0
416,184,107322,1,2
440,328,107614,1,0
304,272,107905,1,2
88,336,108487,5,0
64,192,108779,1,0
200,248,109070,2,2,B|453:281|464:40,1,390,0|4
336,120,110817,1,2
272,248,111109,1,0
192,128,111400,1,2
184,272,111691,2,0,B|68:295|34:182,1,195,0|0
64,144,112274,2,0,B|166:104|112:200,1,130,0|8
256,192,114021,12,8,117808
144,48,118390,5,2
400,176,119555,1,2
256,320,120429,1,4
184,64,121303,5,0
328,64,121594,1,8
400,184,121885,1,0
328,184,122031,1,8
184,184,122322,1,0
112,184,122468,1,8
168,320,122759,1,8
232,296,122905,1,8
304,304,123050,1,0
368,280,123196,1,8
312,192,123342,5,4
480,72,123633,1,0
456,216,123924,1,0
336,48,124215,2,0,B|272:16|192:96|144:48,1,195,2|8
144,192,124944,1,8
72,176,125089,1,0
216,208,125381,1,8
480,312,125672,5,2
312,192,125963,1,0
456,168,126254,1,0
336,336,126546,2,0,B|272:368|192:288|144:336,1,195,2|8
144,192,127274,1,8
72,208,127419,1,0
216,176,127711,1,8
472,40,128002,5,2
456,192,128293,1,0
368,304,128584,1,0
224,288,128876,1,2
88,336,129167,1,0
64,296,129313,2,0,B|98:290|112:256,1,65
128,216,129604,1,8
136,128,129749,5,0
56,168,130041,1,0
209,285,130332,5,2
322,225,130623,1,0
209,149,130914,1,4
188,315,131206,5,2
358,224,131497,1,0
194,121,131788,1,4
168,344,132080,5,8
362,36,132662,1,10
200,192,133245,5,4
32,312,133536,1,0
56,168,133827,1,0
176,336,134118,2,0,B|240:368|320:288|368:336,1,195,2|8
368,192,134847,1,8
440,208,134992,1,0
296,176,135283,1,8
32,72,135575,5,2
200,192,135866,1,0
56,216,136157,1,0
176,48,136448,2,0,B|240:16|320:96|368:48,1,195,2|8
368,192,137177,1,8
440,176,137322,1,0
296,208,137614,1,8
128,272,137905,5,2
232,168,138196,1,0
136,56,138487,1,0
280,64,138779,1,2
424,48,139070,1,0
448,88,139215,2,0,B|414:94|400:128,1,65
384,168,139507,1,8
376,256,139652,5,0
456,216,139944,1,0
303,285,140235,5,2
190,225,140526,1,0
303,149,140817,1,4
324,315,141109,5,2
154,224,141400,1,0
318,121,141691,1,4
344,344,141982,5,8
150,35,142565,2,0,B|94:43|94:83|142:107|191:98|198:91|246:98|302:35|454:67,1,390,4|0
352,112,152468,6,0,B|432:120|464:176,1,130,0|8
360,200,153050,2,0,B|296:232|304:312,1,130,2|0
232,232,153633,2,0,B|176:272|104:240,1,130,8|0
168,160,154215,2,0,B|232:128|296:160,2,130,8|0|0
216,64,155089,5,8
112,88,155381,2,0,B|56:144|96:208,1,130,2|0
192,232,155963,2,0,B|216:296|160:352,1,130,8|0
264,344,156546,2,0,B|336:368|384:312,2,130,8|0|0
312,256,157419,5,8
400,200,157711,2,0,B|352:144|280:160,1,130,2|0
304,56,158293,2,0,B|232:48|176:96,1,130,8|0
160,192,158876,1,8
64,144,159167,1,0
32,248,159458,1,2
32,248,159749,1,8
128,336,160041,1,0
128,336,160332,1,8
256,352,160623,1,2
384,336,160914,1,0
480,248,161206,1,2
384,160,161497,1,0
368,160,161643,1,0
352,160,161788,1,4
256,192,171109,12,8,174895
144,48,175478,6,0,B|296:16|416:48|496:160,1,390,2|0
400,176,176643,2,0,B|256:184|144:264,1,260,2|0
256,320,177516,2,0,B|362:204|352:382|488:264,1,260,4|0
328,64,178390,5,0
184,64,178681,1,8
112,184,178973,1,0
184,184,179118,1,8
328,184,179410,1,0
400,184,179555,1,8
344,320,179847,1,8
280,296,179992,1,8
208,304,180138,1,0
144,280,180283,1,8
256,48,182177,5,0
256,48,182322,1,2
136,240,182759,5,4
56,280,183050,2,0,B|90:342|168:328,1,130,0|0
448,288,183633,1,2
216,336,184070,1,0
216,192,184361,1,8
296,192,184507,1,0
296,336,184798,1,8
376,144,185089,5,2
456,104,185381,2,0,B|422:42|344:56,1,130,0|0
64,96,185963,1,2
296,48,186400,1,0
296,192,186691,1,8
216,192,186837,1,0
216,48,187128,1,8
96,336,187419,5,2
200,336,187711,1,0
256,248,188002,1,0
312,336,188293,1,0
416,336,188584,1,2
416,336,188730,1,0
416,336,188876,1,8
480,256,189167,2,0,B|446:194|368:208,1,130
303,285,189749,5,2
190,225,190041,1,0
303,149,190332,1,4
324,315,190623,5,2
154,224,190914,1,0
318,121,191206,1,4
344,344,191497,5,8
150,36,192080,1,10
376,240,192662,5,4
456,280,192953,2,0,B|422:342|344:328,1,130,0|0
64,288,193536,1,2
296,336,193973,1,0
296,192,194264,1,8
216,192,194410,1,0
216,336,194701,1,8
136,144,194992,5,2
56,104,195283,2,0,B|90:42|168:56,1,130,0|0
448,96,195866,1,2
216,48,196303,1,0
216,192,196594,1,8
296,192,196740,1,0
296,48,197031,1,8
416,336,197322,5,2
312,336,197614,1,0
256,248,197905,1,0
200,336,198196,1,0
96,336,198487,1,2
96,336,198633,1,0
96,336,198779,1,8
32,256,199070,2,0,B|66:194|144:208,1,130
209,285,199652,5,2
322,225,199944,1,0
209,149,200235,1,4
188,315,200526,5,2
358,224,200817,1,0
194,121,201109,1,4
168,344,201400,5,8
362,36,201982,1,10
136,240,202565,5,4
56,280,202856,2,0,B|90:342|168:328,1,130,0|0
448,288,203439,1,2
216,336,203876,1,0
216,192,204167,1,8
296,192,204313,1,0
296,336,204604,1,8
376,144,204895,5,2
456,104,205186,2,0,B|422:42|344:56,1,130,0|0
64,96,205769,1,2
296,48,206206,1,0
296,192,206497,1,8
216,192,206643,1,0
216,48,206934,1,8
96,336,207225,5,2
200,336,207516,1,0
256,248,207808,1,0
312,336,208099,1,0
416,336,208390,1,2
456,200,208681,6,0,B|328:152|200:200,1,260,2|0
64,304,209555,6,0,B|192:352|320:304,1,260,2|0
456,200,210429,6,0,B|392:160|328:200,1,130,8|0
56,200,211012,1,8
256,200,211303,5,4
448,40,211885,1,4
256,80,212468,5,4
256,80,212759,2,0,B|152:136|360:248|256:304,1,260,2|2
256,192,213633,12,0,218876
303,285,219458,5,2
190,225,219749,1,0
303,149,220041,1,4
324,315,220332,5,2
154,224,220623,1,0
318,121,220914,1,4
344,344,221206,5,8
150,36,221788,1,10
152,344,222371,1,6
