osu file format v9

[General]
AudioFilename: Erasure - Always - 2009 Mix.mp3
AudioLeadIn: 0
PreviewTime: 56934
Countdown: 1
SampleSet: Soft
StackLeniency: 0.7
Mode: 0
LetterboxInBreaks: 0
EpilepsyWarning: 1

[Editor]
Bookmarks: 38297,56938,76744,222371
DistanceSpacing: 1
BeatDivisor: 2
GridSize: 8

[Metadata]
Title:Always (2009 Mix)
Artist:Erasure
Creator:CheeseWarlock
Version:Harmony
Source:
Tags:robot unicorn attack adult swim internet meme

[Difficulty]
HPDrainRate:2
CircleSize:3
OverallDifficulty:2
ApproachRate:1
SliderMultiplier:0.999999999999999
SliderTickRate:2

[Events]
//Background and Video events
0,0,"Image 16.jpg"
//Break Periods
2,47614,55254
2,76740,84380
2,143348,150788
2,161988,169429
//Storyboard Layer 0 (Background)
//Storyboard Layer 1 (Fail)
//Storyboard Layer 2 (Pass)
//Storyboard Layer 3 (Foreground)
//Storyboard Sound Samples
//Background Colour Transformations
3,100,163,162,255

[TimingPoints]
19652.8596025485,582.52427184466,4,2,0,70,1,0
36546,-100,4,2,1,70,0,0
56351,-100,4,2,0,70,0,0
103536,-100,4,2,1,70,0,0
112856,-100,4,2,0,70,0,0
182759,-100,4,2,0,70,0,1

[Colours]
Combo1 : 106,6,255
Combo2 : 255,60,94
Combo3 : 255,208,23
Combo4 : 13,255,0
Combo5 : 0,191,255

[HitObjects]
192,96,19652,1,4
40,232,20817,2,2,L|192:232,1,150
440,232,23148,1,0
440,232,23730,1,8
440,232,24313,1,0
264,328,25478,2,2,L|112:328,1,150,2|4
320,96,28973,5,4
472,232,30138,2,2,L|320:232,1,150
72,232,32469,1,0
72,232,33051,1,8
72,232,33634,1,0
248,328,34799,2,2,L|400:328,1,150,2|4
112,240,37419,5,0
112,240,38002,2,2,L|320:240,1,200,2|0
376,160,39749,5,0
376,160,40332,2,2,L|168:160,1,200,2|0
112,80,42080,5,0
112,80,42663,2,2,L|320:80,1,200,2|4
408,80,44410,1,0
408,176,44992,2,0,B|408:304|312:336,1,200,0|8
184,64,56934,6,0,B|256:24|328:64,2,150,4|0|8
256,144,59264,2,0,B|408:144,1,150,0|2
408,296,61012,1,8
408,296,61594,2,0,B|256:296,1,150,0|2
256,144,63342,1,8
168,192,63924,5,2
256,64,64798,1,2
344,192,65672,1,0
344,192,66254,1,4
328,320,66837,6,0,B|256:360|184:320,2,150,0|0|8
256,240,69167,2,0,B|104:240,1,150,0|2
104,88,70915,1,8
104,88,71497,2,0,B|256:88,1,150,0|2
256,240,73245,1,8
344,192,73827,5,2
256,320,74701,1,2
168,192,75575,1,0
168,192,76157,1,4
56,56,86060,5,4
256,56,87225,2,2,L|408:56,2,150
256,160,89556,1,0
160,160,90138,1,8
64,160,90721,1,0
160,336,91886,2,2,L|312:336,2,150
456,56,95381,5,4
256,56,96546,2,2,L|104:56,2,150
256,160,98877,1,0
352,160,99459,1,8
448,160,100042,1,0
352,336,101207,2,2,L|200:336,2,150
472,248,103827,5,0
472,248,104410,2,2,L|264:248,1,200,2|0
336,168,106157,5,0
336,168,106740,2,2,L|128:168,1,200,2|0
200,88,108487,5,0
200,88,109070,2,2,L|48:88,2,150,2|4|2
176,184,111400,2,0,B|304:192|296:64,1,200,0|8
256,192,114021,12,4,118390
328,64,123342,6,0,B|256:24|184:64,2,150,4|0|8
256,144,125672,2,0,B|104:144,1,150,0|2
104,296,127420,1,8
104,296,128002,2,0,B|256:296,1,150,0|2
256,144,129750,1,8
344,192,130332,5,2
256,64,131206,1,2
168,192,132080,1,0
168,192,132662,1,4
184,320,133245,6,0,B|256:360|328:320,2,150,0|0|8
256,240,135575,2,0,B|408:240,1,150,0|2
408,88,137323,1,8
408,88,137905,2,0,B|256:88,1,150,0|2
256,240,139653,1,8
168,192,140235,5,2
256,320,141109,1,2
344,192,141983,1,0
256,144,142565,1,4
256,40,143148,1,0
456,320,152468,6,0,B|456:120,1,200
360,120,154215,1,8
360,120,154798,2,0,B|360:320,1,200
256,320,156546,1,8
256,320,157128,2,0,B|292:262|208:200|256:128,1,200,0|2
152,128,158876,1,8
56,128,159458,5,0
112,48,160041,1,8
208,48,160623,2,0,B|256:16|304:48,1,99.9999999999999,0|8
400,48,161788,1,4
256,192,171109,12,4,175478
256,64,180429,5,0
328,64,182759,6,0,B|256:24|184:64,1,150,4|0
256,192,184507,1,0
256,192,185089,2,0,B|200:136|120:144,1,150,0|2
104,296,186837,1,0
104,296,187419,1,0
256,296,188293,1,0
408,296,189166,1,0
344,192,189749,5,2
256,64,190623,1,2
168,192,191497,1,0
168,192,192079,1,4
184,320,192662,6,0,B|256:360|328:320,1,150,4|0
256,192,194410,1,0
256,192,194992,2,0,B|312:248|392:240,1,150,0|2
408,88,196740,1,0
408,88,197322,1,0
256,88,198196,1,0
104,88,199069,1,0
168,192,199652,5,2
256,320,200526,1,2
344,192,201400,1,0
344,192,201982,1,4
400,112,202565,6,2,B|256:32|112:112,1,300
112,208,204895,6,2,B|256:288|400:208,1,300
400,312,207225,5,0
256,344,208099,1,0
112,312,208973,1,8
168,192,209555,5,2
256,72,210429,1,2
344,192,211303,1,0
256,240,211885,1,4
344,192,212468,1,0
256,192,213050,12,4,218002
344,192,219458,5,2
256,72,220332,1,2
168,192,221206,1,0
256,240,221788,1,2
344,192,222371,1,4
