osu file format v12

[General]
AudioFilename: Epik High - 1 Minute 1 Second.mp3
AudioLeadIn: 0
PreviewTime: 114029
Countdown: 0
SampleSet: Soft
StackLeniency: 0.7
Mode: 0
LetterboxInBreaks: 1

[Editor]
Bookmarks: 28384,59448,65545,77835,89448,114997,139771,164545,189319,214094,226481,238868
DistanceSpacing: 0.6
BeatDivisor: 4
GridSize: 4

[Metadata]
Title:1 Minute 1 Second
TitleUnicode:1분 1초
Artist:Epik High ft. Taru
ArtistUnicode:에픽하이 ft. 타루
Creator:Glass
Version:Hard
Source:
Tags:Lovescream Glasslake
BeatmapID:188318
BeatmapSetID:63834

[Difficulty]
HPDrainRate:7
CircleSize:4
OverallDifficulty:7
ApproachRate:8
SliderMultiplier:1.6
SliderTickRate:1

[Events]
//Background and Video events
0,0,"BG.jpg",0,0
//Break Periods
2,59552,64795
2,214390,225827
//Storyboard Layer 0 (Background)
//Storyboard Layer 1 (Fail)
//Storyboard Layer 2 (Pass)
//Storyboard Layer 3 (Foreground)
//Storyboard Sound Samples
//Background Colour Transformations
3,100,0,0,0

[TimingPoints]
26836,387.096774193548,4,2,1,50,1,0
65448,-200,4,2,1,25,0,0
77835,-200,4,2,1,50,0,0
89448,-100,4,2,1,50,0,0
113448,-200,4,2,1,50,0,0
114513,-100,4,2,1,50,0,0
115094,-100,4,2,1,50,0,1
126900,-100,4,2,1,30,0,1
127094,-100,4,2,1,50,0,1
139868,-100,4,2,1,50,0,0
187771,-200,4,2,1,50,0,0
188545,-100,4,2,1,50,0,0
189416,-100,4,2,1,50,0,1
214190,-100,4,2,1,50,0,0
226481,-100,4,2,1,50,0,0
226965,-100,4,2,1,35,0,0
227739,-100,4,2,1,30,0,0
228513,-100,4,2,1,25,0,0
229287,-100,4,2,1,50,0,0
230061,-100,4,2,1,35,0,0
230835,-100,4,2,1,30,0,0
231610,-100,4,2,1,25,0,0
232384,-100,4,2,1,50,0,0
233158,-100,4,2,1,35,0,0
233932,-100,4,2,1,30,0,0
234706,-100,4,2,1,25,0,0
235190,-100,4,2,1,50,0,0
236061,-100,4,2,1,20,0,0
237223,-100,4,2,1,25,0,0
237706,-100,4,2,1,35,0,0
238094,-100,4,2,1,45,0,0
238481,-100,4,2,1,50,0,0
238674,-100,4,2,1,50,0,0
238965,-100,4,2,1,50,0,1
244674,-100,4,2,1,50,0,1
245158,-100,4,2,1,50,0,1
250965,-100,4,2,1,50,0,1
251352,-100,4,2,1,50,0,1
257158,-100,4,2,1,50,0,1
257545,-100,4,2,1,50,0,1
263739,-100,4,2,1,50,0,0

[Colours]
Combo1 : 255,255,255
Combo2 : 0,128,128
Combo3 : 0,128,192
Combo4 : 128,255,255
Combo5 : 128,0,128
Combo6 : 255,128,192
Combo7 : 128,128,192

[HitObjects]
364,232,28384,5,4,0:0:0:0:
360,240,28771,2,0,P|376:276|400:316,1,80,8|8,0:0|0:0,0:0:0:0:
308,360,29158,2,0,B|236:340|224:384|148:352,1,160,0|8,0:0|0:0,0:0:0:0:
56,376,29739,1,0,0:0:0:0:
72,284,29932,2,0,B|61:248|65:204,1,80,8|0,0:0|0:0,0:0:0:0:
164,144,30319,2,0,B|174:179|170:223,1,80,8|8,0:0|0:0,0:0:0:0:
272,248,30706,1,2,0:0:0:0:
292,152,30900,1,10,0:0:0:0:
380,188,31094,2,0,B|418:176|458:176,1,80,10|0,0:0|0:0,0:0:0:0:
456,80,31481,2,0,B|404:84|372:92|372:92|348:60|316:28,1,160,10|8,0:0|0:0,0:0:0:0:
216,52,32061,5,8,0:0:0:0:
127,81,32254,1,0,0:0:0:0:
127,175,32448,1,0,0:0:0:0:
217,204,32641,1,8,0:0:0:0:
272,128,32835,1,8,0:0:0:0:
0,168,33223,1,8,0:0:0:0:
8,256,33416,1,8,0:0:0:0:
16,344,33610,1,8,0:0:0:0:
16,344,33803,6,0,B|88:324|100:368|176:336,1,160,0|8,0:0|0:0,0:0:0:0:
256,376,34384,1,0,0:0:0:0:
344,336,34577,2,0,B|383:325|424:328,1,80,10|0,0:0|0:0,0:0:0:0:
416,240,34965,1,8,0:0:0:0:
416,240,35158,2,0,B|376:212|364:176|372:128|396:100,1,160,8|0,0:0|0:0,0:0:0:0:
472,164,35739,1,8,0:0:0:0:
284,192,35932,1,0,0:0:0:0:
472,164,36126,2,0,B|512:192|524:228|516:276|492:304,1,160,8|8,0:0|0:0,0:0:0:0:
400,336,36706,2,0,B|360:328|320:332,1,80,8|2,0:0|0:0,0:0:0:0:
224,344,37094,1,2,0:0:0:0:
212,248,37287,1,8,0:0:0:0:
16,144,37674,6,0,B|52:132|96:136,1,80,10|0,0:0|0:0,0:0:0:0:
252,84,38061,2,0,B|216:96|172:92,1,80,8|10,0:0|0:0,0:0:0:0:
88,124,38448,1,0,0:0:0:0:
76,244,38642,1,8,0:0:0:0:
196,264,38835,2,0,B|276:300|348:244,1,160,10|10,0:0|0:0,0:0:0:0:
448,272,39416,2,0,B|436:232|440:192,1,80,0|8,0:0|0:0,0:0:0:0:
328,48,39803,6,0,B|340:88|336:128,1,80,10|0,0:0|0:0,0:0:0:0:
240,104,40190,1,8,0:0:0:0:
336,128,40384,2,0,B|408:108|420:152|496:120,2,160,10|10|8,0:0|0:0|0:0,0:0:0:0:
292,216,41352,1,8,0:0:0:0:
204,180,41545,2,0,B|117:153|61:226,1,160,0|8,0:0|0:0,0:0:0:0:
8,132,42126,5,0,0:0:0:0:
8,132,42319,2,0,B|20:92|12:52,1,80,8|0,0:0|0:0,0:0:0:0:
120,16,42706,2,0,B|108:56|116:96,1,80,8|8,0:0|0:0,0:0:0:0:
219,105,43094,1,2,0:0:0:0:
218,257,43287,1,10,0:0:0:0:
308,134,43481,1,10,0:0:0:0:
163,181,43674,1,0,0:0:0:0:
308,228,43868,2,0,B|395:255|452:188,1,160,10|8,0:0|0:0,0:0:0:0:
473,72,44448,5,8,0:0:0:0:
405,140,44642,1,0,0:0:0:0:
311,120,44835,1,0,0:0:0:0:
216,100,45029,1,8,0:0:0:0:
128,36,45223,6,0,B|120:116,1,80,8|0,0:0|0:0,0:0:0:0:
8,192,45610,2,0,B|4:112,1,80,8|8,0:0|0:0,0:0:0:0:
112,216,45997,1,8,0:0:0:0:
112,216,46190,2,0,B|200:200|268:240,1,160,0|8,0:0|0:0,0:0:0:0:
360,268,46771,1,0,0:0:0:0:
376,176,46965,2,0,B|368:96,2,80,10|0|8,0:0|0:0|0:0,0:0:0:0:
468,144,47545,2,0,B|476:192|456:232|456:232|480:252|500:296,1,160,8|0,0:0|0:0,0:0:0:0:
404,312,48126,6,0,B|364:312|324:328,1,80,8|0,0:0|0:0,0:0:0:0:
224,220,48513,2,0,B|200:304|248:376,2,160,8|8|2,0:0|0:0|0:0,0:0:0:0:
200,136,49481,1,10,0:0:0:0:
172,52,49674,1,10,0:0:0:0:
48,160,50061,6,0,P|35:199|28:240,1,80,10|0,0:0|0:0,0:0:0:0:
28,236,50448,1,0,0:0:0:0:
156,364,50641,2,0,P|179:292|187:208,1,160,10|8,0:0|0:0,0:0:0:0:
288,104,51223,2,0,L|300:184,1,80,10|0,0:0|0:0,0:0:0:0:
300,184,51610,2,0,B|348:180|384:192|384:192|412:168|452:152,1,160,10|8,0:0|0:0,0:0:0:0:
328,276,52190,2,8,B|280:280|244:268|244:268|216:292|176:308,1,160,8|0,0:0|0:0,0:0:0:0:
88,264,52771,1,8,0:0:0:0:
92,268,53158,1,2,0:0:0:0:
202,359,55481,5,2,0:0:0:0:
217,272,55674,1,0,0:0:0:0:
284,328,55868,1,2,0:0:0:0:
280,324,56255,1,2,0:0:0:0:
374,143,58577,5,2,0:0:0:0:
441,199,58771,1,0,0:0:0:0:
456,112,58965,1,2,0:0:0:0:
452,116,59352,1,2,0:0:0:0:
96,100,65545,5,0,0:0:0:0:
92,104,67094,2,0,P|112:232|44:328,1,240,8|0,0:0|0:0,0:0:0:0:
188,276,68642,2,0,P|316:256|412:324,1,240,8|0,0:0|0:0,0:0:0:0:
476,248,70190,5,8,0:0:0:0:
464,160,70965,1,0,0:0:0:0:
452,72,71739,1,8,0:0:0:0:
456,68,73287,6,0,P|436:196|504:292,1,240,8|0,0:0|0:0,0:0:0:0:
328,360,74836,2,0,P|348:232|280:136,1,240,8|0,0:0|0:0,0:0:0:0:
308,60,76384,1,8,0:0:0:0:
496,76,77932,6,0,B|492:116|492:116|508:156,1,80,2|0,0:0|0:0,0:0:0:0:
456,212,78513,2,0,B|416:212|376:224,1,80
308,192,79094,1,0,0:0:0:0:
312,188,79481,2,0,B|168:188|156:332,1,240,2|0,0:0|0:0,0:0:0:0:
40,304,81029,6,0,B|32:224,1,80,2|0,0:0|0:0,0:0:0:0:
144,156,81610,2,0,B|136:236,1,80
52,112,82190,1,0,0:0:0:0:
56,116,82577,1,2,0:0:0:0:
240,52,84126,6,0,B|284:52|320:44,1,80,2|0,0:0|0:0,0:0:0:0:
472,92,84706,2,0,B|428:92|392:100,1,80
308,132,85287,1,0,0:0:0:0:
312,128,85674,2,0,B|239:252|358:335,1,240,2|0,0:0|0:0,0:0:0:0:
484,268,87223,1,2,0:0:0:0:
480,264,88771,1,2,0:0:0:0:
312,320,89352,5,2,0:0:0:0:
224,332,89545,2,0,L|144:324,1,80,8|0,0:0|0:0,0:0:0:0:
56,332,89932,1,2,0:0:0:0:
60,336,90319,6,0,P|88:264|76:184,1,160,8|0,0:0|0:0,0:0:0:0:
56,88,90900,1,0,0:0:0:0:
224,124,91094,2,0,P|188:112|146:114,1,80,8|0,0:0|0:0,0:0:0:0:
180,248,91481,2,0,P|216:260|257:257,1,80,0|8,0:0|0:0,0:0:0:0:
392,360,91868,2,0,P|408:284|376:208,1,160,0|8,0:0|0:0,0:0:0:0:
308,124,92448,1,0,0:0:0:0:
372,216,92642,2,0,L|454:221,1,80,8|0,0:0|0:0,0:0:0:0:
304,132,93029,2,0,L|144:120,2,160,8|8|0,0:0|0:0|0:0,0:0:0:0:
392,124,93997,5,2,0:0:0:0:
480,116,94190,1,8,0:0:0:0:
200,32,94577,2,0,B|208:112,1,80,0|10,0:0|0:0,0:0:0:0:
96,148,94965,2,0,B|104:68,1,80,0|10,0:0|0:0,0:0:0:0:
8,104,95352,1,10,0:0:0:0:
84,312,95739,6,0,B|112:300|112:300|164:308,1,80,8|0,0:0|0:0,0:0:0:0:
344,232,96126,2,0,B|312:256|312:256|184:232,1,160,8|10,0:0|0:0,0:0:0:0:
108,220,96706,1,0,0:0:0:0:
104,216,97094,1,0,0:0:0:0:
164,152,97287,2,0,B|178:109|176:72,1,80,8|0,0:0|0:0,0:0:0:0:
56,120,97674,2,0,B|42:163|44:200,1,80,0|8,0:0|0:0,0:0:0:0:
164,152,98061,2,0,B|236:132|248:176|324:144,1,160,0|8,0:0|0:0,0:0:0:0:
504,160,98642,1,0,0:0:0:0:
408,168,98836,2,0,B|400:88,1,80,8|0,0:0|0:0,0:0:0:0:
504,160,99223,2,0,B|496:240,1,80,8|0,0:0|0:0,0:0:0:0:
396,280,99610,6,0,B|324:248|236:264,1,160,8|0,0:0|0:0,0:0:0:0:
80,152,100384,2,0,B|164:167|236:135,1,160,8|0,0:0|0:0,0:0:0:0:
276,252,100965,2,0,B|346:203|374:129,1,160,8|8,0:0|0:0,0:0:0:0:
480,164,101545,2,0,B|476:84,1,80,8|0,0:0|0:0,0:0:0:0:
404,32,101932,1,8,0:0:0:0:
316,40,102126,1,0,0:0:0:0:
228,48,102319,1,2,0:0:0:0:
232,44,102706,6,0,B|152:72|80:20,1,160,8|0,0:0|0:0,0:0:0:0:
44,100,103287,1,0,0:0:0:0:
60,192,103481,1,8,0:0:0:0:
144,172,103674,1,0,0:0:0:0:
224,208,103868,1,0,0:0:0:0:
256,288,104061,1,8,0:0:0:0:
376,312,104255,2,0,B|456:300,1,80,0|8,0:0|0:0,0:0:0:0:
484,196,104642,2,0,B|404:208,1,80,8|0,0:0|0:0,0:0:0:0:
308,148,105029,2,0,B|261:218|285:302,1,160,8|8,0:0|0:0,0:0:0:0:
64,364,105803,6,0,B|111:294|87:210,1,160,8|0,0:0|0:0,0:0:0:0:
12,164,106384,1,2,0:0:0:0:
24,76,106577,1,8,0:0:0:0:
236,136,106965,2,0,B|244:216,1,80,2|8,0:0|0:0,0:0:0:0:
400,264,107352,2,0,B|320:272,1,80,2|8,0:0|0:0,0:0:0:0:
160,176,107739,2,0,B|176:336,2,160,8|8|2,0:0|0:0|0:0,0:0:0:0:
164,172,108900,5,8,0:0:0:0:
180,84,109094,1,0,0:0:0:0:
94,69,109287,1,0,0:0:0:0:
78,157,109481,1,0,0:0:0:0:
164,172,109674,2,0,B|204:172|244:180,1,80,8|0,0:0|0:0,0:0:0:0:
368,108,110061,2,0,B|328:108|288:100,1,80,0|8,0:0|0:0,0:0:0:0:
448,44,110448,2,0,B|484:128|424:200,1,160,0|8,0:0|0:0,0:0:0:0:
340,248,111029,1,0,0:0:0:0:
340,248,111223,2,0,B|344:328,1,80,8|0,0:0|0:0,0:0:0:0:
416,360,111610,2,0,B|346:313|262:337,1,160,8|10,0:0|0:0,0:0:0:0:
64,352,112384,5,0,0:0:0:0:
52,264,112577,1,2,0:0:0:0:
192,148,112965,5,0,0:3:0:0:
204,236,113158,1,2,0:0:0:0:
372,176,113545,6,0,L|364:56,1,120,2|2,0:0|0:0,0:0:0:0:
448,40,114319,1,0,0:0:0:0:
448,40,114706,6,0,B|456:80|480:120,1,80,2|0,0:0|0:0,0:0:0:0:
488,204,115094,2,0,B|416:184|404:228|328:196,1,160,8|8,0:0|0:0,0:0:0:0:
330,197,115674,1,8,0:0:0:0:
268,276,115868,2,0,P|212:208|180:144,1,160,0|8,0:0|0:0,0:0:0:0:
172,48,116448,1,0,0:0:0:0:
80,108,116642,2,0,P|44:116|0:120,1,80,8|0,0:0|0:0,0:0:0:0:
180,144,117029,2,0,P|216:136|260:132,1,80,8|8,0:0|0:0,0:0:0:0:
368,112,117416,6,0,P|380:72|376:32,1,80,2|8,0:0|0:0,0:0:0:0:
252,124,117803,2,0,P|240:164|244:204,1,80,8|0,0:0|0:0,0:0:0:0:
332,368,118190,2,0,B|380:296|356:215,1,160,10|8,0:0|0:0,0:0:0:0:
244,256,118771,6,0,P|204:264|164:256,1,80,8|0,0:0|0:0,0:0:0:0:
124,156,119158,2,0,P|164:148|204:156,1,80,0|8,0:0|0:0,0:0:0:0:
356,100,119545,2,0,B|364:180,1,80,8|0,0:0|0:0,0:0:0:0:
476,256,119932,2,0,B|480:176,1,80,8|8,0:0|0:0,0:0:0:0:
360,280,120319,2,0,B|278:245|211:300,1,160,8|0,0:0|0:0,0:0:0:0:
140,368,120900,6,0,B|195:301|160:219,1,160,8|10,0:0|0:0,0:0:0:0:
64,232,121481,1,0,0:0:0:0:
52,136,121674,1,8,0:0:0:0:
148,124,121868,2,0,B|220:104|232:148|308:116,1,160,8|0,0:0|0:0,0:0:0:0:
396,172,122448,2,0,B|408:136|408:92,1,80,8|0,0:0|0:0,0:0:0:0:
284,208,122836,2,0,B|272:288|304:364,1,160,8|8,0:0|0:0,0:0:0:0:
408,272,123416,1,8,0:0:0:0:
284,208,123610,2,0,B|244:208|204:216,1,80,2|2,0:0|0:0,0:0:0:0:
408,272,123997,2,0,B|420:192|388:116,1,160,8|10,0:0|0:0,0:0:0:0:
336,44,124577,5,0,0:0:0:0:
252,72,124771,1,8,0:0:0:0:
168,100,124965,1,10,0:0:0:0:
100,48,125158,1,0,0:0:0:0:
84,136,125352,1,0,0:0:0:0:
84,136,125448,1,0,0:0:0:0:
84,136,125545,2,0,B|72:176|48:212,1,80,10|0,0:0|0:0,0:0:0:0:
92,288,125932,1,10,0:0:0:0:
180,276,126126,1,0,0:0:0:0:
180,276,126223,1,0,0:0:0:0:
180,276,126319,1,8,0:0:0:0:
268,300,126513,1,10,0:0:0:0:
356,288,126706,6,0,B|400:240|396:176,1,120,8|0,0:0|0:0,0:0:0:0:
424,184,127094,2,0,B|407:101,1,80,10|0,0:0|0:0,0:0:0:0:
168,152,127481,2,0,B|250:187|317:132,1,160,10|8,0:0|0:0,0:0:0:0:
340,36,128061,1,8,0:0:0:0:
408,104,128255,2,0,B|428:176|384:188|416:264,1,160,0|8,0:0|0:0,0:0:0:0:
504,212,128836,5,0,0:0:0:0:
448,356,129029,2,0,B|368:348,1,80,8|0,0:0|0:0,0:0:0:0:
376,216,129416,2,0,B|296:224,1,80,8|8,0:0|0:0,0:0:0:0:
224,164,129803,2,0,P|232:124|232:84,1,80,2|10,0:0|0:0,0:0:0:0:
96,144,130190,2,0,P|88:184|88:224,1,80,8|0,0:0|0:0,0:0:0:0:
200,272,130577,2,0,P|280:284|360:256,1,160,10|8,0:0|0:0,0:0:0:0:
480,76,131158,5,8,0:0:0:0:
476,164,131352,1,0,0:0:0:0:
476,164,131448,1,0,0:0:0:0:
476,164,131545,1,0,0:0:0:0:
472,252,131739,1,8,0:0:0:0:
392,304,131932,2,0,B|312:296,1,80,8|0,0:0|0:0,0:0:0:0:
272,176,132319,2,0,B|352:184,1,80,8|8,0:0|0:0,0:0:0:0:
432,68,132706,1,8,0:0:0:0:
432,68,132900,6,0,B|487:135|452:217,2,160,0|8|10,0:0|0:0|0:0,0:0:0:0:
352,28,133868,1,0,0:0:0:0:
264,44,134061,1,8,0:0:0:0:
176,60,134255,2,0,B|125:72|95:86|95:86|66:59|29:33,1,160,8|0,0:0|0:0,0:0:0:0:
12,140,134836,2,0,B|28:180|20:220,1,80,8|0,0:0|0:0,0:0:0:0:
128,268,135223,2,0,B|112:228|120:188,1,80,8|0,0:0|0:0,0:0:0:0:
216,224,135610,1,8,0:0:0:0:
312,232,135803,1,8,0:0:0:0:
392,176,135997,1,2,0:0:0:0:
400,80,136190,1,10,0:0:0:0:
492,140,136384,2,0,B|480:300,2,160,10|10|8,0:0|0:0|0:0,0:0:0:0:
400,80,137352,6,0,B|360:80|320:72,1,80,8|0,0:0|0:0,0:0:0:0:
156,100,137739,2,0,B|196:100|236:108,1,80,8|8,0:0|0:0,0:0:0:0:
284,200,138126,1,0,0:0:0:0:
284,200,138319,2,0,B|212:220|200:176|124:208,1,160,8|8,0:0|0:0,0:0:0:0:
56,292,138900,2,0,B|1:225|36:143,1,160,8|8,0:0|0:0,0:0:0:0:
272,212,139481,2,0,B|327:279|292:361,1,160,8|8,0:0|0:0,0:0:0:0:
292,360,140061,5,0,0:0:0:0:
200,332,140255,2,0,L|120:344,1,80
292,360,140642,2,0,L|372:348,1,80,8|0,0:0|0:0,0:0:0:0:
488,288,141029,2,0,P|489:329|480:368,1,80,0|8,0:0|0:0,0:0:0:0:
396,256,141416,2,0,P|387:218|388:177,1,80,0|8,0:0|0:0,0:0:0:0:
300,236,141803,1,8,0:0:0:0:
208,216,141997,1,0,0:0:0:0:
184,312,142190,2,0,B|100:348|28:288,2,160,8|8|10,0:0|0:0|0:0,0:0:0:0:
288,332,143158,6,0,P|324:324|368:328,1,80
460,352,143545,1,0,0:0:0:0:
500,264,143739,2,0,L|512:176,1,80,8|0,0:0|0:0,0:0:0:0:
392,112,144126,2,0,L|402:191,1,80,0|8,0:0|0:0,0:0:0:0:
284,132,144513,1,0,0:0:0:0:
192,108,144706,1,8,0:0:0:0:
216,200,144900,2,0,P|192:272|148:344,2,160,8|8|0,0:0|0:0|0:0,0:0:0:0:
80,272,145868,5,0,0:0:0:0:
80,272,145965,1,0,0:0:0:0:
80,272,146061,2,0,B|-4:260,1,80,10|0,0:0|0:0,0:0:0:0:
12,172,146448,2,0,B|2:133|3:92,1,80
108,196,146836,2,0,B|132:280|80:348,1,160,0|0,0:0|0:0,0:0:0:0:
204,304,147416,2,0,B|288:280|360:320,1,160,8|0,0:0|0:0,0:0:0:0:
460,352,147997,2,0,B|468:272,1,80,8|0,0:0|0:0,0:0:0:0:
364,152,148384,6,0,B|372:232,1,80,8|0,0:0|0:0,0:0:0:0:
252,184,148771,1,8,0:0:0:0:
164,204,148965,1,0,0:0:0:0:
164,204,149061,1,0,0:0:0:0:
164,204,149158,1,10,0:0:0:0:
144,116,149352,1,0,0:0:0:0:
232,96,149545,2,0,B|312:104,1,80
392,189,149932,2,0,B|336:122|372:40,1,160,8|0,0:0|0:0,0:0:0:0:
492,144,150513,6,0,P|503:182|503:222,1,80,8|0,0:0|0:0,0:0:0:0:
420,284,150900,1,8,0:0:0:0:
328,244,151094,2,0,P|316:205|316:165,1,80,8|0,0:0|0:0,0:0:0:0:
448,212,151481,2,0,B|479:294|423:361,1,160,8|0,0:0|0:0,0:0:0:0:
328,328,152061,5,0,0:0:0:0:
328,328,152158,1,0,0:0:0:0:
328,328,152255,2,0,B|248:320,1,80,10|0,0:0|0:0,0:0:0:0:
204,196,152642,2,0,B|284:204,1,80,0|0,0:0|0:0,0:0:0:0:
368,88,153029,2,0,B|408:160|380:244,1,160,8|0,0:0|0:0,0:0:0:0:
264,120,153610,2,0,P|252:80|248:40,1,80,8|0,0:0|0:0,0:0:0:0:
248,44,153997,1,0,0:0:0:0:
148,112,154190,2,0,P|160:152|164:192,1,80,8|0,0:0|0:0,0:0:0:0:
164,192,154577,2,0,B|92:172|80:216|4:184,1,160,8|8,0:0|0:0,0:0:0:0:
56,276,155158,5,0,0:0:0:0:
56,276,155255,1,0,0:0:0:0:
56,276,155352,2,0,B|44:316|44:356,1,80,10|0,0:0|0:0,0:0:0:0:
148,324,155739,2,0,B|160:284|160:244,1,80,0|0,0:0|0:0,0:0:0:0:
252,268,156126,2,0,P|332:248|412:260,1,160,8|0,0:0|0:0,0:0:0:0:
488,208,156706,2,0,L|500:124,1,80,8|0,0:0|0:0,0:0:0:0:
499,128,157094,1,8,0:0:0:0:
352,172,157287,2,0,B|332:258|372:330,2,160,8|8|0,0:0|0:0|0:0,0:0:0:0:
344,80,158255,1,0,0:0:0:0:
256,128,158448,6,0,B|216:128|176:120,1,80,10|0,0:0|0:0,0:0:0:0:
24,52,158836,2,0,B|64:52|104:60,1,80
176,120,159223,1,0,0:0:0:0:
176,120,159610,5,0,0:0:0:0:
220,204,159803,1,8,0:0:0:0:
228,228,159900,1,0,0:0:0:0:
236,252,159997,2,0,L|228:336,1,80,0|8,0:0|0:0,0:0:0:0:
336,324,160384,2,0,B|376:336|416:328,1,80,8|0,0:0|0:0,0:0:0:0:
232,360,160771,2,0,B|158:329|74:345,1,160,8|8,0:0|0:0,0:0:0:0:
0,280,161352,5,0,0:0:0:0:
0,280,161448,1,0,0:0:0:0:
0,280,161545,1,10,0:0:0:0:
8,192,161739,1,0,0:0:0:0:
8,192,161836,1,0,0:0:0:0:
8,192,161932,1,0,0:0:0:0:
16,104,162126,1,0,0:0:0:0:
92,152,162319,2,0,B|175:187|242:131,1,160,8|0,0:0|0:0,0:0:0:0:
348,188,162900,1,8,0:0:0:0:
440,48,163094,2,0,B|452:88|452:128,1,80,2|8,0:0|0:0,0:0:0:0:
348,188,163481,2,0,B|336:148|337:110,1,80,8|0,0:0|0:0,0:0:0:0:
448,220,163868,2,0,B|483:302|428:369,1,160,8|10,0:0|0:0,0:0:0:0:
284,292,164448,5,0,0:0:0:0:
264,204,164642,1,10,0:0:0:0:
352,184,164836,1,0,0:0:0:0:
372,272,165029,1,8,0:0:0:0:
280,308,165223,1,10,0:0:0:0:
272,316,165319,1,0,0:0:0:0:
264,324,165416,2,0,B|224:312|184:316,1,80
36,260,165803,2,0,B|76:272|116:268,1,80,10|0,0:0|0:0,0:0:0:0:
192,232,166190,1,10,0:0:0:0:
228,152,166384,1,0,0:0:0:0:
204,68,166577,1,8,0:0:0:0:
144,132,166771,5,10,0:0:0:0:
228,152,166965,1,0,0:0:0:0:
308,116,167158,1,8,0:0:0:0:
308,116,167255,1,0,0:0:0:0:
308,116,167352,1,10,0:0:0:0:
340,36,167545,1,0,0:0:0:0:
396,104,167739,6,0,P|436:104|476:96,1,80,10|0,0:0|0:0,0:0:0:0:
500,120,168029,1,0,0:0:0:0:
500,120,168126,1,8,0:0:0:0:
492,216,168319,1,10,0:0:0:0:
380,208,168513,2,0,L|368:292,1,80
264,336,168900,2,0,L|252:252,1,80,10|0,0:0|0:0,0:0:0:0:
136,272,169287,6,2,B|96:260|56:264,1,80,10|8,0:0|0:0,0:0:0:0:
40,248,169577,1,0,0:0:0:0:
40,248,169674,1,8,0:0:0:0:
228,208,169868,2,0,B|298:250|382:222,1,160,10|8,0:0|0:0,0:0:0:0:
468,168,170448,1,10,0:0:0:0:
512,256,170642,5,0,0:0:0:0:
512,256,170739,1,0,0:0:0:0:
512,256,170835,2,0,B|500:336,1,80,10|0,0:0|0:0,0:0:0:0:
416,288,171223,1,8,0:0:0:0:
348,348,171417,1,8,0:0:0:0:
330,263,171610,1,0,0:0:0:0:
257,214,171804,1,0,0:0:0:0:
171,219,171997,1,8,0:0:0:0:
104,276,172190,1,0,0:0:0:0:
84,192,172384,6,0,B|68:152|60:116,1,80,10|0,0:0|0:0,0:0:0:0:
108,32,172771,1,8,0:0:0:0:
236,144,172965,2,0,B|240:228|216:304,1,160,10|8,0:0|0:0,0:0:0:0:
220,320,173448,5,0,0:0:0:0:
224,340,173545,1,10,0:0:0:0:
312,328,173739,1,0,0:0:0:0:
396,356,173932,1,10,0:0:0:0:
484,340,174126,2,0,B|496:260,1,80,0|8,0:0|0:0,0:0:0:0:
488,172,174513,1,8,0:0:0:0:
480,84,174706,1,0,0:0:0:0:
476,80,175287,5,0,0:0:0:0:
408,136,175481,2,0,B|368:144|328:140,1,80,10|0,0:0|0:0,0:0:0:0:
173,74,175868,2,0,B|213:66|253:70,1,80,8|10,0:0|0:0,0:0:0:0:
208,192,176255,1,0,0:0:0:0:
121,183,176448,1,8,0:0:0:0:
33,175,176642,1,10,0:0:0:0:
68,256,176836,5,0,0:0:0:0:
72,276,176932,1,0,0:0:0:0:
76,296,177029,2,0,B|72:336|84:376,1,80,10|0,0:0|0:0,0:0:0:0:
196,296,177416,2,0,B|200:256|188:216,1,80,8|10,0:0|0:0,0:0:0:0:
192,196,177706,1,0,0:0:0:0:
196,176,177803,1,0,0:0:0:0:
208,72,177997,1,0,0:0:0:0:
312,84,178190,1,10,0:0:0:0:
300,188,178384,1,0,0:0:0:0:
196,176,178577,2,0,B|116:184,1,80,10|0,0:0|0:0,0:0:0:0:
116,183,178965,2,0,B|103:144|100:104,1,80,8|10,0:0|0:0,0:0:0:0:
288,204,179352,2,0,B|292:288|260:360,1,160,10|10,0:0|0:0,0:0:0:0:
168,340,179932,5,0,0:0:0:0:
168,340,180029,1,0,0:0:0:0:
168,340,180126,1,10,0:0:0:0:
80,348,180319,1,0,0:0:0:0:
80,348,180416,1,0,0:0:0:0:
80,348,180513,1,8,0:0:0:0:
30,250,180706,1,10,0:0:0:0:
117,255,180900,1,0,0:0:0:0:
189,206,181093,1,0,0:0:0:0:
208,120,181287,1,10,0:0:0:0:
276,184,181481,1,0,0:0:0:0:
384,216,181674,6,0,B|388:176|376:136,1,80,8|10,0:0|0:0,0:0:0:0:
276,184,182061,2,0,B|272:224|284:264,1,80,10|0,0:0|0:0,0:0:0:0:
224,328,182448,2,0,B|252:352|300:360|336:348|364:308,1,160,0|10,0:0|0:0,0:0:0:0:
452,328,183029,1,0,0:0:0:0:
472,244,183223,1,10,0:0:0:0:
384,224,183416,2,0,B|344:196|332:160|340:112|364:84,1,160,0|10,0:0|0:0,0:0:0:0:
440,148,183997,1,8,0:0:0:0:
252,176,184190,1,0,0:0:0:0:
440,148,184384,2,0,B|464:176|480:220,1,80,10|0,0:0|0:0,0:0:0:0:
364,308,184771,2,0,B|292:288|280:332|204:300,1,160,10|10,0:0|0:0,0:0:0:0:
148,376,185352,2,0,B|184:294|128:227,1,160,10|0,0:0|0:0,0:0:0:0:
56,176,185932,1,8,0:0:0:0:
68,84,186126,1,0,0:0:0:0:
68,84,186319,5,10,0:0:0:0:
240,124,186706,1,0,0:0:0:0:
228,36,186900,1,2,0:0:0:0:
400,112,187287,1,0,0:0:0:0:
388,200,187481,1,2,0:0:0:0:
468,328,187868,2,0,B|408:308|404:340|348:316,1,120,2|2,0:0|0:0,0:0:0:0:
244,292,188642,6,0,B|164:304,1,80
184,176,189029,2,0,B|268:164,1,80,2|0,0:0|0:0,0:0:0:0:
344,132,189416,2,0,B|424:152|496:188,1,160,10|8,0:0|0:0,0:0:0:0:
476,284,189997,1,8,0:0:0:0:
384,264,190190,2,0,B|312:244|300:288|224:256,1,160,0|8,0:0|0:0,0:0:0:0:
116,140,190771,5,0,0:0:0:0:
116,140,190965,2,0,P|128:180|124:220,1,80,8|0,0:0|0:0,0:0:0:0:
72,336,191352,2,0,P|112:324|152:328,1,80,8|8,0:0|0:0,0:0:0:0:
304,248,191739,2,0,P|264:260|224:256,1,80,2|10,0:0|0:0,0:0:0:0:
308,152,192126,1,10,0:0:0:0:
400,132,192319,1,0,0:0:0:0:
452,212,192513,2,0,P|456:292|428:372,1,160,10|8,0:0|0:0,0:0:0:0:
408,340,192997,5,0,0:0:0:0:
408,340,193094,1,8,0:0:0:0:
344,244,193287,1,0,0:0:0:0:
248,252,193481,1,0,0:0:0:0:
168,196,193674,1,8,0:0:0:0:
176,100,193868,6,0,P|136:99|96:108,1,80,8|0,0:0|0:0,0:0:0:0:
260,152,194255,2,0,P|300:153|340:144,1,80,8|8,0:0|0:0,0:0:0:0:
444,124,194642,1,8,0:0:0:0:
460,228,194836,2,0,P|468:288|444:348,1,120
448,364,195223,1,8,0:0:0:0:
380,276,195416,5,0,0:0:0:0:
380,276,195513,1,0,0:0:0:0:
380,276,195610,2,0,P|340:284|300:280,1,80,10|0,0:0|0:0,0:0:0:0:
288,192,195997,1,8,0:0:0:0:
224,368,196190,2,8,B|196:292|196:208,1,160,8|0,0:0|0:0,0:0:0:0:
320,76,196771,5,8,0:0:0:0:
360,164,196965,1,0,0:0:0:0:
272,204,197158,2,0,B|200:224|188:180|112:212,1,160,8|8,0:0|0:0,0:0:0:0:
32,260,197739,2,0,P|19:221|12:180,1,80,8|2,0:0|0:0,0:0:0:0:
60,100,198126,1,2,0:0:0:0:
224,200,198319,2,0,P|216:284|188:364,1,160,10|10,0:0|0:0,0:0:0:0:
312,328,198900,5,0,0:0:0:0:
364,244,199094,2,0,P|356:206|352:164,1,80,8|8,0:0|0:0,0:0:0:0:
448,108,199481,2,0,P|455:145|460:188,1,80,0|8,0:0|0:0,0:0:0:0:
452,208,199771,1,0,0:0:0:0:
452,208,199868,1,8,0:0:0:0:
328,144,200061,1,0,0:0:0:0:
328,264,200255,6,0,B|368:264|406:252,1,80,10|0,0:0|0:0,0:0:0:0:
328,144,200642,2,0,B|288:144|250:156,1,80,8|10,0:0|0:0,0:0:0:0:
112,164,201029,2,0,B|92:248|128:320,2,160,8|8|10,0:0|0:0|0:0,0:0:0:0:
116,168,202190,6,0,B|124:127|124:127|124:84,1,80,8|8,0:0|0:0,0:0:0:0:
216,132,202577,2,0,B|296:160|368:108,1,160,0|8,0:0|0:0,0:0:0:0:
512,232,203158,1,0,0:0:0:0:
432,218,203352,1,8,0:0:0:0:
352,205,203545,1,0,0:0:0:0:
297,263,203739,1,8,0:0:0:0:
247,328,203932,1,8,0:0:0:0:
240,204,204126,6,0,B|228:164|232:124,1,80,2|10,0:0|0:0,0:0:0:0:
124,68,204513,2,0,B|136:108|132:148,1,80,10|0,0:0|0:0,0:0:0:0:
4,264,204900,2,0,B|76:212|156:240,1,160,10|8,0:0|0:0,0:0:0:0:
240,204,205481,1,8,0:0:0:0:
240,204,205674,2,0,B|312:256|392:228,1,160,0|8,0:0|0:0,0:0:0:0:
488,252,206255,2,0,B|500:172,1,80,8|0,0:0|0:0,0:0:0:0:
400,64,206642,2,0,B|412:144,1,80,8|8,0:0|0:0,0:0:0:0:
308,92,207029,2,0,B|241:148|157:112,1,160,8|0,0:0|0:0,0:0:0:0:
224,52,207610,2,0,B|260:136|204:203,1,160,8|10,0:0|0:0,0:0:0:0:
104,180,208190,6,0,B|112:260,1,80,0|8,0:0|0:0,0:0:0:0:
40,308,208577,2,0,B|112:288|124:332|200:300,1,160,8|0,0:0|0:0,0:0:0:0:
284,320,209158,1,8,0:0:0:0:
304,232,209352,1,0,0:0:0:0:
217,213,209545,2,0,B|204:176|200:132,1,80,8|0,0:0|0:0,0:0:0:0:
292,112,209932,1,8,0:0:0:0:
292,112,210126,2,0,B|376:148|442:93,1,160,8|8,0:0|0:0,0:0:0:0:
512,192,210706,2,0,B|472:196|432:212,1,80,8|0,0:0|0:0,0:0:0:0:
336,208,211094,6,0,B|344:288,1,80,10|0,0:0|0:0,0:0:0:0:
256,332,211481,1,8,0:0:0:0:
256,332,211674,2,0,B|184:304|98:312,1,160,10|8,0:0|0:0,0:0:0:0:
2,185,212255,2,0,B|88:192|160:164,1,160,10|10,0:0|0:0,0:0:0:0:
256,208,212836,2,0,B|248:168|248:168|268:128,1,80,0|8,0:0|0:0,0:0:0:0:
176,52,213223,2,0,B|184:92|184:92|164:132,1,80,10|0,0:0|0:0,0:0:0:0:
160,232,213610,1,8,0:0:0:0:
348,184,213803,1,8,0:0:0:0:
344,180,214190,1,2,0:0:0:0:
508,56,226577,5,2,0:0:0:0:
448,92,227352,1,2,0:0:0:0:
380,76,228126,1,2,0:0:0:0:
320,112,228900,1,2,0:0:0:0:
4,184,229674,5,2,0:0:0:0:
64,220,230448,1,2,0:0:0:0:
132,204,231223,1,2,0:0:0:0:
192,240,231997,1,2,0:0:0:0:
508,312,232771,5,2,0:0:0:0:
448,348,233545,1,2,0:0:0:0:
380,332,234319,1,2,0:0:0:0:
320,368,235094,1,2,0:2:0:0:
196,234,235481,5,0,0:0:0:0:
105,259,235868,1,2,0:0:0:0:
54,179,236255,1,8,0:0:0:0:
113,106,236642,1,8,0:0:0:0:
201,141,237029,1,8,0:0:0:0:
196,234,237416,5,8,0:0:0:0:
284,269,237610,1,8,0:0:0:0:
344,196,237803,1,8,0:0:0:0:
292,116,237997,1,8,0:0:0:0:
352,43,238190,1,8,0:0:0:0:
439,78,238384,1,8,0:0:0:0:
435,171,238577,2,0,B|448:208|480:244,1,80,8|0,0:0|0:0,0:0:0:0:
424,328,238965,6,0,B|344:308|264:316,1,160,10|8,0:0|0:0,0:0:0:0:
176,328,239545,1,8,0:0:0:0:
84,372,239739,2,0,B|72:332|72:292,1,80,2|0,0:0|0:0,0:0:0:0:
72,292,240029,1,0,0:0:0:0:
72,292,240126,1,8,0:0:0:0:
92,204,240319,2,0,B|12:212,1,80,0|10,0:0|0:0,0:0:0:0:
188,248,240706,2,0,B|268:240,1,80,0|8,0:0|0:0,0:0:0:0:
184,28,241094,6,0,B|129:95|164:177,1,160,10|8,0:0|0:0,0:0:0:0:
308,260,241674,2,0,B|341:204|324:144,1,120,10|8,0:0|0:0,0:0:0:0:
324,144,242061,2,0,B|404:152,1,80,10|0,0:0|0:0,0:0:0:0:
504,96,242448,5,8,0:0:0:0:
492,192,242642,1,8,0:0:0:0:
492,192,242739,1,0,0:0:0:0:
492,192,242836,1,2,0:0:0:0:
412,332,243029,1,0,0:0:0:0:
400,240,243223,1,8,0:0:0:0:
304,252,243416,2,0,B|216:260|148:220,1,160,10|8,0:0|0:0,0:0:0:0:
48,300,243997,2,0,B|24:248|24:180,1,120,10|0,0:0|0:0,0:0:0:0:
0,188,244384,2,0,B|11:108,1,80,10|8,0:0|0:0,0:0:0:0:
88,56,244771,5,8,0:0:0:0:
112,60,244868,1,8,0:0:0:0:
136,64,244965,1,8,0:0:0:0:
160,68,245061,1,8,0:0:0:0:
184,72,245158,2,0,B|224:76|264:68,1,80,8|0,0:0|0:0,0:0:0:0:
432,88,245545,2,0,B|392:84|352:92,1,80,8|8,0:0|0:0,0:0:0:0:
284,152,245932,6,0,B|292:204|292:204|300:212|300:212|308:272,1,120,10|8,0:0|0:0,0:0:0:0:
312,304,246319,1,8,0:0:0:0:
416,276,246513,1,8,0:0:0:0:
208,232,246706,6,0,B|200:180|200:180|192:172|192:172|184:112,1,120,10|8,0:0|0:0,0:0:0:0:
180,80,247094,1,8,0:0:0:0:
284,52,247287,1,8,0:0:0:0:
72,72,247481,6,0,B|80:124|80:124|88:132|88:132|96:192,1,120,10|8,0:0|0:0,0:0:0:0:
100,224,247868,1,8,0:0:0:0:
204,196,248061,1,8,0:0:0:0:
300,272,248255,6,0,B|312:232|308:192,1,80,10|0,0:0|0:0,0:0:0:0:
332,200,248545,1,0,0:0:0:0:
356,204,248642,1,8,0:0:0:0:
380,208,248739,1,0,0:0:0:0:
404,212,248836,1,8,0:0:0:0:
452,296,249029,5,0,0:0:0:0:
444,124,249223,1,8,0:0:0:0:
452,296,249416,1,10,0:0:0:0:
444,124,249610,1,0,0:0:0:0:
512,352,249803,2,0,B|460:396|396:360,1,120,10|0,0:0|0:0,0:0:0:0:
364,368,250190,1,8,0:0:0:0:
352,280,250384,1,10,0:0:0:0:
340,192,250577,2,0,B|268:172|256:216|180:184,1,160,8|10,0:0|0:0,0:0:0:0:
152,188,251061,1,8,0:0:0:0:
148,164,251158,1,8,0:0:0:0:
144,140,251255,1,8,0:0:0:0:
140,116,251352,1,10,0:0:0:0:
80,44,251545,5,0,0:0:0:0:
12,108,251739,2,0,B|8:188,1,80,8|8,0:0|0:0,0:0:0:0:
116,268,252126,2,0,B|76:280|36:272,1,80,10|0,0:0|0:0,0:0:0:0:
12,280,252416,1,0,0:0:0:0:
12,280,252513,1,8,0:0:0:0:
208,304,252706,2,0,B|275:248|359:284,1,160,8|8,0:0|0:0,0:0:0:0:
512,252,253287,1,8,0:0:0:0:
464,336,253481,2,0,B|408:269|444:185,1,160,8|8,0:0|0:0,0:0:0:0:
308,72,254061,6,0,B|341:128|324:188,1,120,8|8,0:0|0:0,0:0:0:0:
324,187,254448,2,0,B|243:183,1,80,10|0,0:0|0:0,0:0:0:0:
160,212,254836,1,8,0:0:0:0:
76,184,255029,1,8,0:0:0:0:
76,184,255126,1,0,0:0:0:0:
76,184,255223,2,0,B|60:144|64:104,1,80,0|8,0:0|0:0,0:0:0:0:
160,48,255610,2,0,B|176:88|172:128,1,80,8|8,0:0|0:0,0:0:0:0:
160,212,255997,2,0,B|104:212|40:232,1,120,10|8,0:0|0:0,0:0:0:0:
16,224,256384,1,8,0:0:0:0:
8,312,256577,1,8,0:0:0:0:
96,320,256771,2,0,B|168:300|180:344|256:312,1,160,2|10,0:0|0:0,0:0:0:0:
276,328,257255,5,8,0:0:0:0:
280,300,257352,1,8,0:0:0:0:
284,272,257448,1,8,0:0:0:0:
288,244,257545,2,0,B|280:164,2,80,10|0|8,0:0|0:0|0:0,0:0:0:0:
188,208,258126,2,0,B|148:204|108:216,1,80,8|0,0:0|0:0,0:0:0:0:
0,140,258513,2,0,B|40:144|80:132,1,80,0|8,0:0|0:0,0:0:0:0:
180,108,258900,1,0,0:0:0:0:
276,152,259094,2,0,B|241:234|296:301,1,160,10|8,0:0|0:0,0:0:0:0:
448,248,259674,2,0,B|408:248|368:256,1,80,8|0,0:0|0:0,0:0:0:0:
500,316,260061,1,8,0:0:0:0:
488,176,260255,2,0,B|432:156|368:156,1,120,8|8,0:0|0:0,0:0:0:0:
336,152,260642,5,10,0:0:0:0:
324,64,260836,1,0,0:0:0:0:
324,64,260932,1,0,0:0:0:0:
324,64,261029,1,8,0:0:0:0:
236,76,261223,1,8,0:0:0:0:
244,168,261416,2,0,B|204:168|164:160,1,80,0|8,0:0|0:0,0:0:0:0:
8,200,261803,2,0,B|48:200|88:208,1,80,8|0,0:0|0:0,0:0:0:0:
168,244,262190,1,8,0:0:0:0:
164,248,262577,5,8,0:0:0:0:
152,344,262771,2,0,B|112:352|72:340,1,80,8|0,0:0|0:0,0:0:0:0:
244,300,263158,2,0,B|326:284|398:324,1,160,8|2,0:0|0:0,0:0:0:0:
492,300,263739,1,0,0:0:0:0:
