osu file format v5

[General]
AudioFilename: Epik High - One.mp3
AudioLeadIn: 1004
PreviewTime: 154352
Countdown: 0
SampleSet: Normal
StackLeniency: 0.2
Mode: 0
LetterboxInBreaks: 1
EditorDistanceSpacing: 1.70000004768372

[Metadata]
Title:One
Artist:Epik High
Creator:Nexy
Version:Soft
Source:
Tags:K-Rap Hip-Hop Ji Sun Loveholic Shinxyn Starrodkirby86

[Difficulty]
HPDrainRate:2
CircleSize:3
OverallDifficulty:3
SliderMultiplier:1
SliderTickRate:0.5

[Events]
//Background and Video events
0,0,"Pulse.png"
//Break Periods
2,9004,20031
2,47893,49809
2,94116,96476
2,104338,108920
//Storyboard Layer 0 (Background)
//Storyboard Layer 1 (Failing)
//Storyboard Layer 2 (Passing)
//Storyboard Layer 3 (Foreground)
//Storyboard Sound Samples
//Background Colour Transformations
3,100,163,162,255

[TimingPoints]
1462,444.444444444444,4,1,0,70,1,0
21350,-100,4,1,0,30,0,0
21795,-100,4,1,0,40,0,0
22239,-100,4,1,0,50,0,0
22684,-100,4,1,0,60,0,0
22906,-100,4,1,0,70,0,0
51128,-100,4,2,0,60,0,0
57360,-100,4,2,0,70,0,0
59128,-100,4,2,0,80,0,0
60906,-100,4,2,0,90,0,0
62461,-100,4,2,0,100,0,0
65795,-100,4,1,0,70,0,0
65906,-100,4,1,0,70,0,1
80017,-100,4,1,0,70,0,0
125795,-100,4,2,0,70,0,0
132017,-100,4,2,0,80,0,0
135573,-100,4,2,0,90,0,0
137128,-100,4,2,0,100,0,0
140461,-100,4,1,0,70,0,0
140573,-100,4,1,0,70,0,1
154684,-100,4,1,0,70,0,0

[Colours]
Combo1 : 255,255,255
Combo2 : 0,128,192
Combo3 : 255,255,0

[HitObjects]
317,157,1462,1,0
192,80,1906,6,0,B|112:88|112:168,2,100
317,157,3462,5,0
440,272,3906,6,0,B|424:336|352:336,2,100
370,334,5017,1,0
200,328,5462,6,0,B|96:328|136:240,2,100
317,157,7017,5,0
328,328,7462,6,0,B|248:368|168:320,2,150
317,157,21461,5,0
317,157,21906,1,0
317,157,22350,1,0
317,157,22795,6,0,B|420:158,1,100,8|4
416,304,23684,5,8
416,304,24128,1,0
256,240,24573,2,0,B|256:344,1,100,8|0
96,304,25461,5,8
96,304,25906,1,0
257,339,26350,2,0,B|257:219|257:219|257:227,1,100,8|0
416,192,27239,5,8
216,88,27684,2,0,B|264:40|304:96,2,100,0|8|0
96,192,29017,1,8
216,296,29461,2,0,B|264:344|304:288,2,100,0|8|0
96,192,30795,6,0,B|96:104|176:128,1,100,0|0
256,248,31684,2,0,B|256:328|320:320|320:320|312:320,1,100,8|0
416,192,32573,6,0,B|416:104|336:128,1,100,0|0
256,248,33461,2,0,B|256:328|192:320|192:320|200:320,1,100,8|0
368,312,34350,6,0,B|416:264,2,50,8|0|0
320,240,35017,1,0
280,160,35239,2,0,B|232:208,1,50,8|0
200,120,35684,5,0
320,240,36128,1,0
200,120,36573,1,8
176,288,37017,6,4,B|112:272|120:200,1,100
256,96,37906,6,0,B|256:208,1,100,8|0
424,192,38795,2,0,B|312:192,1,100,8|0
256,296,39684,6,0,B|256:184,1,100,8|0
88,192,40573,2,0,B|216:192,1,100,8|0
336,272,41461,5,8
168,272,41906,1,0
336,272,42350,1,8
168,272,42795,1,0
256,272,43017,2,0,B|256:328,3,50,0|8|0|0
424,288,44128,6,0,B|488:176|432:96,1,200,8|8
256,192,45461,1,0
256,192,45906,5,8
256,192,46350,5,0
88,96,46795,2,0,B|24:192|80:288,1,200,8|8
256,192,51239,5,0
256,192,51461,1,0
464,336,52128,6,0,B|464:224,1,100
256,192,53017,5,0
256,192,53239,1,0
48,48,53906,6,0,B|48:168,1,100
256,192,54795,5,0
256,192,55017,1,0
464,48,55684,6,0,B|464:152,1,100
256,192,56573,5,0
256,192,56795,1,0
48,344,57461,6,0,B|48:240,1,100
256,192,58350,5,0
256,192,58573,1,0
464,344,59239,6,0,B|352:344,1,100
256,192,60128,5,0
256,192,60350,1,0
40,48,61017,6,0,B|152:48,1,100
256,192,61906,5,0
256,192,62128,1,0
256,192,62573,12,4,64128
96,320,65017,6,0,B|192:248,1,100
314,156,65906,5,0
314,156,66350,5,8
144,192,66795,6,0,B|144:256,3,50,0|0|8|0
232,240,67684,1,0
400,240,68128,2,0,B|400:296,3,50,8|0|0|0
312,288,69017,1,8
256,192,69239,12,0,71461
56,56,71906,6,0,B|144:184,1,150,0|8
318,157,73017,5,0
318,157,73461,5,8
168,72,73906,6,0,B|128:112,3,50,0|0|8|0
72,168,74795,1,0
136,224,75017,1,0
200,280,75239,2,0,B|248:320,3,50,8|0|0|0
304,256,76128,1,8
256,192,76350,12,0,78573
317,157,79239,6,8,B|317:228,4,50,8|8|8|8|4
112,48,80573,6,0,B|48:72|72:152,2,100,8|0|8
152,120,81684,1,0
172,202,81906,2,0,B|152:280|80:264,2,100,0|8|0
317,157,83239,5,8
317,157,83684,5,0
256,312,84128,6,0,B|144:312,2,100,8|0|8
256,224,85239,1,0
256,312,85461,2,0,B|376:312,2,100,0|8|0
317,157,86795,5,8
317,157,87239,5,0
176,248,87684,6,0,B|176:312|240:320,2,100,8|0|8
168,160,88795,1,0
168,72,89017,2,0,B|136:16|64:48,2,100,0|8|0
317,157,90795,5,0
317,157,91239,5,8
144,144,91684,6,0,B|88:192|144:232,2,100,0|8|0
317,157,93017,5,12
317,157,93461,5,12
317,157,93906,5,12
256,192,97906,5,0
256,192,98350,1,8
256,192,98795,2,0,B|256:296,1,100,0|8
392,192,99684,5,0
392,192,100128,1,8
392,192,100573,2,0,B|392:80,1,100,0|8
256,192,101461,5,0
256,192,101906,1,8
256,192,102350,2,0,B|256:312|256:304|248:312,1,100,0|8
112,192,103239,5,0
256,104,103684,1,8
400,192,104128,1,4
88,192,110350,5,4
256,192,110795,1,4
424,192,111239,1,12
304,312,111684,6,0,B|256:352|192:304,2,100,0|0|8
256,144,113017,1,0
256,144,113461,1,8
210,316,113906,6,0,B|256:352|304:312,1,100,0|8
256,144,114795,1,0
256,144,115239,1,8
256,144,115684,5,0
168,128,115906,2,0,B|96:136|104:216|104:216,1,100,0|4
256,272,116795,5,0
336,272,117017,2,0,B|400:224|384:168,1,100,8|0
416,72,119017,6,0,B|352:72,3,50,0|0|0|8
280,72,119906,2,0,B|200:72,3,50,0|0|0|8
144,72,120795,6,0,B|64:72,3,50,0|0|0|8
88,160,121684,2,0,B|88:232,3,50,0|0|0|8
176,208,122573,6,0,B|176:272,3,50,0|0|0|8
256,272,123461,2,0,B|256:336,3,50,0|0|0|8
344,320,124350,6,0,B|408:320,3,50,0|0|0|4
480,320,125239,1,4
256,192,125906,5,0
256,192,126128,1,0
48,48,126795,6,0,B|48:160,1,100
256,192,127684,5,0
256,192,127906,1,0
464,336,128573,6,0,B|464:216,1,100
256,192,129461,5,0
256,192,129684,1,0
48,336,130350,6,0,B|48:232,1,100
256,192,131239,5,0
256,192,131461,1,0
464,40,132128,6,0,B|464:144,1,100
256,192,133017,5,0
256,192,133239,1,0
48,40,133906,6,0,B|160:40,1,100
256,192,134795,5,0
256,192,135017,1,0
472,336,135684,6,0,B|360:336,1,100
256,192,136573,5,0
256,192,136795,1,0
256,192,137239,12,4,138795
464,336,139684,6,0,B|328:304,1,100
317,157,140573,5,0
317,157,141017,5,8
256,312,141461,6,0,B|200:280,3,50,0|0|8|0
136,240,142350,1,0
136,72,142795,2,0,B|136:128,3,50,8|0|0|0
224,128,143684,1,8
256,192,143906,12,4,146128
48,336,146573,6,0,B|176:240,1,150,0|8
317,157,147684,5,0
317,157,148128,5,8
440,272,148573,6,0,B|400:312,3,50,0|0|8|0
320,312,149462,1,0
232,312,149684,2,0,B|168:312|168:312|168:304,3,50,0|8|0|0
96,312,150573,1,0
96,312,150795,1,8
256,192,151017,12,4,153239
317,157,153906,6,8,B|317:98|317:98|316:98,4,50,8|8|8|8|4
176,320,155239,6,0,B|56:320,2,100,8|0|8
264,320,156350,1,0
352,320,156573,2,0,B|464:320,2,100,0|8|0
317,157,157906,5,8
317,157,158350,5,0
176,56,158795,6,0,B|72:120,2,100,8|0|8
184,144,159906,1,0
112,184,160128,2,0,B|8:248,2,100,0|8|0
317,157,161462,5,8
317,157,161906,5,0
152,112,162350,6,0,B|88:168|168:216,2,100,8|0|8
142,196,163462,1,0
142,196,163684,2,0,B|78:252|158:300,2,100,0|8|0
317,157,165462,5,0
317,157,165906,5,8
208,288,166350,6,0,B|256:328|320:280,2,100,0|8|0
317,157,167684,5,12
256,192,168128,12,4,169017
