osu file format v9

[General]
AudioFilename: 04 - Fly.mp3
AudioLeadIn: 1500
PreviewTime: 46386
Countdown: 0
SampleSet: Normal
StackLeniency: 0.7
Mode: 0
LetterboxInBreaks: 1

[Editor]
Bookmarks: 39824,47324,62324,63495,92324,107324,126074,127949,137324,152324,167324,177167,186074
DistanceSpacing: 1.4
BeatDivisor: 4
GridSize: 4

[Metadata]
Title:Fly
Artist:Epik High
Creator:yeahyeahyeahhh
Version:Rough
Source:
Tags:Tablo Mithra Jin DJ Tukutz Black Swan Songs Rap Hip Hop Kpop Amin J Soulciety Nexy

[Difficulty]
HPDrainRate:5
CircleSize:4
OverallDifficulty:6
ApproachRate:6
SliderMultiplier:1.2
SliderTickRate:2

[Events]
//Background and Video events
0,0,"bg.png"
//Break Periods
2,2524,15336
2,137523,151274
//Storyboard Layer 0 (Background)
//Storyboard Layer 1 (Fail)
//Storyboard Layer 2 (Pass)
//Storyboard Layer 3 (Foreground)
Sprite,Foreground,Centre,"Mapped.png",320,240 M,1,137324,137441,-21,273,316,273 F,1,137324,137441,0,1 F,0,138730,138788,1,0.4 F,0,138847,138906,1,0.4 F,0,138964,139023,1,0.4 F,0,139081,139140,1,0.4 F,0,139199,144824,1 M,1,144824,144941,316,273,653,273 F,1,144824,144941,1,0
Sprite,Foreground,Centre,"by.png",320,240 M,1,137792,137909,398,501,398,323 F,1,137792,137909,0,1 F,0,138730,138788,1,0.4 F,0,138847,138906,1,0.4 F,0,138964,139023,1,0.4 F,0,139081,139140,1,0.4 F,0,139199,144824,1 M,1,145292,145409,398,323,398,145 F,1,145292,145409,1,0
Sprite,Foreground,Centre,"Nexy.png",320,240 M,1,138261,138378,794,376,461,376 F,1,138261,138378,0,1 F,0,138730,138788,1,0.4 F,0,138847,138906,1,0.4 F,0,138964,139023,1,0.4 F,0,139081,139140,1,0.4 F,0,139199,144824,1 M,1,145761,145878,461,376,128,376 F,1,145761,145878,1,0
Sprite,Foreground,Centre,"Mapped.png",320,240 M,0,139667,,316,273 F,0,139667,139784,1,0 S,0,139667,139784,1,1.1 F,0,140605,140722,1,0 S,0,140605,140722,1,1.1 F,0,141542,141659,1,0 S,0,141542,141659,1,1.1 F,0,142480,142597,1,0 S,0,142480,142597,1,1.1 F,0,143417,143534,1,0 S,0,143417,143534,1,1.1 F,0,144355,144472,1,0 S,0,144355,144472,1,1.1
Sprite,Foreground,Centre,"by.png",320,240 M,0,139667,,398,323 F,0,139667,139784,1,0 S,0,139667,139784,1,1.1 F,0,140605,140722,1,0 S,0,140605,140722,1,1.1 F,0,141542,141659,1,0 S,0,141542,141659,1,1.1 F,0,142480,142597,1,0 S,0,142480,142597,1,1.1 F,0,143417,143534,1,0 S,0,143417,143534,1,1.1 F,0,144355,144472,1,0 S,0,144355,144472,1,1.1
Sprite,Foreground,Centre,"Nexy.png",320,240 M,0,139667,,461,376 F,0,139667,139784,1,0 S,0,139667,139784,1,1.1 F,0,140605,140722,1,0 S,0,140605,140722,1,1.1 F,0,141542,141659,1,0 S,0,141542,141659,1,1.1 F,0,142480,142597,1,0 S,0,142480,142597,1,1.1 F,0,143417,143534,1,0 S,0,143417,143534,1,1.1 F,0,144355,144472,1,0 S,0,144355,144472,1,1.1
//Storyboard Sound Samples
//Background Colour Transformations
3,100,163,162,255

[TimingPoints]
449,468.75,4,1,1,50,1,0
683,-100,4,1,1,55,0,0
1152,-100,4,1,1,60,0,0
1620,-100,4,1,1,65,0,0
2089,-100,4,1,1,70,0,0
27636,-100,4,2,1,80,0,0
28222,-100,4,1,1,70,0,0
42636,-100,4,2,1,80,0,0
43339,-100,4,1,1,70,0,0
47324,-100,4,1,1,70,0,1
50136,-100,4,2,1,80,0,1
50253,-100,4,1,1,70,0,1
50370,-100,4,2,1,80,0,1
50488,-100,4,1,1,70,0,1
54355,-100,4,1,1,70,0,0
54824,-100,4,1,1,70,0,1
57636,-100,4,2,1,80,0,1
57753,-100,4,1,1,70,0,1
57870,-100,4,2,1,80,0,1
57988,-100,4,1,1,70,0,1
61855,-100,4,1,1,70,0,0
62324,-100,4,1,1,70,0,1
69706,-100,4,1,1,70,0,0
69824,-100,4,1,1,70,0,1
72636,-100,4,2,1,80,0,1
72753,-100,4,1,1,70,0,1
72870,-100,4,2,1,80,0,1
72988,-100,4,1,1,70,0,1
77324,-100,4,2,1,50,0,0
79081,-100,4,1,1,50,0,0
79316,-100,4,2,1,50,0,0
80956,-100,4,1,1,50,0,0
81191,-100,4,2,1,50,0,0
82949,-100,4,1,1,50,0,0
83769,-100,4,2,1,50,0,0
84824,-100,4,1,1,50,0,0
84941,-100,4,2,1,50,0,0
86699,-100,4,1,1,50,0,0
86816,-100,4,2,1,50,0,0
88574,-100,4,1,1,50,0,0
88691,-100,4,2,1,50,0,0
90449,-100,4,1,1,50,0,0
90566,-100,4,2,1,50,0,0
91152,-100,4,2,1,70,0,0
91855,-100,4,1,1,70,0,0
91972,-100,4,2,1,80,0,0
92206,-100,4,1,1,70,0,0
102636,-100,4,2,1,80,0,0
103222,-100,4,1,1,70,0,0
107324,-100,4,1,1,70,0,1
110136,-100,4,2,1,80,0,1
110253,-100,4,1,1,70,0,1
110370,-100,4,2,1,80,0,1
110488,-100,4,1,1,70,0,1
114355,-100,4,1,1,70,0,0
114824,-100,4,1,1,70,0,1
117636,-100,4,2,1,80,0,1
117753,-100,4,1,1,70,0,1
117870,-100,4,2,1,80,0,1
117988,-100,4,1,1,70,0,1
121855,-100,4,1,1,70,0,0
122324,-100,4,1,1,70,0,1
129706,-100,4,1,1,70,0,0
129824,-100,4,1,1,70,0,1
137324,-100,4,1,1,70,0,0
166620,-100,4,2,1,50,0,0
167324,-100,4,2,1,100,0,1
167441,-100,4,1,1,70,0,1
174355,-100,4,1,1,70,0,0
174824,-100,4,1,1,70,0,1
181855,-100,4,1,1,70,0,0
182324,-100,4,1,1,70,0,1
189355,-100,4,1,1,70,0,0
189824,-100,4,1,1,70,0,1
197324,-100,4,1,1,70,0,0

[Colours]
Combo1 : 17,254,176
Combo2 : 173,255,95
Combo3 : 255,88,100
Combo4 : 255,94,55

[HitObjects]
400,188,449,1,0
304,160,917,1,0
208,184,1386,1,0
108,172,1855,1,2
400,188,2324,5,4
124,64,16386,6,0,B|156:116|148:192|148:192,2,120,0|0|2
196,16,17558,1,0
260,72,17792,2,0,B|336:68|336:68,1,60,8|0
456,168,18495,5,0
456,168,18730,2,0,B|320:180|320:180,1,120,8|0
252,184,19433,1,0
168,188,19667,1,8
168,188,20136,5,0
180,272,20370,2,0,B|244:268|244:268,1,60,0|8
400,324,21074,5,0
400,324,21308,1,0
460,264,21542,1,8
424,188,21777,1,0
340,184,22011,2,0,B|204:192|204:192,1,120,0|8
52,200,22949,5,0
140,60,23417,1,8
248,188,23886,2,0,B|368:176|368:176,1,120,0|8
452,168,24589,5,2
452,168,24824,2,2,B|472:228|464:308|464:308,1,120,0|2
384,312,25527,6,0,B|384:352|396:380|396:380,2,60
300,296,26230,2,0,B|300:256|288:228|288:228,1,60,8|0
260,160,26699,5,0
148,284,27167,1,8
316,300,27636,2,0,B|388:296|388:296,2,60,2|2|8
256,240,28339,1,0
212,312,28574,6,0,B|88:324|88:324,1,120,0|8
140,164,29511,2,0,B|152:92|124:36|124:36,1,120,0|8
276,124,30449,2,0,B|264:196|292:252|292:252,1,120,0|8
228,304,31152,1,0
228,304,31386,5,0
100,192,31855,1,8
244,104,32324,1,6
232,272,32792,6,2,B|232:200|232:200,1,60,10|2
336,80,33495,1,2
336,80,33730,1,10
420,72,33964,6,0,B|424:144|424:144,1,60,0|2
436,216,34433,2,0,B|476:212|476:212,2,30,0|0|8
356,192,34902,1,0
284,236,35136,6,0,B|212:240|212:240,2,60,0|2|10
312,68,36074,1,0
456,152,36542,6,0,B|468:284|468:284,2,120,8|0|8
380,116,37714,1,2
316,172,37949,2,0,B|328:304|328:304,1,120,0|8
168,344,38886,2,0,B|36:356|36:356,1,120,0|8
68,188,39824,5,4
68,188,40292,1,8
132,132,40527,1,0
208,164,40761,2,0,B|196:296|196:296,1,120,0|8
360,332,41699,5,0
360,332,41933,1,0
416,272,42167,1,8
416,272,42402,1,0
360,212,42636,2,0,B|372:80|372:80,1,120,2|8
216,28,43574,5,2
132,20,43808,1,0
100,96,44042,1,10
248,176,44511,5,0
300,240,44745,1,2
380,220,44980,1,8
328,60,45449,5,0
400,20,45683,1,2
464,76,45917,2,2,B|472:204|472:204,1,120,10|2
312,252,46855,5,10
248,96,47324,6,0,B|216:104|184:84|184:84|184:120|140:136|140:136,1,120,6|8
172,212,48027,1,0
336,176,48495,5,0
336,176,48730,2,0,B|368:184|400:164|400:164|400:200|444:216|444:216,1,120,8|0
320,336,49667,5,8
248,292,49902,2,0,B|248:252|248:252,4,30,0|8|0|8|0
180,344,50605,1,8
80,212,51074,6,0,B|72:76|72:76,1,120,2|8
152,60,51777,2,0,B|160:196|160:196,1,120,2|0
240,196,52480,2,2,B|232:60|232:60,1,120,10|2
396,44,53417,5,8
448,204,53886,1,0
284,244,54355,1,8
240,80,54824,6,0,B|208:88|176:68|176:68|176:104|132:120|132:120,1,120,4|8
84,164,55527,1,0
232,240,55995,5,0
232,240,56230,2,0,B|264:232|296:252|296:252|296:216|340:200|340:200,1,120,8|0
400,60,57167,5,8
332,108,57402,2,0,B|288:100|288:100,4,30,0|8|0|8|0
360,188,58105,1,8
192,200,58574,6,0,B|212:276|208:324|208:324,2,120,0|8|0
248,136,59745,1,0
332,124,59980,1,8
412,152,60214,1,0
412,152,60449,2,0,B|416:230|435:274|435:274,2,120,2|10|2
280,48,61855,5,10
176,176,62324,2,0,B|112:180|112:180,2,60,6|0|10
252,136,63027,1,2
252,136,63495,5,0
252,136,63730,1,10
328,100,63964,1,0
408,124,64199,6,2,B|432:252|432:252,1,120,2|8
448,324,64902,1,2
368,296,65136,2,2,B|240:320|240:320,1,120,2|10
112,212,66074,6,2,B|112:148|112:148,1,60,2|0
192,172,66542,2,2,B|192:108|192:108,1,60,10|0
268,152,67011,2,0,B|268:212|268:212,2,60,2|0|10
408,324,67949,6,2,B|472:324|472:324,2,60,0|0|8
356,260,68652,1,0
296,200,68886,2,2,B|232:200|232:200,2,60,0|0|10
352,136,69589,1,2
420,88,69824,6,0,B|492:88|492:88,2,60,4|0|8
336,84,70527,1,0
404,236,70995,5,0
404,236,71230,2,0,B|276:232|276:232,1,120,8|0
116,228,72167,5,8
72,300,72402,2,0,B|20:296|20:296,4,30,0|8|0|8|0
156,308,73105,2,0,B|293:316|293:316,1,120,8|0
300,140,74042,5,8
136,104,74511,2,0,B|56:104|56:104,2,60,0|0|8
184,264,75449,5,0
300,140,75917,1,8
136,104,76386,1,0
184,264,76855,2,2,B|214:128|214:128,1,120,8|0
360,72,77792,5,2
460,208,78261,1,8
460,208,78730,5,0
384,248,78964,1,2
408,328,79199,1,0
240,312,79667,2,0,B|96:324|96:324,1,120,0|8
184,168,80605,5,2
232,100,80839,1,2
304,140,81074,1,0
296,308,81542,5,0
296,308,82011,1,8
216,328,82245,1,2
92,212,82714,1,2
92,212,82949,2,0,B|104:172|100:104|100:104,2,90
72,292,83886,1,8
240,304,84355,5,8
240,304,84589,1,8
256,220,84824,2,0,B|268:180|264:96|264:96,1,120
424,44,85761,5,8
424,44,86230,1,2
472,112,86464,1,2
396,144,86699,2,0,B|400:212|400:212,2,60
240,84,87636,5,8
136,216,88105,6,0,B|72:216|72:216,2,60
192,152,88808,1,2
240,84,89042,2,0,B|304:84|304:84,2,60,0|2|8
376,184,89980,6,0,B|408:192|440:172|440:172|440:208|484:224|484:224,1,120,0|0
332,316,90917,5,8
248,308,91152,2,0,B|204:304|204:304,1,30,2|0
244,224,91503,2,0,B|248:180|248:180,1,30,2|0
164,212,91855,2,0,B|80:204|80:204,1,60,8|4
20,192,92324,5,6
100,44,92792,1,8
260,100,93261,2,0,B|384:92|384:92,1,120,0|10
464,88,93964,6,2,B|464:36|464:36,2,30,2|0|2
476,172,94433,1,0
392,180,94667,2,0,B|256:188|256:188,1,120,8|2
144,76,95605,6,0,B|148:152|148:152,1,60,8|0
76,184,96074,1,2
76,184,96308,1,0
84,268,96542,1,10
240,208,97011,6,0,B|308:204|308:204,1,60,0|2
332,124,97480,1,10
332,124,97714,1,0
416,116,97949,6,2,B|440:188|432:244|432:244,1,120,0|8
356,272,98652,1,2
272,260,98886,2,2,B|248:188|256:132|256:132,1,120,0|10
176,108,99589,5,0
176,108,99824,1,4
168,276,100292,5,8
168,276,100527,1,0
160,360,100761,2,0,B|220:368|220:368,2,60,0|0|8
56,228,101699,6,0,B|196:240|196:240,1,120,0|8
260,248,102402,1,0
344,256,102636,6,0,B|410:261|410:261,2,60,2|2|8
260,248,103339,1,0
272,164,103574,6,0,B|280:88|280:88,2,60,0|0|8
244,332,104511,1,0
400,264,104980,1,8
400,264,105449,2,0,B|416:128|416:128,1,120,0|8
280,40,106386,5,0
280,40,106855,1,8
280,40,107324,6,0,B|248:48|216:28|216:28|216:64|172:80|172:80,1,120,4|8
112,104,108027,1,0
256,188,108495,5,0
256,188,108730,2,0,B|288:196|320:176|320:176|320:212|364:228|364:228,1,120,8|0
440,80,109667,5,8
356,76,109902,2,0,B|304:72|304:72,4,30,0|8|0|8|0
356,160,110605,1,8
356,160,111074,6,0,B|232:140|232:140,1,120,0|8
156,124,111777,1,0
156,124,112245,5,0
72,104,112480,1,8
52,184,112714,1,0
52,184,112949,6,0,B|44:264|44:264,2,60,2|0|10
196,96,113886,2,0,B|204:16|204:16,2,60,2|0|10
268,192,114824,6,4,B|300:200|332:180|332:180|332:216|376:232|376:232,1,120,2|8
359,223,115527,1,0
232,332,115995,5,0
148,324,116230,2,0,B|120:306|83:315|83:315|94:281|57:252|57:252,1,120,8|0
104,100,117167,5,8
180,136,117402,2,0,B|208:96|208:96,4,30,0|8|0|8|0
128,204,118105,1,8
288,260,118574,6,0,B|292:180|312:136|312:136,1,120,0|8
452,56,119511,2,0,B|448:136|428:180|428:180,1,120,0|8
276,108,120449,2,0,B|136:112|136:112,2,120,2|10|2
360,108,121620,1,0
444,108,121855,1,10
444,108,122324,6,0,B|456:200|452:240|452:240,2,120,6|8|0
288,44,123730,1,10
288,44,123964,1,0
204,48,124199,1,2
76,156,124667,2,0,B|88:248|84:288|84:288,2,120,8|2|10
220,68,126074,5,2
232,152,126308,1,0
244,236,126542,1,10
392,316,127011,5,2
380,232,127245,1,0
368,148,127479,1,10
248,32,127949,6,0,B|184:32|184:32,1,60,2|2
220,108,128417,2,0,B|160:108|160:108|156:108,1,60,10|0
192,184,128886,2,0,B|116:184|116:184,1,60,0|2
164,260,129355,2,2,B|36:260|36:260,1,120,10|6
48,92,130292,5,8
48,92,130761,1,0
116,40,130995,1,0
196,68,131230,1,8
176,236,131699,6,0,B|308:240|308:240,1,120,0|8
424,352,132636,2,0,B|428:220|428:220,1,120,0|8
344,84,133574,5,0
344,84,134042,1,8
196,164,134511,2,0,B|132:152|132:152,2,60,0|0|8
340,252,135449,5,0
344,84,135917,1,8
196,164,136386,1,0
340,252,136855,2,2,B|276:132|276:132,1,120,0|4
92,72,152324,5,0
92,72,153027,2,0,B|224:68|224:68,1,120
296,64,153730,1,8
408,188,154199,5,0
408,188,154902,2,0,B|276:192|276:192,1,120
204,196,155605,1,8
112,336,156074,5,0
112,336,156777,2,0,B|244:332|244:332,1,120
316,328,157480,1,8
464,248,157949,6,0,B|456:140|456:140,2,90
380,252,158886,1,8
296,260,159120,1,0
296,260,159355,1,8
172,144,159824,6,0,B|208:212|200:272|132:308|132:308,1,180
12,192,160995,1,0
12,192,161230,1,8
100,48,161699,6,0,B|168:12|228:20|264:88|264:88,1,180
160,216,162870,1,0
160,216,163105,1,8
320,248,163574,6,0,B|252:284|188:280|156:208|156:208,1,180
256,80,164745,1,0
256,80,164980,1,8
424,100,165449,5,0
328,184,165800,1,0
256,80,166152,1,0
256,80,166620,2,0,B|212:72|212:72,5,30,2|2|2|2|2|2
226,74,167324,6,0,B|192:204|192:204,1,120,4|10
172,272,168027,1,2
76,128,168495,5,0
76,128,168730,2,0,B|42:258|42:258,1,120,10|2
192,332,169667,5,8
192,332,169902,1,2
276,324,170136,1,0
224,164,170605,5,10
224,164,170839,1,0
212,80,171074,1,2
380,104,171542,5,8
380,104,171777,1,2
280,240,172245,1,0
280,240,172480,1,10
448,256,172949,6,2,B|448:296|428:336|428:336,2,60,0|0|8
364,236,173652,2,0,B|364:196|384:156|384:156,2,60,2|0|2
280,240,174355,2,0,B|280:280|260:320|260:320,2,60,10|0|6
308,76,175292,5,8
308,76,175527,1,0
460,148,175995,1,2
460,148,176230,1,8
392,300,176699,1,2
240,228,177167,5,8
168,272,177402,2,0,B|120:260|120:260,1,30,0|8
128,180,177753,2,0,B|80:180|80:180,1,30,8|0
32,236,178105,1,10
32,236,178574,6,2,B|24:104|24:104,1,120,2|8
20,32,179277,1,2
180,84,179745,1,2
180,84,179980,1,8
248,132,180214,1,0
220,212,180449,6,0,B|360:200|360:200,2,120,0|8|0
264,52,181855,1,8
420,112,182324,6,0,B|444:90|482:93|482:93|466:61|498:27|498:27,1,120,6|8
487,41,183027,1,0
320,44,183495,5,2
320,44,183730,2,0,B|184:48|184:48,1,120,10|2
100,184,184667,2,0,B|228:180|228:180,2,120,8|2|10
72,348,186074,6,0,B|136:344|136:344,1,60,2|0
131,344,186542,1,10
260,236,187011,6,0,B|196:240|196:240,1,60,0|2
200,239,187479,1,10
56,152,187949,6,2,B|124:148|124:148,1,60
128,232,188417,2,0,B|196:228|196:228,1,60,8|2
196,312,188886,2,2,B|264:308|264:308,2,60,0|0|10
28,332,189824,6,2,B|20:200|20:200,1,120,0|8
12,128,190527,1,0
156,44,190995,5,2
156,44,191230,2,0,B|164:168|164:168,1,120,8|2
296,268,192167,5,8
252,196,192402,2,0,B|256:152|256:152,1,30,2|8
332,160,192753,2,0,B|336:116|336:116,1,30,8|0
340,48,193105,1,8
452,184,193574,6,2,B|464:316|464:316,1,120,0|8
462,303,194277,1,2
312,228,194745,1,2
256,288,194980,1,8
256,288,195449,5,2
160,192,195917,5,8
256,96,196386,5,2
352,192,196855,5,8
352,192,197089,1,2
352,192,197324,1,2
