osu file format v9

[General]
AudioFilename: 04 - Fly.mp3
AudioLeadIn: 1500
PreviewTime: 46386
Countdown: 0
SampleSet: Normal
StackLeniency: 0.7
Mode: 0
LetterboxInBreaks: 1

[Editor]
Bookmarks: 17324,32324,47324,62324,77324,92324,107324,122324,137324,152324,167324,182324
DistanceSpacing: 1
BeatDivisor: 4
GridSize: 4

[Metadata]
Title:Fly
Artist:Epik High
Creator:yeahyeahyeahhh
Version:Relax
Source:
Tags:Tablo Mithra Jin DJ Tukutz Black Swan Songs Rap Hip Hop Kpop Amin J Soulciety Nexy

[Difficulty]
HPDrainRate:3
CircleSize:3
OverallDifficulty:4
ApproachRate:5
SliderMultiplier:1
SliderTickRate:2

[Events]
//Background and Video events
0,0,"bg.png"
//Break Periods
2,2524,15186
2,137523,151124
//Storyboard Layer 0 (Background)
//Storyboard Layer 1 (Fail)
//Storyboard Layer 2 (Pass)
//Storyboard Layer 3 (Foreground)
Sprite,Foreground,Centre,"Mapped.png",320,240 M,1,137324,137441,-89,273,248,273 F,1,137324,137441,0,1 F,0,138730,138788,1,0.4 F,0,138847,138906,1,0.4 F,0,138964,139023,1,0.4 F,0,139081,139140,1,0.4 F,0,139199,144824,1 M,1,144824,144941,248,273,585,273 F,1,144824,144941,1,0
Sprite,Foreground,Centre,"by.png",320,240 M,1,137792,137909,315,501,315,323 F,1,137792,137909,0,1 F,0,138730,138788,1,0.4 F,0,138847,138906,1,0.4 F,0,138964,139023,1,0.4 F,0,139081,139140,1,0.4 F,0,139199,144824,1 M,1,145292,145409,315,323,315,145 F,1,145292,145409,1,0
Sprite,Foreground,Centre,"yyy.png",320,240 M,1,138261,138378,794,376,461,376 F,1,138261,138378,0,1 F,0,138730,138788,1,0.4 F,0,138847,138906,1,0.4 F,0,138964,139023,1,0.4 F,0,139081,139140,1,0.4 F,0,139199,144824,1 M,1,145761,145878,461,376,128,376 F,1,145761,145878,1,0
Sprite,Foreground,Centre,"Mapped.png",320,240 M,0,139667,,248,273 F,0,139667,139784,1,0 S,0,139667,139784,1,1.1 F,0,140605,140722,1,0 S,0,140605,140722,1,1.1 F,0,141542,141659,1,0 S,0,141542,141659,1,1.1 F,0,142480,142597,1,0 S,0,142480,142597,1,1.1 F,0,143417,143534,1,0 S,0,143417,143534,1,1.1 F,0,144355,144472,1,0 S,0,144355,144472,1,1.1
Sprite,Foreground,Centre,"by.png",320,240 M,0,139667,,315,323 F,0,139667,139784,1,0 S,0,139667,139784,1,1.1 F,0,140605,140722,1,0 S,0,140605,140722,1,1.1 F,0,141542,141659,1,0 S,0,141542,141659,1,1.1 F,0,142480,142597,1,0 S,0,142480,142597,1,1.1 F,0,143417,143534,1,0 S,0,143417,143534,1,1.1 F,0,144355,144472,1,0 S,0,144355,144472,1,1.1
Sprite,Foreground,Centre,"yyy.png",320,240 M,0,139667,,461,376 F,0,139667,139784,1,0 S,0,139667,139784,1,1.1 F,0,140605,140722,1,0 S,0,140605,140722,1,1.1 F,0,141542,141659,1,0 S,0,141542,141659,1,1.1 F,0,142480,142597,1,0 S,0,142480,142597,1,1.1 F,0,143417,143534,1,0 S,0,143417,143534,1,1.1 F,0,144355,144472,1,0 S,0,144355,144472,1,1.1
//Storyboard Sound Samples
//Background Colour Transformations
3,100,163,162,255

[TimingPoints]
449,468.75,4,1,1,50,1,0
683,-100,4,1,1,55,0,0
1152,-100,4,1,1,60,0,0
1620,-100,4,1,1,65,0,0
2089,-100,4,1,1,70,0,0
16386,-100,4,1,1,70,0,0
27636,-100,4,2,1,80,0,0
28222,-100,4,1,1,70,0,0
43105,-100,4,2,1,80,0,0
43339,-100,4,1,1,70,0,0
47324,-100,4,1,1,70,0,1
54355,-100,4,1,1,70,0,0
54824,-100,4,1,1,70,0,1
61855,-100,4,1,1,70,0,0
62324,-100,4,1,1,70,0,1
69706,-100,4,1,1,70,0,0
69824,-100,4,1,1,70,0,1
77324,-100,4,2,1,50,0,0
79081,-100,4,1,1,50,0,0
79316,-100,4,2,1,50,0,0
80956,-100,4,1,1,50,0,0
81191,-100,4,2,1,50,0,0
82949,-100,4,1,1,50,0,0
83769,-100,4,2,1,50,0,0
84824,-100,4,1,1,50,0,0
84941,-100,4,2,1,50,0,0
86699,-100,4,1,1,50,0,0
86816,-100,4,2,1,50,0,0
88574,-100,4,1,1,50,0,0
88691,-100,4,2,1,50,0,0
90449,-100,4,1,1,50,0,0
91855,-100,4,1,1,70,0,0
102636,-100,4,2,1,80,0,0
103222,-100,4,1,1,70,0,0
107324,-100,4,1,1,70,0,1
114355,-100,4,1,1,70,0,0
114824,-100,4,1,1,70,0,1
121855,-100,4,1,1,70,0,0
122324,-100,4,1,1,70,0,1
129706,-100,4,1,1,70,0,0
129824,-100,4,1,1,70,0,1
137324,-100,4,1,1,70,0,0
166620,-100,4,2,1,50,0,0
167324,-100,4,1,1,70,0,1
174355,-100,4,1,1,70,0,0
174824,-100,4,1,1,70,0,1
181855,-100,4,1,1,70,0,0
182324,-100,4,1,1,70,0,1
189355,-100,4,1,1,70,0,0
189824,-100,4,1,1,70,0,1
197324,-100,4,1,1,70,0,0

[Colours]
Combo1 : 17,254,176
Combo2 : 173,255,95
Combo3 : 255,88,100
Combo4 : 255,94,55

[HitObjects]
80,212,449,6,0,B|76:96|76:96,1,100,0|0
160,60,1386,2,0,B|164:196|164:196,1,100,0|2
252,204,2324,5,4
440,212,16386,6,0,B|388:180|312:188|312:188,2,100,0|0|0
368,280,17792,1,8
368,280,18027,1,0
284,332,18495,5,0
284,332,18730,2,0,B|272:196|272:196,1,100,8|0
196,168,19667,1,8
292,128,20136,5,0
292,128,20370,2,0,B|356:124|356:124,1,50,0|8
384,36,21074,6,0,B|268:40,1,100,0|8
200,92,22011,2,0,B|64:100|64:100,1,100,0|8
52,200,22949,5,0
132,260,23417,1,8
204,192,23886,2,0,B|324:180|324:180,1,100,0|8
404,172,24824,6,0,B|424:232|416:312|416:312,1,100,0|8
417,270,25527,1,0
328,316,25995,2,0,B|320:292|321:266,1,50,0|8
304,180,26699,5,0
404,172,27167,1,8
348,92,27636,2,0,B|244:104|148:92,1,200,2|0
52,116,29042,5,8
128,184,29511,1,0
32,212,29980,1,8
104,280,30449,2,0,B|124:336|104:380,1,100,0|8
200,340,31386,6,0,B|230:331|256:382|254:325|288:316,2,100,0|8|0
220,240,32792,6,0,B|172:168|196:84,1,150,8|0
193,97,33730,1,8
264,28,34199,1,0
360,60,34667,2,0,B|408:132|384:216,1,150,8|0
387,203,35605,1,8
316,272,36074,5,0
376,352,36542,2,0,B|508:364|508:364,2,100,8|0|8
436,272,37949,2,0,B|448:140|448:140,1,100,0|8
352,212,38886,2,0,B|220:200|220:200,1,100,0|8
152,196,39824,6,0,B|120:252|152:300,1,100,4|8
146,291,40527,1,0
248,292,40995,2,0,B|228:360|228:360,1,50,0|8
140,380,41699,5,0
56,332,42167,1,8
68,232,42636,2,0,B|144:148|96:44,1,200,0|0
196,56,44042,6,0,B|348:48,1,150,8|0
345,48,44980,1,8
276,136,45449,2,0,B|284:252,1,100,0|8
384,220,46386,6,0,B|413:229|405:286|436:238|469:250,2,100,0|8|6
424,128,47792,1,8
424,128,48027,1,0
320,100,48495,5,0
320,100,48730,2,0,B|212:156|140:72,1,200,8|8
40,184,50370,1,0
40,184,50605,1,8
128,228,51074,6,0,B|227:222,1,100,2|8
268,312,52011,2,0,B|168:317,1,100,2|8
128,228,52949,1,2
220,188,53417,1,8
312,224,53886,6,0,B|341:215|368:266|365:209|399:199,2,100,2|10|6
224,276,55292,1,8
224,276,55527,1,0
132,236,55995,5,0
132,236,56230,2,8,B|72:144|136:44,1,200
280,84,57870,1,0
280,84,58105,1,8
288,184,58574,6,0,B|268:240|272:304,2,100,0|8|0
380,148,59980,1,8
476,120,60449,2,0,B|472:42|456:4,2,100,0|10|2
380,148,61855,1,10
444,224,62324,6,0,B|508:228|508:228,3,50,6|0|8|2
468,324,63495,5,0
468,324,63730,1,10
372,292,64199,2,2,B|252:268,1,100,2|8
248,176,65136,2,2,B|344:196,1,100,2|10
388,104,66074,6,0,B|417:95|444:146|441:89|475:79,2,100,2|10|2
312,36,67480,1,10
296,136,67949,6,0,B|284:240,1,100,0|8
284,236,68652,1,0
196,284,69120,1,0
196,284,69355,1,8
112,232,69824,6,0,B|44:236|44:236,3,50,4|0|8|0
96,140,70995,5,0
96,140,71230,2,0,B|200:136,1,100,8|0
276,80,72167,2,0,B|284:192,1,100,8|0
200,236,73105,1,8
288,280,73574,6,0,B|322:290|319:347|346:296|375:305,2,100,2|10|2
364,212,74980,1,10
464,188,75449,6,0,B|492:76,2,100,2|2|2
396,116,76855,2,2,B|298:94,1,100,10|0
204,68,77792,5,2
216,168,78261,1,8
96,328,79199,5,0
196,316,79667,2,0,B|295:307,1,100,2|8
396,292,80605,6,0,B|460:288,2,50,2|2|0
332,216,81542,5,2
296,308,82011,1,8
116,220,82949,6,0,B|104:180|108:128,2,75
116,220,83886,1,8
208,180,84355,5,8
208,180,84589,1,8
208,180,84824,2,0,B|252:160|312:164,1,100,0|2
360,80,85761,1,8
480,240,86699,6,0,B|484:344|484:344,2,100,0|2|8
392,288,88105,6,0,B|328:288|328:288,2,50,0|2|0
392,188,89042,2,0,B|392:124|392:124,2,50,0|2|8
292,208,89980,5,0
192,196,90449,2,0,B|88:192,2,100
228,288,91855,6,0,B|220:360,2,50,8|0|4
292,208,92792,1,8
256,116,93261,1,0
192,196,93730,1,8
292,208,94199,6,0,B|391:202,1,100,0|8
391,201,94902,1,0
472,260,95370,1,0
472,260,95605,1,8
380,296,96074,6,0,B|368:352,2,50,0|0|8
448,224,97011,2,0,B|460:168,2,50,0|0|8
380,296,97949,6,0,B|276:300,1,100,0|8
180,300,98886,2,0,B|156:228|164:172|164:172,1,100,0|8
164,100,99824,5,4
244,40,100292,1,8
256,144,100761,2,0,B|316:152|316:152,2,50,0|0|8
164,100,101699,5,0
76,52,102167,1,8
76,152,102636,2,0,B|71:218|71:218,2,50,2|2|8
176,160,103574,6,0,B|184:84|184:84,2,50,0|0|8
160,260,104511,1,0
228,336,104980,1,8
328,340,105449,6,0,B|448:324,1,100,0|8
404,228,106386,6,0,B|431:219|458:270|455:213|489:203,2,100,0|8|6
304,240,107792,1,8
304,240,108027,1,0
204,228,108495,5,0
204,228,108730,2,0,B|260:120|176:48,1,200,8|8
80,164,110370,1,0
80,164,110605,1,8
156,232,111074,6,0,B|255:226,1,100,2|8
340,172,112011,2,0,B|345:272,1,100,2|8
256,316,112949,1,2
348,360,113417,1,8
424,304,113886,6,0,B|453:295|480:346|477:289|511:279,2,100,2|10|6
452,208,115292,1,8
452,208,115527,1,0
356,188,115995,5,0
356,188,116230,2,8,B|247:171|215:56,1,200
364,28,117870,1,0
364,28,118105,1,8
400,120,118574,6,0,B|456:100|520:104,2,100,0|8|0
316,176,119980,1,8
232,228,120449,2,0,B|211:237|133:241,2,100,0|10|2
316,176,121855,1,10
324,276,122324,6,0,B|328:340|328:340,3,50,6|0|8|2
424,296,123495,5,0
424,296,123730,1,10
388,204,124199,2,2,B|268:180,1,100,2|8
220,112,125136,2,2,B|200:208,1,100,2|10
212,308,126074,6,0,B|183:299|156:350|159:293|125:283,2,100,2|10|2
296,256,127480,1,10
396,260,127949,6,0,B|384:364,1,100,0|8
384,360,128652,1,0
284,344,129120,1,0
284,344,129355,1,8
184,352,129824,6,0,B|116:356|116:356,3,50,4|0|8|0
160,260,130995,5,0
160,260,131230,2,0,B|156:156,1,100,8|0
64,124,132167,2,0,B|68:236,2,100,8|0|8
148,68,133574,6,0,B|175:59|202:110|199:53|233:43,2,100,2|10|2
56,28,134980,1,10
64,128,135449,6,0,B|36:240,2,100,2|2|2
140,192,136855,2,2,B|238:214,1,100,10|4
92,72,152324,6,0,B|104:240,2,150,0|0|8
180,120,154199,2,0,B|192:288,2,150,0|0|8
268,76,156074,6,0,B|436:64,2,150,0|0|8
304,168,157949,6,0,B|321:166|229:174,2,75
404,156,159120,1,0
404,156,159355,1,8
480,224,159824,6,0,B|516:292|508:352|440:388|440:388,1,150
400,292,160995,1,0
400,292,161230,1,8
333,217,161699,6,0,B|296:248|288:308|324:356,1,150
400,292,162870,1,0
400,292,163105,1,8
408,192,163574,6,0,B|420:24,1,150
324,12,164745,1,0
324,12,164980,1,8
292,108,165449,6,0,B|196:124,2,75
144,308,167324,6,0,B|115:299|88:350|91:293|57:283,1,100,6|8
59,283,168027,1,2
128,212,168495,5,0
128,212,168730,2,0,B|244:204,1,100,10|2
328,192,169667,2,0,B|392:188,2,50,10|0|2
284,284,170605,1,10
376,328,171074,5,2
464,284,171542,1,8
464,284,171777,1,2
380,232,172245,1,0
380,232,172480,1,10
436,148,172949,6,2,B|436:108|456:68|456:68,2,50,0|0|8
436,148,173652,1,2
340,124,174120,1,0
340,124,174355,1,10
244,148,174824,6,0,B|215:139|188:190|191:133|157:123,1,100,6|8
158,123,175527,1,2
64,88,175995,5,0
64,88,176230,2,0,B|72:204,1,100,10|2
84,288,177167,2,0,B|88:352,2,50,10|0|2
164,228,178105,1,10
264,236,178574,6,2,B|272:368|272:368,1,100,2|8
270,335,179277,1,2
172,348,179745,1,2
172,348,179980,1,8
164,248,180449,6,0,B|24:260|24:260,2,100,2|10|2
264,236,181855,1,10
364,232,182324,6,0,B|398:242|395:299|422:248|451:257,1,100,6|8
449,256,183027,1,2
428,160,183495,5,2
428,160,183730,2,0,B|424:24|424:24,1,100,8|2
336,104,184667,2,0,B|208:108|208:108,2,100,8|2|10
340,204,186074,6,0,B|320:260,2,50,0|2|0
420,264,187011,2,0,B|440:320,2,50,0|2|0
348,332,187949,6,0,B|296:360,2,50,2|2|8
348,332,188652,1,2
420,264,189120,1,0
420,264,189355,1,10
324,240,189824,6,2,B|224:216,1,100,6|8
228,216,190527,1,2
148,144,190995,5,2
148,144,191230,2,0,B|124:256,1,100,8|2
204,304,192167,5,8
204,304,192402,1,0
304,288,192870,1,0
304,288,193105,1,8
404,296,193574,6,0,B|428:176,2,100,2|10|2
404,296,194745,1,0
404,296,194980,1,10
304,288,195449,5,2
204,304,195917,1,10
104,288,196386,1,2
164,208,196855,2,0,B|152:144,2,50,2|2|2
