osu file format v9

[General]
AudioFilename: 04 - Fly.mp3
AudioLeadIn: 1500
PreviewTime: 46386
Countdown: 0
SampleSet: Normal
StackLeniency: 0.7
Mode: 0
LetterboxInBreaks: 1

[Editor]
Bookmarks: 17324,32324,47324,62324,77324,92324,107324,122324,137324,152324,167324,182324,197324
DistanceSpacing: 1
BeatDivisor: 4
GridSize: 4

[Metadata]
Title:Fly
Artist:Epik High
Creator:yeahyeahyeahhh
Version:Fly
Source:
Tags:Tablo Mithra Jin DJ Tukutz Black Swan Songs Rap Hip Hop Kpop Amin J Soulciety Nexy

[Difficulty]
HPDrainRate:6
CircleSize:4
OverallDifficulty:8
ApproachRate:8
SliderMultiplier:2
SliderTickRate:2

[Events]
//Background and Video events
0,0,"bg.png"
//Break Periods
2,2524,15636
2,137523,151574
//Storyboard Layer 0 (Background)
//Storyboard Layer 1 (Fail)
//Storyboard Layer 2 (Pass)
//Storyboard Layer 3 (Foreground)
Sprite,Foreground,Centre,"Mapped.png",320,240 M,1,137324,137441,-89,273,248,273 F,1,137324,137441,0,1 F,0,138730,138788,1,0.4 F,0,138847,138906,1,0.4 F,0,138964,139023,1,0.4 F,0,139081,139140,1,0.4 F,0,139199,144824,1 M,1,144824,144941,248,273,585,273 F,1,144824,144941,1,0
Sprite,Foreground,Centre,"by.png",320,240 M,1,137792,137909,315,501,315,323 F,1,137792,137909,0,1 F,0,138730,138788,1,0.4 F,0,138847,138906,1,0.4 F,0,138964,139023,1,0.4 F,0,139081,139140,1,0.4 F,0,139199,144824,1 M,1,145292,145409,315,323,315,145 F,1,145292,145409,1,0
Sprite,Foreground,Centre,"yyy.png",320,240 M,1,138261,138378,794,376,461,376 F,1,138261,138378,0,1 F,0,138730,138788,1,0.4 F,0,138847,138906,1,0.4 F,0,138964,139023,1,0.4 F,0,139081,139140,1,0.4 F,0,139199,144824,1 M,1,145761,145878,461,376,128,376 F,1,145761,145878,1,0
Sprite,Foreground,Centre,"Mapped.png",320,240 M,0,139667,,248,273 F,0,139667,139784,1,0 S,0,139667,139784,1,1.1 F,0,140605,140722,1,0 S,0,140605,140722,1,1.1 F,0,141542,141659,1,0 S,0,141542,141659,1,1.1 F,0,142480,142597,1,0 S,0,142480,142597,1,1.1 F,0,143417,143534,1,0 S,0,143417,143534,1,1.1 F,0,144355,144472,1,0 S,0,144355,144472,1,1.1
Sprite,Foreground,Centre,"by.png",320,240 M,0,139667,,315,323 F,0,139667,139784,1,0 S,0,139667,139784,1,1.1 F,0,140605,140722,1,0 S,0,140605,140722,1,1.1 F,0,141542,141659,1,0 S,0,141542,141659,1,1.1 F,0,142480,142597,1,0 S,0,142480,142597,1,1.1 F,0,143417,143534,1,0 S,0,143417,143534,1,1.1 F,0,144355,144472,1,0 S,0,144355,144472,1,1.1
Sprite,Foreground,Centre,"yyy.png",320,240 M,0,139667,,461,376 F,0,139667,139784,1,0 S,0,139667,139784,1,1.1 F,0,140605,140722,1,0 S,0,140605,140722,1,1.1 F,0,141542,141659,1,0 S,0,141542,141659,1,1.1 F,0,142480,142597,1,0 S,0,142480,142597,1,1.1 F,0,143417,143534,1,0 S,0,143417,143534,1,1.1 F,0,144355,144472,1,0 S,0,144355,144472,1,1.1
//Storyboard Sound Samples
//Background Colour Transformations
3,100,163,162,255

[TimingPoints]
449,468.75,4,1,0,50,1,0
800,-100,4,1,0,55,0,0
1269,-100,4,1,0,60,0,0
1738,-100,4,1,0,65,0,0
2206,-100,4,1,0,70,0,0
27519,-100,4,2,0,80,0,0
28222,-100,4,1,0,70,0,0
42519,-100,4,2,0,80,0,0
43222,-100,4,1,0,70,0,0
47324,-100,4,1,0,70,0,1
54355,-100,4,1,0,70,0,0
54824,-100,4,1,0,70,0,1
61855,-100,4,1,0,70,0,0
62324,-100,4,1,0,70,0,1
69706,-100,4,1,0,70,0,0
69824,-100,4,1,0,70,0,1
77324,-133.333333333333,4,1,0,50,0,0
77441,-133.333333333333,4,2,0,50,0,0
78144,-133.333333333333,4,1,0,50,0,0
78378,-133.333333333333,4,2,0,50,0,0
79081,-133.333333333333,4,1,0,50,0,0
79316,-133.333333333333,4,2,0,50,0,0
80019,-133.333333333333,4,1,0,50,0,0
80253,-133.333333333333,4,2,0,50,0,0
80956,-133.333333333333,4,1,0,50,0,0
81425,-133.333333333333,4,2,0,50,0,0
81894,-133.333333333333,4,1,0,50,0,0
82128,-133.333333333333,4,2,0,50,0,0
82831,-133.333333333333,4,1,0,50,0,0
84003,-133.333333333333,4,2,0,50,0,0
84238,-133.333333333333,4,1,0,50,0,0
84941,-133.333333333333,4,2,0,50,0,0
85644,-133.333333333333,4,1,0,50,0,0
85878,-133.333333333333,4,2,0,50,0,0
86581,-133.333333333333,4,1,0,50,0,0
86816,-133.333333333333,4,2,0,50,0,0
87519,-133.333333333333,4,1,0,50,0,0
87753,-133.333333333333,4,2,0,50,0,0
88456,-133.333333333333,4,1,0,50,0,0
88925,-133.333333333333,4,2,0,50,0,0
89394,-133.333333333333,4,1,0,50,0,0
89628,-133.333333333333,4,2,0,50,0,0
90331,-133.333333333333,4,1,0,50,0,0
91972,-100,4,1,0,70,0,0
107324,-100,4,1,0,70,0,1
114355,-100,4,1,0,70,0,0
114824,-100,4,1,0,70,0,1
121855,-100,4,1,0,70,0,0
122324,-100,4,1,0,70,0,1
129706,-100,4,1,0,70,0,0
129824,-100,4,1,0,70,0,1
137324,-100,4,1,0,70,0,0
167324,-100,4,1,0,70,0,1
174355,-100,4,1,0,70,0,0
174824,-100,4,1,0,70,0,1
181855,-100,4,1,0,70,0,0
182324,-100,4,1,0,70,0,1
189355,-100,4,1,0,70,0,0
189824,-100,4,1,0,70,0,1
197324,-100,4,1,0,70,0,0

[Colours]
Combo1 : 17,254,176
Combo2 : 173,255,95
Combo3 : 255,88,100
Combo4 : 255,94,55

[HitObjects]
80,44,449,2,0,B|84:160,1,100
200,88,917,2,0,B|312:84,1,100
432,340,1386,2,0,B|428:224,1,100
312,296,1854,2,0,B|200:300,1,100,2|0
256,192,2324,5,4
84,200,16386,5,0
428,184,16855,1,0
256,48,17324,1,2
252,148,17558,6,0,B|248:248,2,100,0|8|0
340,104,18261,1,0
416,168,18495,6,0,B|476:152,2,50,0|0|8
336,224,18964,2,0,B|276:208,2,50
420,280,19433,1,0
496,216,19667,5,8
496,188,19784,1,0
496,156,19902,1,0
496,128,20019,1,0
496,100,20136,1,0
412,32,20370,1,0
308,72,20605,1,8
308,72,21074,6,0,B|176:76,1,100,2|0
124,144,21542,1,8
124,144,21659,1,0
124,144,21777,1,0
124,144,21894,1,0
124,144,22011,1,0
124,252,22245,1,0
224,300,22480,1,8
324,228,22714,6,0,B|216:224,1,100,2|0
12,188,23183,2,0,B|120:184,1,100,0|8
200,132,23652,2,0,B|204:76,2,50,2|0|0
200,132,24120,1,0
192,232,24355,1,8
320,312,24589,5,2
416,280,24824,1,0
512,312,25058,1,2
512,312,25175,1,0
512,312,25292,1,8
416,360,25527,5,2
416,360,25644,1,0
416,360,25761,1,0
416,360,25878,1,0
416,360,25995,2,0,B|420:224,1,100,2|8
420,228,26347,1,0
228,280,26699,5,0
136,316,26933,2,0,B|76:324,1,50,0|0
44,228,27284,2,0,B|104:236,1,50
184,192,27636,5,2
312,212,27870,1,2
344,84,28105,1,8
220,48,28339,1,0
260,140,28574,6,0,B|236:256,1,100,2|0
239,237,28925,1,0
239,237,29042,1,8
239,237,29159,1,0
239,237,29277,1,0
332,280,29511,6,0,B|356:328,2,50
424,236,29980,1,8
420,136,30214,1,2
328,172,30449,5,0
332,68,30683,1,0
332,68,30800,1,0
332,68,30917,1,8
232,136,31152,1,2
328,172,31386,6,0,B|404:96|512:148,1,200,2|10
328,172,32324,2,0,B|256:88|144:124,1,200,2|8
80,196,33027,5,0
80,196,33144,1,0
80,196,33261,1,0
152,268,33495,1,0
152,268,33613,1,0
152,268,33730,1,8
272,188,33964,5,2
272,188,34199,2,0,B|168:176,1,100
108,100,34667,1,8
108,100,34784,1,0
108,100,34902,1,0
108,100,35019,1,0
108,100,35136,1,0
208,88,35370,5,0
308,96,35605,2,0,B|428:92,1,100,8|2
488,152,36074,1,0
496,252,36308,1,0
420,316,36542,5,8
400,224,36777,2,0,B|388:164,2,50
324,288,37245,2,0,B|272:296,2,50,0|0|8
496,252,37714,1,2
308,184,37949,5,0
488,152,38183,1,0
488,152,38300,1,0
488,152,38417,1,8
392,124,38652,1,2
308,184,38886,6,8,B|192:196,1,100,0|2
48,92,39355,2,0,B|164:80,1,100,8|2
112,172,39824,6,2,B|140:376,1,200,0|10
372,332,40527,1,0
240,224,40761,2,0,B|256:328,2,100,0|0|8
220,124,41464,5,2
492,152,41699,1,0
304,24,41933,1,0
416,256,42167,1,8
432,36,42402,1,0
284,244,42636,1,2
364,92,42870,2,0,B|352:212,1,100,2|8
192,248,43339,6,0,B|72:236,1,100,2|0
48,148,43808,2,0,B|36:88,2,50,0|0|8
128,88,44277,2,0,B|136:40,2,50
220,124,44745,5,0
220,124,44863,1,0
220,124,44980,1,8
144,188,45214,1,2
144,188,45331,1,0
144,188,45449,1,0
236,228,45683,6,0,B|240:280,2,50,0|0|8
312,164,46152,1,2
220,124,46386,6,0,B|144:48|36:100,1,200,2|10
220,124,47324,2,0,B|292:40|404:76,1,200,6|8
468,152,48027,6,0,B|503:260|419:332,1,200,0|0
320,336,48730,1,10
248,268,48964,1,2
292,180,49199,6,0,B|396:180|396:180,2,100,0|0|8
208,240,49902,1,0
208,240,50019,1,8
280,312,50253,1,8
280,312,50370,1,0
304,216,50605,1,8
232,144,50839,5,2
136,176,51074,1,0
208,240,51308,1,0
120,276,51542,1,8
136,176,51777,1,2
44,216,52011,2,0,B|37:116,2,100,0|0|8
44,216,52714,1,2
32,316,52949,5,0
116,372,53183,1,2
204,328,53417,1,8
300,348,53652,5,2
300,348,53769,1,0
300,348,53886,2,0,B|376:272|484:324,1,200,2|10
300,348,54824,2,0,B|228:264|116:300,1,200,6|8
40,236,55527,6,0,B|4:127|88:55,1,200,0|0
184,32,56230,1,10
268,84,56464,1,2
256,184,56699,6,0,B|248:288,2,100,0|0|8
344,148,57402,1,0
344,148,57519,1,8
436,188,57753,1,8
436,188,57870,1,0
344,228,58105,1,8
432,52,58339,5,2
268,40,58574,1,0
344,148,58808,1,2
344,148,59042,2,8,B|348:48,1,100,8|2
192,52,59511,2,0,B|92:48,1,100,2|0
256,156,59980,2,0,B|252:256,1,100,8|2
296,344,60449,5,0
396,364,60683,1,2
480,308,60917,1,8
380,272,61152,2,0,B|332:264,1,50,2|8
372,172,61503,2,0,B|420:164,1,50,8|2
508,216,61855,1,8
508,216,62324,5,6
256,224,62558,2,0,B|260:112,2,100,2|8|0
256,224,63261,1,2
164,264,63495,5,0
128,172,63730,2,0,B|20:164,1,100,8|2
164,264,64199,2,0,B|272:272,2,100,0|2|8
224,184,64902,5,2
224,184,65019,1,8
196,88,65253,1,8
196,88,65370,1,2
268,20,65605,2,0,B|276:132,1,100,8|2
340,196,66074,6,0,B|386:181|438:203|438:203|460:151|503:130,2,200,2|10|2
340,196,67128,1,0
340,196,67245,1,0
400,104,67480,1,10
376,288,67714,5,0
376,288,67949,2,0,B|276:300,1,100,4|0
276,300,68300,1,0
276,300,68417,1,12
120,320,68652,2,0,B|72:324,2,50,4|0|0
228,232,69120,6,8,B|248:132,1,100,2|8
136,240,69589,2,8,B|96:144,1,100,2|6
340,172,70058,6,0,B|444:184,2,100,2|8|0
340,172,70761,1,2
248,136,70995,5,0
284,44,71230,1,8
376,80,71464,1,2
340,172,71699,2,0,B|368:284,1,100,0|2
360,368,72167,1,8
452,332,72402,6,0,B|504:340,1,50,2|8
480,240,72753,2,0,B|468:188,1,50,8|2
444,96,73105,1,8
348,72,73339,1,2
268,132,73574,6,0,B|219:133|178:172|178:172|139:130|92:125,2,200,2|10|2
268,132,74628,1,0
268,132,74745,1,0
184,64,74980,1,10
92,212,75214,1,0
260,224,75449,6,0,B|396:232,1,100,2|0
180,328,75917,2,0,B|44:336,1,100,10|0
332,328,76386,2,0,B|468:336,1,100,2|0
496,140,76855,2,2,B|288:128,1,200,10|4
148,124,77792,5,2
216,256,78261,1,8
216,256,78495,2,0,B|224:100,1,150.000005722046,2|2
308,208,79199,6,0,B|300:357,1,150.000005722046,0|2
152,332,80136,2,0,B|64:328,1,75.0000028610231,8|2
216,256,80605,5,0
216,256,80839,1,2
216,256,81074,2,0,B|364:268,1,150.000005722046,0|2
484,172,82011,1,8
484,172,82245,1,2
368,76,82714,5,2
368,76,82949,2,0,B|392:208,2,112.500004291535
288,124,83886,2,0,B|204:120,1,75.0000028610231,8|2
304,208,84355,1,8
304,208,84589,1,8
292,292,84824,6,0,B|444:284,2,150.000005722046,4|2|8
292,292,85995,1,2
160,216,86464,5,2
160,216,86699,2,0,B|168:380,1,150.000005722046,0|2
80,228,87636,1,8
80,228,87871,2,0,B|72:64,1,150.000005722046,2|2
148,72,88574,5,0
312,44,89042,1,2
240,200,89511,1,8
240,200,89745,2,0,B|232:48,1,150.000005722046,2|2
320,128,90449,6,0,B|480:120,1,150.000005722046,0|8
400,204,91152,2,0,B|408:320,2,112.500004291535,0|0|8
392,104,92089,5,0
392,104,92206,1,0
392,104,92324,1,6
308,160,92558,1,0
308,160,92675,1,0
220,112,92909,5,0
220,112,93027,1,0
220,112,93144,1,0
220,112,93261,2,0,B|164:108,2,50
300,52,93730,1,8
308,160,93964,5,0
308,160,94081,1,0
308,160,94199,2,0,B|316:272,1,100,2|0
318,289,94550,1,0
408,336,94784,5,0
408,336,94902,1,0
408,336,95019,1,0
408,336,95136,2,0,B|464:332,2,50
320,384,95605,1,8
228,344,95839,1,2
404,240,96074,5,0
220,248,96308,1,0
220,248,96425,1,0
220,248,96542,1,8
304,192,96777,1,2
216,148,97011,5,0
188,136,97128,1,0
160,124,97245,1,0
132,112,97363,1,0
104,100,97480,1,8
68,8,97714,1,2
64,184,97949,6,0,B|72:292,1,100,0|2
71,283,98300,1,0
71,283,98417,1,8
168,252,98652,5,2
168,252,98769,1,0
168,252,98886,1,0
168,252,99003,1,0
168,252,99120,1,0
264,280,99355,1,10
264,104,99589,5,0
168,132,99824,1,2
360,132,100058,1,0
360,252,100292,5,8
360,252,100409,1,0
360,252,100527,1,0
360,252,100644,1,0
360,252,100761,2,0,B|296:324,3,66.6666666666667,0|0|0|8
272,192,101464,5,0
272,192,101581,1,0
272,192,101699,1,2
404,172,101933,5,0
404,172,102050,1,0
404,172,102167,1,8
404,172,102284,1,0
404,172,102402,1,0
404,172,102519,1,0
404,172,102636,2,0,B|416:104,3,66.6666666666667,0|0|0|8
288,104,103339,6,0,B|188:84,1,100,2|0
36,224,103808,2,0,B|136:244,2,100,0|8|0
36,224,104394,1,0
36,224,104511,1,0
108,152,104745,5,0
116,124,104863,1,0
124,96,104980,1,8
132,68,105097,1,0
140,40,105214,1,2
288,104,105448,5,0
236,224,105683,2,0,B|184:184,2,50,0|0|8
332,192,106152,1,2
432,188,106386,6,0,B|493:99|423:2,1,200,2|10
432,188,107324,2,0,B|527:244|511:360,1,200,6|8
424,308,108027,6,0,B|308:292|252:384,1,200,0|0
176,320,108730,2,0,B|80:292,1,100,10|2
40,200,109199,6,0,B|40:96|40:96,2,100,0|0|8
140,184,109902,1,0
140,184,110019,1,8
240,200,110253,1,8
240,200,110370,1,0
208,104,110605,1,8
368,304,110839,6,0,B|472:312|472:312,1,100,2|0
376,200,111308,2,0,B|272:192|272:192,1,100,0|8
384,96,111776,2,0,B|488:104|488:104,2,100,2|0|0
384,96,112480,1,8
280,88,112714,2,2,B|208:144|216:224|280:288|280:288,1,200,2|2
360,296,113417,1,8
332,200,113652,5,2
332,200,113769,1,0
332,200,113886,2,0,B|404:116|516:152,1,200,2|10
332,200,114824,2,0,B|256:124|148:176,1,200,6|8
136,276,115527,6,0,B|212:352|320:300,1,200,0|0
236,240,116230,2,0,B|243:140,2,100,10|2|0
136,220,116933,5,0
336,256,117167,1,8
344,156,117402,1,0
344,156,117519,1,8
424,216,117753,1,8
424,216,117870,2,0,B|304:204,1,100,0|8
184,192,118339,5,2
152,96,118574,1,0
56,136,118808,1,2
56,136,119042,1,8
152,96,119277,5,2
184,192,119511,1,2
88,232,119745,1,0
56,136,119980,1,8
184,56,120214,5,2
232,200,120449,1,0
88,248,120683,1,2
40,104,120917,1,8
128,152,121152,5,2
128,152,121269,1,8
220,116,121503,1,8
220,116,121620,1,2
316,144,121855,1,8
316,144,122324,5,6
448,240,122558,2,0,B|452:352,2,100,2|8|0
448,240,123261,1,2
440,140,123495,5,0
356,192,123730,2,0,B|248:200,1,100,8|2
316,284,124199,2,0,B|208:292,2,100,0|2|8
416,272,124902,5,2
416,272,125019,1,8
356,192,125253,1,8
356,192,125370,1,2
432,32,125605,2,0,B|424:131,1,100,8|2
328,104,126074,6,0,B|282:89|230:111|230:111|208:59|165:38,2,200,2|10|2
328,104,127128,1,0
328,104,127245,1,0
272,20,127480,1,10
148,128,127714,5,0
148,128,127949,2,0,B|68:196,1,100,4|0
72,192,128300,1,0
72,192,128417,1,8
100,288,128652,2,0,B|52:292,2,50,4|0|0
336,252,129120,6,8,B|436:232,1,100,2|8
256,252,129589,2,8,B|156:232,1,100,2|6
72,192,130058,6,8,B|52:92,2,100,2|8|0
156,136,130761,1,2
344,128,130995,5,0
344,128,131230,1,8
252,88,131464,1,2
252,88,131699,2,0,B|256:220,2,100,0|2|8
336,32,132402,5,2
336,32,132519,1,8
424,76,132753,1,8
424,76,132870,1,2
420,176,133105,1,8
332,220,133339,1,2
244,175,133574,6,0,B|197:161|146:185|146:185|122:133|79:114,2,200,2|10|2
244,176,134628,1,0
244,176,134745,1,0
188,96,134980,1,10
248,16,135214,5,0
304,100,135449,2,0,B|440:108,1,100,2|0
212,292,135917,2,0,B|76:300,1,100,10|0
372,228,136386,2,0,B|377:327,1,100,2|0
108,208,136855,2,2,B|16:120|120:0,1,200,10|4
112,300,152324,6,0,B|240:184|388:276,1,300,4|0
387,275,153495,1,0
484,252,153730,1,8
400,84,154199,6,0,B|272:200|124:108,1,300,0|0
125,109,155370,1,0
28,132,155605,1,8
52,36,155839,1,0
152,20,156074,5,0
376,188,156777,1,0
176,204,157245,1,0
276,196,157480,1,8
276,196,157714,1,0
284,296,157949,6,0,B|128:308,2,150,0|0|0
384,288,158886,6,0,B|484:280,1,100,8|0
376,188,159355,2,0,B|276:196,1,100,8|0
448,24,159824,6,0,B|484:324,1,300,4|0
484,322,160995,1,0
384,340,161230,1,8
72,276,161699,6,0,B|372:240,1,300,0|0
369,240,162870,1,0
352,140,163105,2,0,B|340:32,1,100,8|0
432,80,163574,5,0
132,108,164277,1,0
264,260,164745,1,0
260,160,164980,1,8
260,160,165214,1,0
176,216,165449,6,0,B|20:224,2,150
344,204,166386,1,0
260,160,167324,6,2,B|203:63|86:79,1,200,6|8
260,160,168027,2,0,B|347:97|445:167,1,200,0|0
445,167,168730,2,0,B|449:279,1,100,10|0
368,328,169199,5,2
280,284,169433,1,0
360,224,169667,1,8
276,168,169902,1,2
276,168,170019,1,8
360,116,170253,1,8
360,116,170370,1,2
445,167,170605,1,8
204,232,171074,5,0
64,336,171308,2,0,B|176:328,1,100,2|8
112,244,171777,5,0
108,216,171894,1,0
104,188,172011,1,0
100,160,172128,1,0
96,132,172245,1,2
92,100,172363,1,0
88,72,172480,1,8
180,152,172714,6,0,B|284:152,1,100,2|0
416,268,173183,2,0,B|296:268,1,100,2|8
268,356,173652,5,2
268,356,173769,1,8
268,356,173886,1,0
268,356,174003,1,8
268,356,174120,1,2
368,356,174355,1,8
188,232,174824,6,2,B|245:135|362:151,1,200,6|8
188,232,175527,2,0,B|101:169|3:239,1,200,0|0
100,284,176230,2,0,B|104:384,1,100,10|0
196,328,176699,6,0,B|304:324,1,100,0|2
416,220,177167,2,0,B|304:224,1,100,8|2
316,223,177519,1,8
236,160,177753,1,8
236,160,177870,1,2
164,88,178105,6,2,B|120:144|128:224|212:256,1,200,10|0
364,144,178808,2,0,B|360:40,1,100,2|8
444,96,179277,5,2
446,125,179394,1,0
447,154,179511,1,0
448,183,179628,1,0
449,212,179745,1,2
451,242,179863,1,0
452,271,179980,1,8
380,340,180214,5,2
292,292,180449,2,0,B|168:300,1,100,2|0
364,208,180917,2,0,B|488:200,1,100,2|0
276,136,181386,2,0,B|176:140,1,100,2|0
336,48,181855,1,10
336,48,182324,5,6
37,43,182558,2,0,B|41:143,2,100,2|8|2
132,88,183261,1,0
156,192,183495,5,2
156,192,183730,2,0,B|264:184,1,100,8|2
216,276,184199,2,0,B|324:268,2,100,0|2|8
156,192,184902,5,2
156,192,185019,1,8
200,104,185253,1,8
200,104,185370,1,2
264,180,185605,2,0,B|272:280,1,100,8|2
344,352,186074,6,0,B|390:337|442:359|442:359|464:307|507:286,2,200,2|10|2
344,352,187128,1,0
344,352,187245,1,0
404,260,187480,1,10
328,196,187714,5,0
272,280,187949,2,0,B|168:288,2,100,0|2|8
376,264,188652,5,2
404,260,188769,1,8
432,256,188886,1,0
460,252,189003,1,8
488,248,189120,1,2
412,172,189355,1,8
412,172,189824,5,6
88,240,190058,2,0,B|84:352,2,100,2|8|2
88,240,190761,1,0
176,288,190995,6,0,B|284:292,1,100,2|8
284,188,191464,1,2
284,92,191699,2,0,B|392:96,2,100,0|2|8
192,144,192402,5,2
192,144,192519,1,8
284,188,192753,1,8
284,188,192870,1,2
384,172,193105,2,0,B|376:272,1,100,8|2
300,336,193574,6,0,B|254:321|202:343|202:343|180:291|137:270,2,200,2|10|2
300,336,194628,1,0
300,336,194745,1,0
240,252,194980,1,10
332,216,195214,1,0
428,240,195449,6,0,B|432:340,1,100,2|0
312,296,195917,2,0,B|200:300,1,100,10|0
80,44,196386,2,0,B|83:143,1,100,2|0
200,88,196854,2,0,B|312:84,1,100,10|2
256,192,197324,5,2
