osu file format v6

[General]
AudioFilename: Eptdemia - Vernis.mp3
AudioLeadIn: 0
PreviewTime: -1
Countdown: 1
SampleSet: Soft
StackLeniency: 0.7
Mode: 0
LetterboxInBreaks: 1

[Editor]
DistanceSpacing: 1.29999995231628
BeatDivisor: 4
GridSize: 8

[Metadata]
Title:Vernis
Artist:Epidemia
Creator:tieff
Version:Hard
Source:
Tags:

[Difficulty]
HPDrainRate:7
CircleSize:4
OverallDifficulty:6
SliderMultiplier:1.4
SliderTickRate:2

[Events]
//Background and Video events
0,0,"gentlertouchlnm_1024x768.jpg"
//Break Periods
2,143729,148018
2,151114,155403
2,158499,162787
2,165883,170172
2,188037,190480
2,193576,195557
//Storyboard Layer 0 (Background)
//Storyboard Layer 1 (Fail)
//Storyboard Layer 2 (Pass)
//Storyboard Layer 3 (Foreground)
//Storyboard Sound Samples
//Background Colour Transformations
3,100,163,162,255

[TimingPoints]
46607,461.538461538462,4,2,1,60,1,0
79376,-100,4,2,1,0,0,0
79606,-100,4,2,1,60,0,0
113876,-100,4,1,0,60,0,0
113991,-100,4,1,0,60,0,1
114337,-100,4,2,0,60,0,1
114567,-100,4,1,0,60,0,1
115953,-100,4,2,0,64,0,1
117568,-100,4,1,0,40,0,1
117798,-100,4,2,1,64,0,1
119414,-100,4,2,0,64,0,1
119645,-100,4,1,0,49,0,1
119875,-100,4,2,0,64,0,1
120107,-100,4,2,1,64,0,1
120337,-100,4,2,0,64,0,1
120799,-100,4,1,0,64,0,1
120914,-50,4,1,0,64,0,1
121376,-100,4,1,0,64,0,1
121491,-100,4,2,1,64,0,0
128299,-50,4,1,0,64,0,1
128876,-100,4,2,1,64,0,1
135683,-50,4,1,0,64,0,1
136260,-100,4,2,1,64,0,1
143068,-50,4,1,0,64,0,1
143530,-100,4,2,1,64,0,0
150799,-100,4,2,0,64,0,0
151145,-100,4,2,1,60,0,0
158222,-100,4,2,0,60,0,0
158414,-100,4,2,1,50,0,0
165568,-100,4,2,0,50,0,0
165798,-100,4,2,1,50,0,0
187722,-100,4,2,0,50,0,0
187952,-100,4,2,1,50,0,0
196953,-100,4,2,0,50,0,0
197183,-100,4,2,1,50,0,0
200183,-100,4,2,0,50,0,0
200875,-100,4,2,1,50,0,0
203414,-100,4,2,0,50,0,0
203644,-100,4,2,1,50,0,0
205491,-100,4,1,0,20,0,0
205721,-100,4,1,1,30,0,0
205951,-100,4,1,1,40,0,0
206181,-100,4,1,1,50,0,0
206411,-100,4,1,1,60,0,0
206641,-100,4,1,1,69,0,0
206871,-100,4,1,1,80,0,0
207107,-100,4,1,0,60,0,0
207222,-100,4,1,0,60,0,1
207337,-100,4,2,1,60,0,1
212645,-100,4,2,0,60,0,1
212875,-100,4,2,1,60,0,1
213567,-100,4,2,0,60,0,1
213797,-100,4,2,1,60,0,1
214030,-50,4,1,0,60,0,1
214607,-100,4,1,0,60,0,1
214722,-100,4,2,1,60,0,1
221524,-50,4,1,0,60,0,0
222101,-100,4,2,1,60,0,1
228908,-50,4,1,0,60,0,1
229485,-100,4,2,1,60,0,1
236293,-50,4,1,0,60,0,1
236870,-100,4,1,0,60,0,1
243677,-50,4,1,0,60,0,1
244254,-100,4,1,0,60,0,1
247254,-100,4,2,0,60,0,1
249568,-100,4,2,1,60,0,1
250953,-50,4,1,0,60,0,1
251645,-100,4,2,1,44,0,1
256722,-100,4,2,1,31,0,1
257068,-100,4,2,1,44,0,1
258453,-50,4,1,0,30,0,1
259030,-100,4,2,1,30,0,1
264222,-100,4,2,1,20,0,1
266299,-100,4,2,0,20,0,1

[Colours]
Combo1 : 212,212,212
Combo2 : 0,128,255
Combo3 : 0,128,192

[HitObjects]
360,88,46607,1,0
256,120,47068,2,0,B|296:160|272:256,1,140,0|4
216,312,47760,1,0
136,336,47991,1,2
152,256,48222,2,0,B|112:184,1,70,0|4
118,194,48914,5,4
40,160,49145,1,2
112,112,49376,2,0,B|144:40,1,70,4|2
208,96,49837,2,0,B|240:152|240:256,1,140,2|2
232,320,50760,5,0
304,280,50991,1,2
368,224,51222,2,0,B|400:280|384:344,2,105,4|0|0
320,152,52145,2,0,B|248:112|176:104,1,140,4|4
188,105,52837,1,2
104,120,53068,6,0,B|80:168|80:264,1,140,4|2
80,256,53760,1,4
160,248,53991,2,0,B|224:272|272:344,1,140,2|0
328,280,54683,5,0
328,280,54914,1,4
280,208,55145,1,2
368,208,55376,2,0,B|424:248|416:352,1,140,0|4
416,333,56299,5,4
464,264,56530,1,2
480,184,56760,1,4
488,104,56991,1,2
488,104,57222,2,0,B|408:136|336:136,1,140,2|2
352,135,58145,5,0
296,72,58376,1,0
216,88,58607,1,4
208,168,58837,1,0
288,192,59068,2,0,B|288:272|200:328,1,140
144,336,59760,2,0,B|152:248|112:184,1,140
120,199,60453,1,4
48,152,60683,5,2
48,152,60914,1,2
112,96,61145,1,4
192,64,61376,6,0,B|264:40|343:72,1,140,4|0
320,320,62068,2,0,B|248:344|169:312,1,140,2|2
254,195,62760,1,0
96,248,63222,6,0,B|128:312,1,70,2|0
160,144,63683,2,0,B|80:96,1,70,2|0
256,64,64145,2,0,B|344:32,1,70,6|4
321,40,64607,1,4
256,208,65068,12,0,66914
352,88,67607,5,0
352,88,67837,2,0,B|328:144|328:232,1,140,2|0
328,304,68530,1,0
328,304,68760,2,0,B|256:280|176:288,1,140,2|0
112,296,69453,1,2
112,296,69914,1,2
112,296,70145,1,0
80,88,70607,5,0
160,136,70837,1,0
248,160,71068,1,2
336,168,71299,1,4
424,152,71530,2,0,B|384:168|320:264,1,140,4|2
288,328,72222,5,4
232,256,72453,1,2
160,208,72683,1,4
72,176,72914,1,2
72,176,73145,2,0,B|144:160|208:112,1,140,4|4
256,56,73837,1,4
280,136,74068,1,0
344,72,74299,6,0,B|384:128|344:200,2,105,4|0|4
280,136,75222,2,0,B|256:208|320:272,1,140,4|0
312,264,75914,1,4
232,304,76145,6,0,B|160:336,1,70,0|4
80,336,76607,2,0,B|96:256,1,70,4|0
256,208,77068,12,0,79376
392,96,79837,6,0,B|352:160,1,70,4|2
336,248,80299,2,0,B|272:208,1,70,0|4
200,264,80760,2,0,B|184:168|240:112,1,140,4|0
224,130,81683,5,0
136,136,81914,1,2
56,160,82145,1,4
136,136,82376,1,2
56,160,82606,2,0,B|72:216|64:304,1,140,4|0
64,299,83183,1,0
64,299,83299,1,0
144,256,83530,2,0,B|208:264|272:312,1,140,4|4
270,311,84222,5,2
352,344,84453,1,4
336,256,84683,1,2
336,256,84914,2,0,B|392:264|464:328,2,140,2|4|4
248,240,86068,1,2
160,240,86299,1,4
72,256,86530,1,2
128,328,86760,2,4,B|208:320,1,70,4|0
197,321,87222,1,4
376,312,87683,5,2
344,224,87914,1,0
432,248,88145,2,0,B|472:184,1,70,4|2
400,144,88606,2,0,B|336:128|248:136,2,140,0|4|4
464,80,89760,1,2
376,48,89991,2,0,B|328:40|288:40,1,70,4|0
216,48,90453,2,0,B|160:56|120:72,1,70,4|0
72,104,90914,2,4,B|104:144|112:240,1,140,4|0
111,236,91606,5,0
200,264,91837,1,4
200,264,92068,1,4
184,176,92299,2,0,B|240:184|296:232,1,105
278,218,92760,1,4
352,272,92991,1,0
360,184,93222,2,0,B|384:112,1,70,4|0
312,64,93683,2,0,B|264:80|160:80,1,140,4|4
80,72,94376,1,0
80,72,94606,6,0,B|104:144|88:216,1,140,4|2
56,296,95299,1,0
144,272,95530,2,0,B|240:256|304:296,1,140,4|2
360,320,96222,1,0
352,232,96453,2,0,B|376:168|392:80,2,140,4|2|4
360,320,97606,1,4
432,264,97837,1,4
256,208,98299,12,0,99222
256,64,99914,5,2
256,64,100030,1,2
256,64,100145,2,0,B|224:128|232:208,1,140,0|2
312,160,100837,2,0,B|312:240|256:312,1,140,0|2
270,291,101530,1,0
152,248,101991,5,4
152,248,102222,1,4
80,192,102453,1,0
168,160,102683,2,0,B|232:136|296:48,1,140,4|0
276,73,103376,1,4
368,56,103606,1,0
336,144,103837,6,0,B|352:224,2,70,4|2|4
264,200,104530,1,2
176,216,104760,2,0,B|144:144,1,70,4|2
64,192,105222,2,0,B|48:280,1,70,4|2
128,304,105683,5,4
128,304,105914,1,2
216,312,106145,1,0
216,312,106376,1,2
288,264,106606,1,4
288,264,106837,1,2
368,280,107068,1,4
368,280,107183,1,0
368,280,107299,1,2
344,192,107530,5,4
344,192,107645,1,0
344,192,107760,1,2
272,136,107991,2,0,B|232:104,2,35,0|0|2
360,104,108453,1,4
360,104,108568,1,0
360,104,108683,2,0,B|408:112|440:144,1,70,2|0
424,130,109030,1,0
424,130,109145,1,2
424,216,109376,5,4
352,280,109606,1,4
272,320,109837,1,4
184,320,110068,1,0
256,208,110299,12,0,111683
256,64,112145,5,4
288,152,112376,1,0
288,152,112491,1,0
288,152,112606,1,4
200,128,112837,1,4
224,216,113068,1,4
224,216,113183,1,0
224,216,113299,1,0
136,192,113530,1,4
120,104,113760,1,0
48,160,113991,6,0,B|64:224|48:312,1,140,4|2
136,272,114683,2,2,B|192:320|272:328,1,140,2|2
288,240,115376,1,0
288,240,115606,1,0
352,176,115837,1,0
264,152,116068,6,0,B|192:88,2,70,2|0|2
312,72,116760,2,0,B|384:104,2,70,0|2|0
232,32,117453,1,2
144,56,117683,5,4
144,64,117914,1,2
144,72,118145,1,0
144,80,118376,2,0,B|160:160|136:224,1,140,2|2
88,296,119068,1,0
88,296,119299,1,6
176,280,119530,5,4
280,256,119760,1,0
384,248,119991,1,2
328,160,120222,1,4
224,160,120453,1,4
128,192,120683,1,0
152,96,120914,2,2,B|160:88|160:88|168:96|168:96|176:80|176:80|184:88|184:88|192:72|192:72|200:80|200:80|208:64|208:64|216:72|216:72|224:56|224:56|232:64|232:64|240:48|240:48|248:56|248:56|256:40|256:40|264:48|264:48|272:32|272:32|280:40|280:40|288:24|288:24|296:32|296:32|304:16|304:16|312:24,1,280,2|6
392,56,121606,5,2
424,144,121837,2,0,B|376:200,1,70,0|2
368,288,122299,2,0,B|280:256,1,70,4|2
216,240,122760,2,4,B|168:224|120:240,1,70
48,256,123222,6,0,B|32:168,1,70,0|2
160,48,123683,2,0,B|152:128,1,70,0|2
296,248,124145,2,0,B|288:176,1,70,4|2
328,96,124606,5,4
328,96,124837,1,4
408,144,125068,2,0,B|416:232,2,70,4|0|4
376,56,125760,2,0,B|296:32,1,70,0|4
216,32,126222,2,0,B|240:88|224:200,1,140,2|2
216,256,126914,5,4
207,262,127030,1,4
198,268,127145,1,4
189,273,127260,1,4
179,277,127376,1,4
169,280,127491,1,4
158,283,127606,1,4
147,284,127722,1,4
136,284,127837,1,4
125,285,127953,1,4
114,282,128068,1,4
152,192,128299,2,2,B|160:184|160:184|168:192|168:192|176:176|176:176|184:184|184:184|192:168|192:168|200:176|200:176|208:160|208:160|216:168|216:168|224:152|224:152|232:160|232:160|240:144|240:144|248:152|248:152|256:136|256:136|264:144|264:144|272:128|272:128|280:136|280:136|288:120|288:120|296:128|296:128|304:112|304:112|312:120,1,280,2|6
310,118,128991,5,2
328,208,129222,1,0
392,144,129453,2,0,B|472:120,2,70,2|4|2
416,232,130145,1,4
416,232,130376,1,4
352,296,130606,6,0,B|272:296,1,70,0|2
160,184,131068,2,0,B|240:184,1,70,0|2
360,80,131530,2,0,B|280:80,1,70,4|2
200,88,131991,6,0,B|120:32,1,70,0|2
104,128,132453,2,0,B|32:112,1,70,0|2
56,200,132914,2,0,B|80:256|72:344,1,140,0|4
232,256,133837,5,0
320,240,134068,1,4
392,176,134299,1,0
304,144,134530,2,2,B|240:176,1,70,6|6
152,184,134991,1,0
80,240,135222,1,0
72,152,135453,1,6
144,96,135683,2,2,B|152:88|152:88|160:96|160:96|168:80|168:80|176:88|176:88|184:72|184:72|192:80|192:80|200:64|200:64|208:72|208:72|216:56|216:56|224:64|224:64|232:48|232:48|240:56|240:56|248:40|248:40|256:48|256:48|264:32|264:32|272:40|272:40|280:24|280:24|288:32|288:32|296:16|296:16|304:24,1,280,2|6
384,64,136376,5,2
384,240,136606,1,0
384,64,136837,1,2
384,240,137068,1,4
304,200,137299,5,2
296,288,137530,2,0,B|232:264|144:256,1,140
72,264,138222,1,2
104,176,138453,2,0,B|80:96,1,70,0|2
176,128,138914,2,4,B|184:56,1,70,4|2
264,104,139376,5,4
352,120,139606,1,4
440,136,139837,2,0,B|432:216,2,70,4|2|4
408,48,140530,2,0,B|352:32|248:32,1,140,4|4
176,40,141222,1,4
88,72,141453,1,4
160,128,141568,5,0
160,128,141683,2,4,B|192:200|200:288,1,140
232,344,142376,2,4,B|296:288|376:288,1,140
360,200,143068,2,2,B|352:192|352:192|360:184|360:184|344:176|344:176|352:168|352:168|336:160|336:160|344:152|344:152|328:144|328:144|336:136|336:136|320:128|320:128|328:120|328:120|312:112|312:112|320:104|320:104|304:96|304:96|312:88|312:88|296:80|296:80|304:72|304:72|288:64|288:64|296:56|296:56|280:48|280:48|288:40,1,280,2|6
344,72,149068,5,4
344,72,149183,1,4
344,72,149299,1,0
296,144,149530,1,4
384,152,149760,1,4
384,152,149876,1,4
384,152,149991,1,4
472,152,150222,1,4
432,72,150453,1,4
432,72,150683,1,6
384,152,150914,5,4
128,96,156453,5,4
128,104,156607,1,4
128,112,156760,1,4
128,120,156914,1,4
128,128,157068,1,4
128,136,157222,1,4
128,144,157376,5,4
128,152,157530,1,4
128,160,157683,1,4
128,168,157837,1,4
128,176,157991,1,4
128,184,158145,1,4
128,192,158299,5,4
344,104,163837,6,4,B|392:136,2,35
280,168,164299,1,4
256,80,164530,2,4,B|216:72,2,35
280,168,164991,1,4
280,168,165222,2,4,B|264:224,2,35
368,176,165683,5,4
256,208,171222,12,4,173068
368,128,173299,5,2
376,264,173530,1,2
312,136,173760,1,0
320,272,173991,1,8
264,144,174222,1,2
272,280,174453,1,2
208,152,174683,1,4
152,40,174914,6,0,B|72:48,1,70,2|0
120,144,175376,2,0,B|48:160,1,70,2|0
128,240,175837,2,0,B|56:272,1,70,10|0
208,312,176299,2,0,B|136:376,1,70,2|0
328,304,176991,5,2
384,232,177222,1,2
296,224,177453,2,0,B|232:192,1,70,0|8
216,104,177914,2,0,B|128:144,1,70,0|2
120,216,178376,1,0
184,280,178607,2,0,B|120:320,2,70,2|0|2
256,336,179299,1,0
336,296,179530,1,10
408,240,179760,2,0,B|376:216,4,35,0|0|2|0|0
368,64,180683,6,0,B|384:144,1,70,0|2
272,96,181145,2,0,B|280:176,1,70,0|10
176,88,181607,2,0,B|160:176,1,70,0|2
88,64,182068,1,0
72,144,182299,6,0,B|48:232,3,70,2|0|2|0
128,256,183222,1,8
208,240,183453,1,0
256,248,183568,1,0
304,256,183683,1,2
352,264,183799,1,0
400,272,183914,1,0
384,88,184376,5,0
384,88,184607,1,2
296,104,184837,1,0
296,104,185068,1,8
208,120,185299,1,2
208,120,185530,1,0
120,136,185760,1,0
120,136,185991,5,2
32,152,186222,1,0
32,152,186453,1,8
88,224,186683,1,0
176,208,186914,1,8
200,248,187030,1,0
272,192,187260,1,0
296,232,187376,1,8
264,320,187607,1,0
264,320,187837,5,4
256,208,191530,12,0,193376
344,96,196607,5,0
344,96,196837,1,0
344,96,197068,2,0,B|312:152|320:240,1,140,4|2
320,320,197760,1,0
320,320,197991,2,0,B|240:288|152:288,1,140,4|2
96,296,198683,1,0
136,216,198914,2,0,B|120:144,2,70,0|4|2
96,296,199607,1,0
40,224,199837,2,0,B|32:144|56:80,1,140,0|4
53,85,200530,1,0
128,40,200760,6,0,B|208:56|288:32,1,140,4|2
266,37,201453,1,0
240,128,201683,1,4
288,136,201799,1,0
336,144,201914,1,0
328,232,202145,1,4
328,232,202376,1,0
240,216,202607,5,4
240,216,202722,1,0
152,232,202953,1,0
152,232,203068,2,0,B|96:264|80:296,1,70,4|0
96,273,203530,5,4
64,96,203991,5,4
64,96,204222,2,0,B|136:120|224:104,2,140,4|6|6
472,192,205607,5,0
400,112,205837,1,0
328,192,206068,1,0
256,280,206299,1,2
184,192,206530,1,2
112,112,206760,1,2
40,192,206991,1,2
40,192,207222,6,2,B|96:232|104:320,1,140,4|2
184,280,207914,2,0,B|280:232|424:264,1,210,4|0
389,257,208837,1,4
408,168,209068,1,4
408,168,209299,1,4
344,104,209530,6,0,B|304:184,1,70,2|0
168,280,209991,2,0,B|208:200,1,70,2|0
224,128,210453,6,0,B|168:64,2,70,4|0|4
280,200,211145,1,0
312,288,211376,1,0
224,272,211607,2,0,B|144:304|80:264,1,140,2|2
160,200,212299,1,6
160,200,212530,1,6
208,288,212760,5,4
312,264,212991,1,0
416,256,213222,1,2
360,168,213453,1,4
256,168,213683,1,4
160,200,213914,1,0
184,104,214145,2,2,B|192:96|192:96|200:104|200:104|208:88|208:88|216:96|216:96|224:80|224:80|232:88|232:88|240:72|240:72|248:80|248:80|256:64|256:64|264:72|264:72|272:56|272:56|280:64|280:64|288:48|288:48|296:56|296:56|304:40|304:40|312:48|312:48|320:32|320:32|328:40|328:40|336:24|336:24|344:32,1,280,2|6
424,56,214837,5,4
368,128,215068,1,2
456,136,215299,2,0,B|432:200|344:224,1,140,4|4
264,216,215991,1,4
264,216,216222,1,4
176,192,216453,6,0,B|168:288,1,70,0|2
112,128,216914,2,0,B|24:136,1,70,0|2
200,104,217376,2,0,B|264:40,1,70,4|2
249,54,217837,5,0
328,96,218068,1,0
392,160,218299,1,6
344,232,218530,1,0
392,160,218760,1,6
344,232,218991,1,0
432,232,219222,2,0,B|432:312|320:344,1,140,4|6
349,333,219914,1,6
272,288,220145,5,4
208,224,220376,1,4
128,176,220607,1,4
152,168,220722,1,4
176,160,220837,1,4
200,152,220953,1,4
224,144,221068,1,4
248,136,221183,1,4
272,128,221299,1,4
288,208,221530,2,2,B|296:200|296:200|304:208|304:208|312:192|312:192|320:200|320:200|328:184|328:184|336:192|336:192|344:176|344:176|352:184|352:184|360:168|360:168|368:176|368:176|376:160|376:160|384:168|384:168|392:152|392:152|400:160|400:160|408:144|408:144|416:152|416:152|424:136|424:136|432:144|432:144|440:128|440:128|448:136,1,280,2|6
448,232,222222,5,0
376,280,222453,1,2
288,288,222683,1,0
208,248,222914,1,6
288,288,223145,1,0
208,248,223376,1,2
128,208,223607,1,0
128,208,223837,6,0,B|96:144,1,70,4|2
248,152,224299,2,0,B|256:72,1,70,2|0
360,208,224760,2,0,B|400:136,1,70,6|0
440,72,225222,5,4
464,248,225453,1,4
440,72,225683,1,6
464,248,225914,5,0
392,304,226145,1,0
304,296,226376,2,0,B|208:272,1,70,0|6
168,216,226837,2,0,B|88:256,2,70,0|6|0
248,176,227530,5,0
328,128,227760,1,6
328,128,227991,1,6
408,80,228222,1,0
408,168,228453,1,6
328,216,228683,1,0
408,264,228914,2,2,B|400:272|400:272|392:264|392:264|384:280|384:280|376:272|376:272|368:288|368:288|360:280|360:280|352:296|352:296|344:288|344:288|336:304|336:304|328:296|328:296|320:312|320:312|312:304|312:304|304:320|304:320|296:312|296:312|288:328|288:328|280:320|280:320|272:336|272:336|264:328|264:328|256:344|256:344|248:336,1,280,2|6
184,280,229607,5,0
96,264,229837,2,0,B|64:184,2,70,0|0|6
160,200,230530,1,0
112,120,230760,2,0,B|192:96|248:160,1,140,0|6
272,240,231453,1,0
232,320,231683,2,0,B|320:320,1,70,2|0
372,319,232145,2,0,B|280:320,1,70,6|0
112,320,232607,5,0
48,256,232837,1,0
112,320,233068,2,4,B|144:256|136:200,1,105,6|4
137,219,233530,1,6
120,128,233760,2,4,B|192:112|240:128,1,105
224,123,234222,1,6
304,160,234453,2,4,B|352:208|360:264,1,105
357,249,234914,5,4
376,336,235145,1,4
440,272,235376,1,6
432,224,235491,1,0
416,184,235607,1,6
368,104,235837,1,6
288,56,236068,1,4
288,56,236299,2,2,B|280:64|280:64|272:56|272:56|264:72|264:72|256:64|256:64|248:80|248:80|240:72|240:72|232:88|232:88|224:80|224:80|216:96|216:96|208:88|208:88|200:104|200:104|192:96|192:96|184:112|184:112|176:104|176:104|168:120|168:120|160:112|160:112|152:128|152:128|144:120|144:120|136:136|136:136|128:128,1,280,2|6
48,176,236991,5,2
128,216,237222,2,2,B|72:272,1,70,0|2
168,296,237683,2,2,B|240:256|272:168,1,140,2|2
260,194,238376,1,0
232,104,238607,6,2,B|312:104,1,70,0|2
352,184,239068,2,2,B|448:184,1,70,2|0
384,272,239530,2,2,B|312:272,1,70,2|0
224,288,239991,5,0
88,304,240222,1,0
144,184,240453,1,4
144,184,240683,2,2,B|136:104,2,70,2|0|2
232,200,241376,2,2,B|352:112,1,140,2|2
416,64,242068,1,0
416,64,242183,1,0
416,64,242299,5,0
416,152,242530,2,0,B|432:200|408:304,1,140
328,328,243222,2,0,B|280:312|232:328,1,70
168,336,243683,2,2,B|160:328|160:328|168:320|168:320|152:312|152:312|160:304|160:304|144:296|144:296|152:288|152:288|136:280|136:280|144:272|144:272|128:264|128:264|136:256|136:256|120:248|120:248|128:240|128:240|112:232|112:232|120:224|120:224|104:216|104:216|112:208|112:208|96:200|96:200|104:192|104:192|88:184|88:184|96:176,1,280,2|6
64,96,244376,6,2,B|176:136|304:80,1,210,6|2
269,93,245299,1,0
360,112,245530,2,6,B|288:152|296:240,1,140
328,312,246222,1,0
328,312,246453,1,2
240,296,246683,1,2
152,288,246914,1,4
64,296,247145,1,2
104,216,247376,5,2
104,216,247607,1,0
80,128,247837,2,0,B|64:56,2,70,4|0|0
168,152,248530,2,0,B|200:112|264:160|296:88,2,140,4|4|4
168,152,249683,5,4
224,224,249914,1,4
312,256,250145,1,4
312,256,250376,1,4
288,168,250607,1,4
376,184,250837,1,4
376,184,251068,2,2,B|384:192|384:192|376:200|376:200|392:208|392:208|384:216|384:216|400:224|400:224|392:232|392:232|408:240|408:240|400:248|400:248|416:256|416:256|408:264|408:264|424:272|424:272|416:280|416:280|432:288|432:288|424:296|424:296|440:304|440:304|432:312|432:312|448:320|448:320|440:328|440:328|456:336|456:336|448:344,1,280,2|6
200,312,251991,5,4
112,280,252222,1,0
184,232,252453,2,0,B|224:168|240:88,1,140,4|4
236,103,253145,1,4
320,64,253376,6,0,B|320:144,2,70,0|2|0
408,96,254068,2,0,B|408:176,2,70,2|0|2
336,208,254760,5,0
336,208,254991,1,0
264,256,255222,2,4,B|208:272|152:272,1,105,6|6
160,271,255683,1,4
64,168,255914,2,4,B|120:184|176:184,1,105,4|6
167,183,256376,1,6
256,160,256607,1,4
192,96,256837,6,0,B|184:64,4,17.5,4|4|4|4|4
280,72,257299,1,4
360,104,257530,1,4
360,104,257645,1,4
360,104,257760,1,4
400,184,257991,1,4
360,264,258222,1,4
360,264,258337,1,4
360,264,258453,2,2,B|352:272|352:272|344:264|344:264|336:280|336:280|328:272|328:272|320:288|320:288|312:280|312:280|304:296|304:296|296:288|296:288|288:304|288:304|280:296|280:296|272:312|272:312|264:304|264:304|256:320|256:320|248:312|248:312|240:328|240:328|232:320|232:320|224:336|224:336|216:328|216:328|208:344|208:344|200:336,1,280,2|6
112,328,259145,5,0
72,248,259376,1,2
72,248,259607,2,0,B|48:200|64:160,2,70,0|4|0
160,248,260299,2,0,B|176:216|272:216|296:168,1,140,2|4
344,120,260991,5,0
344,120,261222,2,0,B|416:120,2,70,2|0|4
256,120,261914,1,0
208,128,262030,1,0
160,120,262145,1,2
72,120,262376,1,0
112,200,262607,6,0,B|96:272,1,70,4|0
184,240,263068,2,0,B|184:320,1,70,2|4
264,272,263530,2,0,B|392:160,1,140,6|0
408,64,264453,5,4
408,64,264568,1,4
320,80,264799,1,4
320,80,264914,1,4
320,80,265030,1,4
320,80,265145,1,4
320,80,265260,1,4
320,80,265376,1,4
232,88,265607,1,4
232,88,265722,1,4
232,88,265837,1,4
232,88,265953,1,4
232,88,266068,1,4
232,88,266183,1,0
232,88,266299,5,4
