osu file format v14

[General]
AudioFilename: Trains and Winter Rains.mp3
AudioLeadIn: 0
PreviewTime: 57406
Countdown: 0
SampleSet: Soft
StackLeniency: 0.6
Mode: 0
LetterboxInBreaks: 0
WidescreenStoryboard: 0

[Editor]
DistanceSpacing: 1.2
BeatDivisor: 4
GridSize: 4
TimelineZoom: 1

[Metadata]
Title:Trains and Winter Rains
TitleUnicode:Trains and Winter Rains
Artist:Enya
ArtistUnicode:Enya
Creator:liangv587
Version:Normal
Source:
Tags:New Age
BeatmapID:661896
BeatmapSetID:290858

[Difficulty]
HPDrainRate:3
CircleSize:3
OverallDifficulty:3
ApproachRate:4
SliderMultiplier:1.2
SliderTickRate:2

[Events]
//Background and Video events
0,0,"b47717339_p0.jpg",0,0
//Break Periods
2,80390,81384
2,148271,156808
//Storyboard Layer 0 (Background)
//Storyboard Layer 1 (Fail)
//Storyboard Layer 2 (Pass)
//Storyboard Layer 3 (Foreground)
//Storyboard Sound Samples

[TimingPoints]
2253,628.529676338117,4,2,1,30,1,0
12309,-125,4,2,1,30,0,0
34779,-100,4,2,1,40,0,0
57406,-90.9090909090909,4,2,1,50,0,0
78776,-100,4,2,1,30,0,0
79405,-100,4,2,1,20,0,0
80033,-100,4,2,1,10,0,0
82547,-100,4,2,1,30,0,0
105174,-90.9090909090909,4,2,1,50,0,0
146029,-100,4,2,1,40,0,0
146657,-100,4,2,1,30,0,0
147286,-100,4,2,1,20,0,0
157971,-100,4,2,1,30,0,0
168184,-90.9090909090909,4,2,1,50,0,1
187983,-90.9090909090909,4,2,1,50,0,0
188297,-90.9090909090909,4,2,1,50,0,1
208410,-100,4,2,1,50,0,0
208882,-100,4,2,1,40,0,0
209510,-100,4,2,1,30,0,0
210139,-100,4,2,1,20,0,0
210767,-100,4,2,1,10,0,0

[Colours]
Combo1 : 43,43,255
Combo2 : 128,0,255
Combo3 : 64,191,191
Combo4 : 0,128,0

[HitObjects]
99,239,12309,6,0,P|155:238|201:232,1,96,2|0,0:0|0:0,0:0:0:0:
254,215,13252,1,0,0:0:0:0:
311,189,13566,2,0,L|343:289,1,96,0|0,0:0|0:0,0:0:0:0:
464,297,14823,2,0,L|434:205,1,96,2|0,0:0|0:0,0:0:0:0:
456,147,15766,1,0,0:0:0:0:
481,90,16080,2,0,P|425:89|379:83,1,96,0|0,0:0|0:0,0:0:0:0:
269,38,17337,5,2,0:0:0:0:
145,55,17966,1,0,0:0:0:0:
68,153,18594,2,0,P|61:210|65:264,1,96,2|0,0:0|0:0,0:0:0:0:
179,295,19851,1,2,0:0:0:0:
303,278,20480,1,0,0:0:0:0:
380,180,21108,2,0,P|387:123|383:69,1,96,2|0,0:0|0:0,0:0:0:0:
261,68,22365,6,0,P|254:125|258:179,1,96,2|0,0:0|0:0,0:0:0:0:
277,221,23308,1,0,0:0:0:0:
303,278,23623,2,0,L|402:331,1,96,0|0,0:0|0:0,0:0:0:0:
465,225,24880,2,0,L|380:179,1,96,2|0,0:0|0:0,0:0:0:0:
318,174,25822,1,0,0:0:0:0:
277,221,26137,2,0,P|228:242|174:251,1,96,0|0,0:0|0:0,0:0:0:0:
82,319,27394,6,0,P|61:270|52:216,1,96,2|0,0:0|0:0,0:0:0:0:
54,103,28651,1,2,0:0:0:0:
155,29,29279,1,0,0:0:0:0:
279,25,29908,2,0,P|300:74|309:128,1,96,2|0,0:0|0:0,0:0:0:0:
323,239,31165,1,2,0:0:0:0:
211,295,31793,1,0,0:0:0:0:
147,187,32422,6,0,P|167:142|199:99,2,96,2|0|2,0:0|0:0|0:0,0:0:0:0:
409,356,34936,6,0,P|441:345|471:331,1,60,6|0,0:0|0:0,0:0:0:0:
443,259,35565,2,0,P|455:233|463:196,1,60,0|2,0:0|0:0,0:0:0:0:
403,151,36193,2,0,P|406:84|398:28,1,120,0|2,0:0|0:0,0:0:0:0:
243,42,37450,2,0,P|214:35|177:35,1,60,2|0,0:0|0:0,0:0:0:0:
137,96,38079,2,0,P|109:100|69:117,1,60,0|2,0:0|0:0,0:0:0:0:
63,187,38707,2,0,P|60:254|68:310,1,120,0|2,0:0|0:0,0:0:0:0:
211,365,39964,5,2,0:0:0:0:
249,297,40279,1,0,0:0:0:0:
250,219,40593,2,0,L|237:152,1,60,0|2,0:0|0:0,0:0:0:0:
267,87,41221,2,0,P|319:60|383:59,1,120,0|2,0:0|0:0,0:0:0:0:
481,176,42478,1,2,0:0:0:0:
478,253,42793,1,0,0:0:0:0:
448,325,43107,2,0,L|383:364,1,60,0|2,0:0|0:0,0:0:0:0:
323,327,43735,2,0,P|267:318|198:331,1,120,0|2,0:0|0:0,0:0:0:0:
52,293,44993,6,0,L|7:346,2,60,2|0|0,0:0|0:0|0:0,0:0:0:0:
60,215,45935,1,2,0:0:0:0:
48,137,46250,2,0,P|68:81|112:34,1,120,0|2,0:0|0:0,0:0:0:0:
264,36,47507,2,0,L|336:23,2,60,2|0|2,0:0|0:0|0:0,0:0:0:0:
236,109,48449,1,0,0:0:0:0:
213,183,48764,2,0,P|233:239|277:286,1,120,0|2,0:0|0:0,0:0:0:0:
427,304,50021,6,0,P|452:281|468:249,1,60,2|0,0:0|0:0,0:0:0:0:
435,186,50649,2,0,P|436:156|428:113,1,60,0|2,0:0|0:0,0:0:0:0:
353,120,51278,2,0,P|295:106|236:109,1,120,0|2,0:0|0:0,0:0:0:0:
88,159,52535,2,0,P|78:187|75:226,1,60,2|0,0:0|0:0,0:0:0:0:
137,264,53163,2,0,P|146:299|162:327,1,60,2|0,0:0|0:0,0:0:0:0:
234,316,53792,2,0,P|292:324|358:319,1,120,0|2,0:0|0:0,0:0:0:0:
417,275,54735,1,0,0:0:0:0:
450,204,55049,6,0,L|504:173,2,60,2|0|2,0:0|0:0|0:0,0:0:0:0:
363,73,56306,2,0,L|366:2,2,60,0|0|2,0:0|0:0|0:0,0:0:0:0:
313,132,57249,1,0,0:0:0:0:
253,186,57563,6,0,P|237:250|234:316,1,132.00000402832,6|0,0:0|3:0,0:0:0:0:
305,349,58506,1,2,0:0:0:0:
381,329,58820,2,0,P|414:341|449:348,2,66.0000020141602,0|0|10,0:0|3:0|0:0,0:0:0:0:
381,249,59763,1,0,3:0:0:0:
389,170,60077,2,0,P|385:90|362:32,1,132.00000402832,2|0,0:0|3:0,0:0:0:0:
291,16,61020,1,2,0:0:0:0:
228,63,61334,2,0,P|195:59|151:59,2,66.0000020141602,0|0|10,0:0|3:0|0:0,0:0:0:0:
234,142,62277,1,0,3:0:0:0:
245,220,62591,6,0,P|220:294|185:346,1,132.00000402832,2|0,0:0|3:0,0:0:0:0:
117,308,63534,2,0,P|142:234|177:182,1,132.00000402832,2|0,0:0|3:0,0:0:0:0:
234,142,64477,2,0,P|267:138|311:138,1,66.0000020141602,10|0,0:0|3:0,0:0:0:0:
376,159,65105,2,0,B|440:192|464:260|464:260|474:289|504:312,2,198.000006042481,2|2|10,0:0|0:0|0:0,0:0:0:0:
316,305,67620,6,0,P|256:331|191:339,1,132.00000402832,6|0,0:0|0:0,0:0:0:0:
117,308,68562,1,2,0:0:0:0:
62,251,68877,2,0,P|60:189|77:114,1,132.00000402832,0|10,0:0|0:0,0:0:0:0:
115,53,69819,1,0,3:0:0:0:
190,29,70134,2,0,L|271:11,2,66.0000020141602,2|0|0,0:0|0:0|3:0,0:0:0:0:
209,106,71076,2,0,P|255:147|327:155,1,132.00000402832,2|0,0:0|3:0,0:0:0:0:
382,103,72019,2,0,P|406:76|446:60,1,66.0000020141602,10|0,0:0|3:0,0:0:0:0:
484,122,72648,6,0,P|488:187|458:258,1,132.00000402832,2|0,0:0|3:0,0:0:0:0:
385,247,73591,2,0,P|309:251|248:286,1,132.00000402832,2|0,0:0|3:0,0:0:0:0:
203,331,74533,1,10,0:0:0:0:
123,333,74848,1,0,3:0:0:0:
57,289,75162,2,0,P|53:224|83:153,1,132.00000402832,2|0,0:0|3:0,0:0:0:0:
154,177,76105,2,0,P|230:173|291:138,1,132.00000402832,2|0,0:0|3:0,0:0:0:0:
284,68,77048,2,0,L|213:58,1,66.0000020141602,2|0,0:0|3:0,0:0:0:0:
256,192,77676,12,2,80190,0:0:0:0:
356,282,82704,6,0,P|345:314|331:344,1,60,4|0,0:0|0:0,0:0:0:0:
256,333,83333,2,0,P|230:345|193:353,1,60,8|0,0:0|0:0,0:0:0:0:
160,284,83961,2,0,P|93:287|37:279,1,120,2|8,0:0|0:0,0:0:0:0:
101,135,85218,2,0,P|94:106|94:69,1,60,2|0,0:0|0:0,0:0:0:0:
172,84,85847,2,0,P|176:56|193:16,1,60,8|0,0:0|0:0,0:0:0:0:
265,46,86475,2,0,P|332:43|388:51,1,120,2|8,0:0|0:1,0:0:0:0:
475,176,87733,5,2,0:0:0:0:
399,196,88047,1,0,0:0:0:0:
321,205,88361,2,0,L|266:179,1,60,8|0,0:0|0:0,0:0:0:0:
189,171,88990,2,0,P|162:223|161:287,1,120,2|8,0:0|0:0,0:0:0:0:
301,350,90247,1,2,0:0:0:0:
378,352,90561,1,0,0:0:0:0:
444,311,90875,2,0,L|457:235,1,60,8|0,0:0|0:0,0:0:0:0:
399,196,91504,2,0,P|395:137|413:78,1,120,2|8,0:0|0:1,0:0:0:0:
258,52,92761,6,0,L|188:25,2,60,2|0|8,0:0|0:0|0:0,0:0:0:0:
253,130,93704,1,0,0:0:0:0:
178,153,94018,2,0,P|122:133|75:89,1,120,2|8,0:0|0:0,0:0:0:0:
34,242,95275,2,0,L|21:314,2,60,2|0|8,0:0|0:0|0:0,0:0:0:0:
188,232,96532,2,0,P|244:252|291:296,1,120,2|8,0:0|0:1,0:0:0:0:
432,352,97789,6,0,P|460:336|486:305,1,60,2|0,0:0|0:0,0:0:0:0:
440,248,98418,2,0,P|453:219|457:181,1,60,8|0,0:0|0:0,0:0:0:0:
388,154,99046,2,0,P|374:88|338:38,1,120,2|8,0:0|0:0,0:0:0:0:
237,158,100303,2,0,P|209:148|170:145,1,60,2|0,0:0|0:0,0:0:0:0:
132,207,100932,2,0,P|97:216|69:232,1,60,8|0,0:0|0:0,0:0:0:0:
96,302,101560,2,0,P|157:319|219:311,1,120,2|8,0:0|0:1,0:0:0:0:
284,281,102503,1,0,0:0:0:0:
361,290,102817,6,0,L|422:281,2,60,2|0|8,0:0|0:0|0:0,0:0:0:0:
297,149,104074,2,0,L|237:157,2,60,2|0|8,0:0|0:0|0:1,0:0:0:0:
365,111,105017,1,0,0:0:0:0:
444,117,105331,6,0,P|460:181|463:247,1,132.00000402832,6|0,0:0|3:0,0:0:0:0:
453,325,106274,1,2,0:0:0:0:
380,356,106588,2,0,P|347:368|312:375,2,66.0000020141602,0|0|10,3:0|3:0|0:0,0:0:0:0:
386,277,107531,1,0,3:0:0:0:
327,223,107845,2,0,P|268:201|198:202,1,132.00000402832,2|0,0:0|3:0,0:0:0:0:
127,234,108788,1,2,0:0:0:0:
54,265,109103,2,0,P|54:299|47:342,2,66.0000020141602,0|0|10,3:0|3:0|0:0,0:0:0:0:
43,186,110045,1,0,3:0:0:0:
94,125,110360,6,0,P|153:103|223:104,1,132.00000402832,2|0,0:0|3:0,0:0:0:0:
289,144,111302,2,0,P|354:145|416:122,1,132.00000402832,2|0,0:0|3:0,0:0:0:0:
479,169,112245,2,0,P|478:201|474:234,1,66.0000020141602,10|0,0:2|3:0,0:0:0:0:
416,288,112874,2,0,B|362:313|291:306|291:306|255:304|219:325,2,198.000006042481,2|2|10,0:0|0:0|0:0,0:0:0:0:
284,199,115388,6,0,P|218:206|158:232,1,132.00000402832,6|0,0:0|0:0,0:0:0:0:
103,290,116331,1,2,0:0:0:0:
45,235,116645,2,0,P|30:170|32:104,1,132.00000402832,0|10,3:0|0:0,0:0:0:0:
68,33,117588,1,0,3:0:0:0:
147,35,117902,2,0,L|228:17,2,66.0000020141602,2|0|0,0:0|0:0|0:0,0:0:0:0:
162,112,118845,2,0,P|208:153|280:161,1,132.00000402832,2|0,0:0|3:0,0:0:0:0:
298,237,119788,2,0,P|274:264|234:280,1,66.0000020141602,10|0,0:0|3:0,0:0:0:0:
265,354,120416,6,0,P|336:372|394:355,1,132.00000402832,2|0,0:0|3:0,0:0:0:0:
431,288,121359,2,0,P|427:212|392:151,1,132.00000402832,2|0,0:0|3:0,0:0:0:0:
342,110,122302,1,10,0:0:0:0:
264,94,122616,1,0,3:0:0:0:
210,151,122930,2,0,P|206:216|236:287,1,132.00000402832,2|0,0:0|3:0,0:0:0:0:
306,259,123873,2,0,P|382:263|443:298,1,132.00000402832,2|0,0:0|3:0,0:0:0:0:
403,362,124816,2,0,L|332:372,1,66.0000020141602,10|0,0:0|3:0,0:0:0:0:
258,361,125444,6,0,P|184:341|136:299,1,132.00000402832,6|0,0:0|3:0,0:0:0:0:
104,237,126387,1,2,0:0:0:0:
76,162,126701,2,0,P|43:145|22:122,2,66.0000020141602,0|0|10,3:0|3:0|0:0,0:0:0:0:
135,109,127644,1,0,3:0:0:0:
211,128,127958,2,0,P|269:107|317:53,1,132.00000402832,2|0,0:0|3:0,0:0:0:0:
391,79,128901,1,2,0:0:0:0:
468,97,129215,2,0,P|475:65|477:20,2,66.0000020141602,0|0|10,3:0|3:0|0:0,0:0:0:0:
415,156,130158,1,0,3:0:0:0:
442,230,130473,6,0,P|432:307|409:365,1,132.00000402832,2|0,0:0|3:0,0:0:0:0:
335,342,131415,2,0,P|344:264|367:206,1,132.00000402832,2|0,0:0|3:0,0:0:0:0:
336,139,132358,2,0,P|315:108|287:86,1,66.0000020141602,10|0,0:0|3:0,0:0:0:0:
220,58,132987,2,0,B|164:34|116:47|116:47|64:60|20:37,2,198.000006042481,2|2|10,0:0|0:0|0:0,0:0:0:0:
231,136,135187,1,0,0:0:0:0:
157,166,135501,6,0,P|121:221|103:284,1,132.00000402832,6|0,0:0|3:0,0:0:0:0:
146,352,136444,1,2,0:0:0:0:
221,374,136758,2,0,P|281:363|346:333,1,132.00000402832,0|10,3:0|0:0,0:0:0:0:
405,281,137701,1,0,3:0:0:0:
372,208,138015,2,0,L|390:127,2,66.0000020141602,2|0|0,0:0|3:0|3:0,0:0:0:0:
312,260,138958,2,0,P|250:266|187:230,1,132.00000402832,2|0,0:0|3:0,0:0:0:0:
200,154,139900,2,0,P|227:130|243:90,1,66.0000020141602,10|0,0:0|3:0,0:0:0:0:
202,34,140529,6,0,P|137:30|66:60,1,132.00000402832,2|0,0:0|3:0,0:0:0:0:
33,120,141472,2,0,P|34:185|61:244,1,132.00000402832,2|0,0:0|3:0,0:0:0:0:
132,281,142415,1,10,0:0:0:0:
197,236,142729,1,0,3:0:0:0:
268,269,143043,2,0,P|333:273|404:243,1,132.00000402832,2|0,0:0|3:0,0:0:0:0:
428,177,143986,2,0,P|424:101|389:40,1,132.00000402832,2|0,0:0|3:0,0:0:0:0:
322,72,144929,2,0,L|304:138,1,66.0000020141602,10|0,0:0|3:0,0:0:0:0:
256,192,145557,12,2,148071,0:0:0:0:
463,199,158128,6,0,P|422:236|355:248,1,120,0|2,0:0|0:0,0:0:0:0:
286,220,159071,1,0,0:0:0:0:
214,250,159385,2,0,L|188:321,1,60,0|0,0:0|0:0,0:0:0:0:
117,286,160013,2,0,L|50:315,1,60,10|0,0:0|0:0,0:0:0:0:
30,238,160642,2,0,P|15:180|26:119,1,120,0|2,0:0|0:0,0:0:0:0:
88,76,161585,1,0,0:0:0:0:
163,57,161899,2,0,P|221:67|266:106,1,120,0|10,0:0|0:0,0:0:0:0:
258,262,163156,6,0,P|302:300|361:311,1,120,0|2,0:0|0:0,0:0:0:0:
438,296,164099,1,0,0:0:0:0:
466,223,164413,2,0,P|483:202|499:160,2,60,0|0|10,0:0|0:0|0:0,0:0:0:0:
389,235,165356,1,0,0:0:0:0:
345,169,165670,2,0,P|345:134|338:95,1,60,0|0,0:0|0:0,0:0:0:0:
264,122,166299,2,0,P|242:96|209:75,1,60,2|0,0:0|0:0,0:0:0:0:
166,137,166927,2,0,P|111:155|78:213,1,120,0|10,0:0|0:0,0:0:0:0:
146,353,168184,6,0,P|162:289|165:223,1,132.00000402832,6|0,0:0|1:0,0:0:0:0:
166,137,169127,1,2,0:0:0:0:
138,55,169441,2,0,P|98:48|70:36,2,66.0000020141602,2|0|10,0:3|1:0|0:0,0:0:0:0:
222,40,170384,1,0,1:0:0:0:
255,119,170698,2,0,P|268:187|259:262,1,132.00000402832,2|0,0:0|1:0,0:0:0:0:
347,263,171641,1,2,0:0:0:0:
432,263,171956,2,0,P|432:297|439:340,2,66.0000020141602,2|0|10,0:3|1:0|0:0,0:0:0:0:
469,186,172898,1,0,1:0:0:0:
420,115,173213,6,0,P|361:93|291:94,1,132.00000402832,2|0,0:0|1:0,0:0:0:0:
223,144,174155,2,0,P|158:145|96:122,1,132.00000402832,2|0,0:0|1:0,0:0:0:0:
28,174,175098,2,0,P|29:206|33:239,1,66.0000020141602,10|0,0:0|1:0,0:0:0:0:
97,296,175727,2,0,B|151:321|222:314|222:314|258:312|294:333,2,198.000006042481,2|2|10,0:0|0:0|0:0,0:0:0:0:
233,192,178241,6,0,P|299:199|359:225,1,132.00000402832,6|0,0:0|1:0,0:0:0:0:
406,296,179184,1,2,0:0:0:0:
470,239,179498,2,0,P|485:174|483:108,1,132.00000402832,2|10,0:3|0:0,0:0:0:0:
448,30,180441,1,0,1:0:0:0:
362,27,180755,2,0,L|281:9,2,66.0000020141602,2|0|0,0:0|1:0|1:0,0:0:0:0:
350,112,181698,2,0,P|301:151|225:150,1,132.00000402832,2|0,0:0|1:0,0:0:0:0:
214,237,182641,2,0,P|241:260|280:273,1,66.0000020141602,10|0,0:0|1:0,0:0:0:0:
247,354,183269,6,0,P|176:372|118:355,1,132.00000402832,2|0,0:0|1:0,0:0:0:0:
74,283,184212,2,0,P|78:207|113:146,1,132.00000402832,0|0,1:0|1:0,0:0:0:0:
167,101,185155,1,10,0:0:0:0:
250,83,185469,1,0,1:0:0:0:
302,151,185783,2,0,P|306:216|276:287,1,132.00000402832,2|0,0:0|1:0,0:0:0:0:
198,254,186726,2,0,P|133:255|74:283,1,132.00000402832,2|0,0:0|1:0,0:0:0:0:
113,359,187669,2,0,L|184:369,1,66.0000020141602,10|0,0:0|1:0,0:0:0:0:
264,364,188297,6,0,P|338:344|386:302,1,132.00000402832,6|0,0:0|1:0,0:0:0:0:
409,228,189240,1,2,0:0:0:0:
447,151,189554,2,0,P|480:134|501:111,2,66.0000020141602,2|0|10,0:3|1:0|0:0,0:0:0:0:
381,96,190497,1,0,1:0:0:0:
301,128,190811,2,0,P|236:126|173:106,1,132.00000402832,2|0,0:0|1:0,0:0:0:0:
105,52,191754,1,2,0:0:0:0:
22,76,192068,2,0,P|15:44|13:-1,2,66.0000020141602,2|2|10,0:3|0:0|0:0,0:0:0:0:
74,144,193011,1,0,1:0:0:0:
55,227,193326,6,0,P|80:301|115:353,1,132.00000402832,2|0,0:0|1:0,0:0:0:0:
190,317,194268,2,0,P|165:243|130:191,1,132.00000402832,2|0,0:0|1:0,0:0:0:0:
151,113,195211,2,0,P|191:95|222:84,1,66.0000020141602,10|0,0:0|1:0,0:0:0:0:
289,122,195840,2,0,B|349:126|390:97|390:97|433:68|483:74,2,198.000006042481,2|2|10,0:0|0:0|0:0,0:0:0:0:
442,199,198354,6,0,P|468:259|476:324,1,132.00000402832,6|0,0:0|1:0,0:0:0:0:
398,362,199297,1,2,0:0:0:0:
313,373,199611,2,0,P|251:366|188:332,1,132.00000402832,2|10,0:3|0:0,0:0:0:0:
118,286,200554,1,0,1:0:0:0:
142,203,200868,2,0,L|124:122,2,66.0000020141602,2|0|0,0:0|1:0|1:0,0:0:0:0:
211,253,201811,2,0,P|273:259|336:223,1,132.00000402832,2|0,0:0|1:0,0:0:0:0:
301,146,202753,2,0,P|274:122|258:82,1,66.0000020141602,10|0,0:0|1:0,0:0:0:0:
315,29,203382,6,0,P|380:25|451:55,1,132.00000402832,2|0,0:0|1:0,0:0:0:0:
484,123,204325,2,0,P|483:188|456:247,1,132.00000402832,2|0,0:0|1:0,0:0:0:0:
377,285,205268,1,10,0:0:0:0:
316,223,205582,1,0,1:0:0:0:
244,269,205896,2,0,P|179:273|108:243,1,132.00000402832,2|0,0:0|1:0,0:0:0:0:
80,171,206839,2,0,P|84:95|119:34,1,132.00000402832,2|0,0:0|1:0,0:0:0:0:
192,65,207782,2,0,L|210:131,1,66.0000020141602,10|0,0:0|1:0,0:0:0:0:
256,192,208410,12,4,210924,0:0:0:0:
