osu file format v14

[General]
AudioFilename: Trains and Winter Rains.mp3
AudioLeadIn: 0
PreviewTime: 57406
Countdown: 0
SampleSet: Soft
StackLeniency: 0.6
Mode: 0
LetterboxInBreaks: 0
WidescreenStoryboard: 0

[Editor]
DistanceSpacing: 0.5
BeatDivisor: 4
GridSize: 4
TimelineZoom: 1

[Metadata]
Title:Trains and Winter Rains
TitleUnicode:Trains and Winter Rains
Artist:Enya
ArtistUnicode:Enya
Creator:liangv587
Version:Hard
Source:
Tags:New Age
BeatmapID:655124
BeatmapSetID:290858

[Difficulty]
HPDrainRate:5
CircleSize:4
OverallDifficulty:5
ApproachRate:6
SliderMultiplier:1.5
SliderTickRate:2

[Events]
//Background and Video events
0,0,"b47717339_p0.jpg",0,0
//Break Periods
//Storyboard Layer 0 (Background)
//Storyboard Layer 1 (Fail)
//Storyboard Layer 2 (Pass)
//Storyboard Layer 3 (Foreground)
//Storyboard Sound Samples

[TimingPoints]
2253,628.529676338117,4,2,1,30,1,0
12309,-133.333333333333,4,2,1,30,0,0
34779,-100,4,2,1,40,0,0
57406,-100,4,2,1,50,0,0
78776,-100,4,2,1,30,0,0
79405,-100,4,2,1,20,0,0
80033,-100,4,2,1,10,0,0
82547,-133.333333333333,4,2,1,30,0,0
105174,-100,4,2,1,50,0,0
146029,-100,4,2,1,40,0,0
146657,-100,4,2,1,30,0,0
147286,-100,4,2,1,20,0,0
148543,-133.333333333333,4,2,1,30,0,0
168184,-100,4,2,1,50,0,1
187983,-100,4,2,1,50,0,0
188297,-100,4,2,1,50,0,1
208410,-100,4,2,1,50,0,0
208882,-100,4,2,1,40,0,0
209510,-100,4,2,1,30,0,0
210139,-100,4,2,1,20,0,0
210767,-100,4,2,1,10,0,0

[Colours]
Combo1 : 43,43,255
Combo2 : 128,0,255
Combo3 : 64,191,191
Combo4 : 0,128,0

[HitObjects]
256,108,12309,6,0,P|308:116|380:136,1,112.500004291535,2|0,0:0|0:0,0:0:0:0:
432,172,13252,1,0,0:0:0:0:
456,248,13566,2,0,L|440:308,1,56.2500021457673
328,248,14195,2,0,P|280:252|236:260,1,84.3750032186509
216,284,14823,6,0,P|210:224|192:164,1,112.500004291535,2|0,0:0|0:0,0:0:0:0:
88,36,16080,2,0,P|93:95|112:156,1,112.500004291535
195,173,17023,1,0,0:0:0:0:
270,124,17337,6,0,P|265:65|246:4,1,112.500004291535,2|0,0:0|0:0,0:0:0:0:
400,112,18594,2,0,P|405:171|424:232,1,112.500004291535,2|0,0:0|0:0,0:0:0:0:
455,305,19537,1,0,0:0:0:0:
332,292,19851,6,0,L|348:360,1,56.2500021457673,2|0,0:0|0:0,0:0:0:0:
252,292,20480,2,0,L|268:356,1,56.2500021457673
188,248,21108,2,0,B|128:274|128:274|71:270,1,112.500004291535,2|0,0:0|0:0,0:0:0:0:
152,116,22365,6,0,L|260:72,1,112.500004291535,2|0,0:0|0:0,0:0:0:0:
332,108,23308,1,0,0:0:0:0:
376,180,23623,2,0,L|308:208,1,56.2500021457673
384,260,24251,2,0,L|300:296,1,84.3750032186509
264,280,24880,6,0,P|228:232|228:176,1,112.500004291535,2|0,0:0|0:0,0:0:0:0:
268,108,25822,1,0,0:0:0:0:
240,28,26137,2,0,L|172:56,1,56.2500021457673
268,108,26765,6,0,P|320:64|324:16,1,112.500004291535,0|2,0:0|0:0,0:0:0:0:
240,28,27708,1,0,0:0:0:0:
184,92,28022,2,0,P|156:144|136:208,1,112.500004291535,0|2,0:0|0:0,0:0:0:0:
180,360,29279,2,0,L|204:308,1,56.2500021457673
272,360,29908,6,0,P|300:308|320:244,2,112.500004291535,2|0|2,0:0|0:0|0:0,0:0:0:0:
268,108,31793,2,0,L|336:116,1,56.2500021457673
304,32,32422,2,0,P|360:40|420:60,2,112.500004291535,2|0|2,0:0|0:0|0:0,0:0:0:0:
268,180,34936,5,6,0:0:0:0:
188,220,35250,1,0,0:0:0:0:
196,132,35565,1,0,0:0:0:0:
276,192,35879,2,0,P|268:264|200:312,1,150,2|0,0:0|0:0,0:0:0:0:
108,245,36822,2,0,L|24:253,1,75,2|0,0:0|0:0,0:0:0:0:
96,136,37450,5,2,0:0:0:0:
184,164,37764,1,0,0:0:0:0:
244,96,38079,2,0,L|328:88,1,75,0|2,0:0|0:0,0:0:0:0:
388,28,38707,2,0,P|400:96|428:180,1,150,0|2,0:0|0:0,0:0:0:0:
496,116,39650,1,0,0:0:0:0:
428,175,39964,6,0,L|344:220,1,75,2|0,0:0|0:0,0:0:0:0:
419,282,40593,1,0,0:0:0:0:
352,344,40907,1,2,0:0:0:0:
280,288,41221,2,0,P|208:288|120:320,1,150,0|2,0:0|0:0,0:0:0:0:
56,264,42164,1,0,0:0:0:0:
112,192,42478,6,0,L|83:104,1,75,2|0,0:0|0:0,0:0:0:0:
116,36,43107,1,0,0:0:0:0:
188,92,43421,2,0,P|260:92|348:60,1,150,2|0,0:0|0:0,0:0:0:0:
416,108,44364,1,2,0:0:0:0:
256,196,44993,5,2,0:0:0:0:
320,260,45307,1,0,0:0:0:0:
408,268,45621,2,0,L|496:236,1,75,0|2,0:0|0:0,0:0:0:0:
432,164,46250,2,0,L|514:132,1,75
412,92,46878,2,0,P|404:136|356:192,1,112.5,2|0,0:0|0:0,0:0:0:0:
320,172,47507,6,0,L|238:204,1,75,2|0,0:0|0:0,0:0:0:0:
160,184,48135,2,0,P|236:228|272:292,1,150,2|0,0:0|0:0,0:0:0:0:
196,336,49078,1,0,0:0:0:0:
108,352,49392,2,0,L|32:328,1,75,2|0,0:0|0:0,0:0:0:0:
76,248,50021,6,0,L|72:194,1,37.5,2|0,0:0|0:0,0:0:0:0:
116,228,50335,2,0,L|141:134,1,75
244,184,50964,2,0,P|296:140|392:132,1,150,2|0,0:0|0:0,0:0:0:0:
280,112,51906,2,0,P|240:80|204:16,1,112.5,2|0,0:0|0:0,0:0:0:0:
200,76,52535,6,0,L|112:92,1,75,2|0,0:0|0:0,0:0:0:0:
40,184,53163,2,0,L|192:156,1,150,2|0,0:0|0:0,0:0:0:0:
268,196,54106,1,0,0:0:0:0:
292,284,54420,2,0,L|252:360,1,75,2|0,0:0|0:0,0:0:0:0:
368,344,55049,6,0,L|440:212,2,150,2|2|0,0:0|0:0|0:0,0:0:0:0:
292,284,56620,1,0,0:0:0:0:
268,196,56935,2,0,L|356:196,1,75,2|0,0:0|0:0,0:0:0:0:
344,100,57563,6,0,L|424:100,2,75,6|0|0,0:0|3:0|3:0,0:0:0:0:
280,28,58506,1,2,0:0:0:0:
196,80,58820,1,0,0:0:0:0:
103,37,59134,2,0,P|99:77|103:113,1,75,0|10,3:0|0:0,0:0:0:0:
172,184,59763,1,0,3:0:0:0:
84,224,60077,6,0,P|164:220|240:224,1,150,2|0,0:0|3:0,0:0:0:0:
316,276,61020,1,2,0:0:0:0:
356,364,61334,2,0,L|272:364,1,75,0|0,0:0|3:0,0:0:0:0:
316,276,61963,1,10,0:0:0:0:
366,191,62277,1,0,3:0:0:0:
460,147,62591,6,0,L|460:231,2,75,2|0|0,0:0|3:0|3:0,0:0:0:0:
372,88,63534,2,0,P|312:140|240:168,1,150,2|0,0:0|3:0,0:0:0:0:
156,128,64477,1,10,0:0:0:0:
104,48,64791,1,0,3:0:0:0:
58,134,65105,6,0,P|34:169|3:192,2,75,2|0|0,0:0|3:0|3:0,0:0:0:0:
156,128,66048,2,0,P|172:208|214:263,1,150,2|0,0:0|3:0,0:0:0:0:
294,314,66991,2,0,L|376:271,1,75,10|0,0:0|3:0,0:0:0:0:
437,337,67620,5,6,0:0:0:0:
484,252,67934,2,0,P|423:219|348:168,1,150,0|2,3:0|0:0,0:0:0:0:
332,80,68877,1,0,0:0:0:0:
240,112,69191,2,0,L|228:196,1,75,0|10,3:0|0:0,0:0:0:0:
132,188,69819,1,0,3:0:0:0:
148,284,70134,6,0,P|206:329|278:368,1,150,2|0,0:0|3:0,0:0:0:0:
390,331,71076,2,0,P|317:303|254:266,1,150,2|0,0:0|3:0,0:0:0:0:
244,167,72019,2,0,L|239:118,1,37.5,10|0,0:0|0:0,0:0:0:0:
288,131,72334,6,0,L|310:49,1,75,0|2,3:0|0:0,0:0:0:0:
213,27,72962,1,0,3:0:0:0:
124,68,73276,1,0,3:0:0:0:
136,164,73591,2,0,L|172:188,1,37.5,2|0,0:0|0:0,0:0:0:0:
132,216,73905,2,0,L|180:280,1,75,0|0,0:0|3:0,0:0:0:0:
268,312,74533,1,10,0:0:0:0:
316,228,74848,1,0,3:0:0:0:
412,216,75162,6,0,L|456:288,2,75,2|0|0,0:0|3:0|3:0,0:0:0:0:
332,160,76105,2,0,L|364:92,2,75,2|0|0,0:0|3:0|3:0,0:0:0:0:
252,216,77048,2,0,L|164:204,1,75,2|0,0:0|3:0,0:0:0:0:
256,120,77676,1,0,3:0:0:0:
256,192,77990,12,2,80190,0:0:0:0:
116,141,82704,5,4,0:0:0:0:
155,209,83019,1,0,0:0:0:0:
229,232,83333,1,8,0:0:0:0:
252,156,83647,2,0,P|291:117|354:107,1,112.500004291535,2|0,0:0|0:0,0:0:0:0:
424,108,84590,1,8,0:0:0:0:
424,108,85218,5,2,0:0:0:0:
444,184,85533,1,0,0:0:0:0:
424,260,85847,2,0,P|375:286|313:284,1,112.500004291535,8|2,0:0|0:0,0:0:0:0:
284,214,86790,1,0,0:0:0:0:
344,163,87104,2,0,L|345:96,1,56.2500021457673,8|0,0:1|0:0,0:0:0:0:
228,36,87733,5,2,0:0:0:0:
138,31,88047,1,0,0:0:0:0:
121,119,88361,2,0,P|77:155|7:173,1,112.500004291535,8|2,0:0|0:0,0:0:0:0:
121,219,89304,1,0,0:0:0:0:
196,268,89618,2,0,L|196:338,1,56.2500021457673,8|0,0:0|0:0,0:0:0:0:
312,336,90247,5,2,0:0:0:0:
388,352,90561,1,0,0:0:0:0:
420,280,90875,1,8,0:0:0:0:
360,232,91189,2,0,P|420:240|480:216,1,112.500004291535,2|0,0:0|0:0,0:0:0:0:
502,152,92132,1,8,0:1:0:0:
265,23,92761,5,2,0:0:0:0:
297,95,93075,1,0,0:0:0:0:
238,148,93389,2,0,L|218:216,1,56.2500021457673,8|0,0:0|0:0,0:0:0:0:
150,230,94018,2,0,P|129:285|94:338,2,112.500004291535,2|8|2,0:0|0:0|0:0,0:0:0:0:
96,176,95589,5,0,0:0:0:0:
92,96,95903,2,0,L|156:108,1,56.2500021457673,8|0,0:0|0:0,0:0:0:0:
220,80,96532,2,0,L|268:40,2,56.2500021457673,2|0|8,0:0|0:0|0:1,0:0:0:0:
216,160,97475,1,0,0:0:0:0:
280,204,97789,5,2,0:0:0:0:
344,156,98103,1,0,0:0:0:0:
364,80,98418,2,0,P|372:144|408:180,2,112.500004291535,8|2|8,0:0|0:0|0:0,0:0:0:0:
460,96,99989,1,0,0:0:0:0:
493,236,100303,5,2,0:0:0:0:
404,250,100617,1,0,0:0:0:0:
296,320,100932,2,0,L|362:314,1,56.2500021457673,8|0,0:0|0:0,0:0:0:0:
328,239,101560,2,0,P|314:181|271:148,1,112.500004291535,2|8,0:0|0:1,0:0:0:0:
195,153,102503,1,0,0:0:0:0:
164,80,102817,5,2,0:0:0:0:
84,76,103132,1,0,0:0:0:0:
51,147,103446,2,0,P|59:199|107:243,1,112.500004291535,8|2,0:0|0:0,0:0:0:0:
180,244,104389,1,0,0:0:0:0:
256,260,104703,2,0,L|256:324,1,56.2500021457673,8|0,0:1|0:0,0:0:0:0:
344,188,105331,6,0,L|344:101,2,75,6|0|0,0:0|3:0|3:0,0:0:0:0:
416,256,106274,1,2,0:0:0:0:
324,344,106588,1,0,3:0:0:0:
260,240,106903,2,0,L|189:204,1,75,0|10,3:0|0:0,0:0:0:0:
288,136,107531,1,0,3:0:0:0:
192,116,107845,6,0,L|151:261,1,150,2|0,0:0|3:0,0:0:0:0:
52,260,108788,1,2,0:0:0:0:
60,164,109103,2,0,L|131:200,1,75,0|0,3:0|3:0,0:0:0:0:
152,316,109731,1,10,0:0:0:0:
248,324,110045,1,0,3:0:0:0:
308,248,110360,6,0,L|388:228,2,75,2|0|0,0:0|3:0|3:0,0:0:0:0:
336,156,111302,2,0,L|377:11,1,150,2|0,0:0|3:0,0:0:0:0:
432,92,112245,1,10,0:0:0:0:
280,76,112559,1,0,3:0:0:0:
264,172,112874,6,0,L|184:192,2,75,2|0|0,0:0|3:0|3:0,0:0:0:0:
232,80,113817,1,2,0:0:0:0:
128,116,114131,2,0,P|152:174|148:262,1,150,0|10,3:0|0:0,0:0:0:0:
100,344,115074,1,0,3:0:0:0:
228,256,115388,5,6,0:0:0:0:
320,220,115702,2,0,P|392:204|472:232,1,150,0|2,3:0|0:0,0:0:0:0:
500,316,116645,1,0,3:0:0:0:
388,340,116959,2,0,L|316:320,1,75,0|10,3:0|0:0,0:0:0:0:
320,220,117588,1,0,3:0:0:0:
360,132,117902,6,0,P|325:184|240:200,1,150,2|0,0:0|0:0,0:0:0:0:
149,178,118845,2,0,P|183:125|269:110,1,150,2|0,0:0|3:0,0:0:0:0:
240,199,119788,2,0,L|235:253,1,37.5,10|0,0:0|0:0,0:0:0:0:
208,224,120102,6,0,L|182:302,1,75,0|2,3:0|0:0,0:0:0:0:
264,352,120730,1,0,3:0:0:0:
316,268,121045,1,0,3:0:0:0:
316,172,121359,2,0,L|321:118,1,37.5,2|0,0:0|0:0,0:0:0:0:
368,148,121673,2,0,L|394:70,1,75,0|0,3:0|3:0,0:0:0:0:
460,168,122302,2,0,L|436:244,1,75,10|0,0:0|3:0,0:0:0:0:
316,268,122930,6,0,L|232:268,2,75,2|0|0,0:0|3:0|3:0,0:0:0:0:
372,348,123873,2,0,L|448:348,2,75,2|0|0,0:0|3:0|3:0,0:0:0:0:
384,192,124816,1,10,0:0:0:0:
316,80,125130,1,0,3:0:0:0:
308,80,125287,1,0,3:0:0:0:
300,80,125444,6,0,P|256:136|248:220,1,150,6|0,0:0|3:0,0:0:0:0:
308,288,126387,1,2,0:0:0:0:
184,260,126701,1,0,3:0:0:0:
140,172,127016,2,0,L|156:88,1,75,0|10,3:0|0:0,0:0:0:0:
64,60,127644,1,0,3:0:0:0:
28,152,127958,6,0,L|52:232,2,75,2|0|0,0:0|3:0|3:0,0:0:0:0:
156,96,128901,1,2,0:0:0:0:
252,88,129215,1,0,3:0:0:0:
296,176,129530,2,0,L|372:200,1,75,0|10,3:0|0:0,0:0:0:0:
440,100,130158,1,0,3:0:0:0:
436,92,130315,1,0,3:0:0:0:
432,84,130473,6,0,L|496:28,2,75,2|0|0,0:0|3:0|3:0,0:0:0:0:
324,108,131415,2,0,P|252:112|192:56,1,150,2|0,0:0|3:0,0:0:0:0:
284,16,132358,1,10,0:0:0:0:
340,96,132672,1,0,3:0:0:0:
304,188,132987,6,0,P|256:248|192:280,1,150,2|0,0:0|3:0,0:0:0:0:
96,264,133929,1,2,0:0:0:0:
52,176,134244,2,0,L|72:84,1,75,0|0,3:0|3:0,0:0:0:0:
160,176,134872,1,10,0:0:0:0:
192,280,135187,1,0,3:0:0:0:
196,288,135344,1,0,3:0:0:0:
200,296,135501,6,0,P|264:336|336:336,1,150,6|0,0:0|3:0,0:0:0:0:
400,264,136444,1,2,0:0:0:0:
344,184,136758,2,0,L|344:140,1,37.5,0|0,3:0|0:0,0:0:0:0:
304,192,137072,2,0,L|280:104,1,75,0|10,3:0|0:0,0:0:0:0:
312,24,137701,1,0,3:0:0:0:
224,64,138015,6,0,L|144:64,2,75,2|0|0,0:0|3:0|3:0,0:0:0:0:
148,156,138958,1,2,0:0:0:0:
244,156,139272,1,0,3:0:0:0:
168,248,139586,2,0,L|84:248,2,75,0|10|0,3:0|0:0|3:0,0:0:0:0:
176,264,140372,1,0,3:0:0:0:
184,280,140529,6,0,L|260:280,2,75,2|0|0,0:0|3:0|3:0,0:0:0:0:
276,176,141472,2,0,L|308:156,1,37.5,2|0,0:0|0:0,0:0:0:0:
312,204,141786,2,0,L|392:204,1,75,0|0,3:0|3:0,0:0:0:0:
452,128,142415,1,10,0:0:0:0:
432,32,142729,6,0,L|340:32,1,75,0|2,3:0|0:0,0:0:0:0:
264,64,143357,1,0,3:0:0:0:
200,136,143672,2,0,L|200:216,2,75,0|2|0,3:0|0:0|0:0,0:0:0:0:
104,156,144614,2,0,L|104:244,2,75,0|10|0,3:0|0:0|3:0,0:0:0:0:
256,192,145557,12,2,148071,0:0:0:0:
256,192,148700,6,0,L|304:228,1,56.2500021457673,2|0,0:0|0:0,0:0:0:0:
380,220,149328,1,0,0:0:0:0:
432,164,149643,2,0,L|436:100,1,56.2500021457673,0|10,0:0|0:0,0:0:0:0:
344,108,150271,1,0,0:0:0:0:
280,156,150586,6,0,L|180:76,1,112.500004291535,0|2,0:0|0:0,0:0:0:0:
128,132,151528,1,0,0:0:0:0:
108,208,151843,2,0,L|112:272,1,56.2500021457673
198,340,152471,2,0,L|194:280,1,56.2500021457673,10|0,0:0|0:0,0:0:0:0:
270,168,153100,6,0,L|278:284,1,112.500004291535,0|2,0:0|0:0,0:0:0:0:
356,312,154042,1,0,0:0:0:0:
428,276,154357,2,0,L|440:164,1,112.500004291535,0|10,0:0|0:0,0:0:0:0:
356,188,155299,6,0,P|304:180|240:148,1,112.500004291535
188,72,156242,2,0,P|169:94|144:117,1,56.2500021457673,2|0,0:0|0:0,0:0:0:0:
76,144,156871,2,0,P|128:152|192:184,1,112.500004291535,0|10,0:0|0:0,0:0:0:0:
204,252,157814,1,0,0:0:0:0:
180,328,158128,2,0,L|124:372,1,56.2500021457673
256,344,158756,6,0,L|312:300,1,56.2500021457673,2|0,0:0|0:0,0:0:0:0:
292,232,159385,1,0,0:0:0:0:
364,204,159699,2,0,L|420:204,1,56.2500021457673,0|10,0:0|0:0,0:0:0:0:
376,124,160328,6,0,L|256:124,1,112.500004291535
204,176,161271,2,0,L|204:240,1,56.2500021457673,2|0,0:0|0:0,0:0:0:0:
124,288,161899,2,0,L|124:224,1,56.2500021457673
48,160,162528,2,0,L|48:228,2,56.2500021457673,10|0|0,0:0|0:0|0:0,0:0:0:0:
88,22,163785,6,0,L|159:36,1,56.2500021457673,2|0,0:0|0:0,0:0:0:0:
180,104,164413,1,0,0:0:0:0:
232,164,164727,2,0,L|286:140,1,56.2500021457673,0|10,0:0|0:0,0:0:0:0:
360,160,165356,1,0,0:0:0:0:
376,236,165670,6,0,L|432:236,1,56.2500021457673
408,312,166299,2,0,L|292:312,1,112.500004291535,2|0,0:0|0:0,0:0:0:0:
240,256,167242,1,0,0:0:0:0:
264,180,167556,1,10,0:0:0:0:
224,32,167870,1,0,1:0:0:0:
228,44,168027,1,0,1:0:0:0:
232,60,168184,6,0,P|196:124|124:152,1,150,6|0,0:0|1:0,0:0:0:0:
36,116,169127,1,2,0:0:0:0:
72,208,169441,1,2,0:3:0:0:
64,304,169756,2,0,L|-8:356,1,75,0|10,1:0|0:0,0:0:0:0:
136,356,170384,1,0,1:0:0:0:
192,276,170698,6,0,L|272:296,2,75,2|0|0,0:0|1:0|1:0,0:0:0:0:
168,180,171641,1,2,0:0:0:0:
248,124,171956,1,2,0:3:0:0:
332,168,172270,2,0,L|336:248,1,75,0|10,1:0|0:0,0:0:0:0:
456,144,172898,1,0,1:0:0:0:
448,132,173055,1,0,1:0:0:0:
440,120,173213,6,0,L|484:48,2,75,2|0|0,0:0|1:0|1:0,0:0:0:0:
348,84,174155,2,0,P|275:88|208:48,1,150,2|0,0:0|1:0,0:0:0:0:
112,52,175098,1,10,0:0:0:0:
48,124,175412,1,0,1:0:0:0:
124,184,175727,6,0,P|196:180|264:220,1,150,2|0,0:0|1:0,0:0:0:0:
264,316,176669,1,2,0:0:0:0:
168,308,176984,2,0,L|112:372,1,75,2|0,0:3|1:0,0:0:0:0:
72,268,177612,1,10,0:0:0:0:
124,184,177927,1,0,1:0:0:0:
132,172,178084,1,0,1:0:0:0:
140,160,178241,6,0,P|152:88|104:28,1,150,6|0,0:0|1:0,0:0:0:0:
224,72,179184,1,2,0:0:0:0:
320,72,179498,2,0,L|368:48,1,37.5,2|0,0:3|0:0,0:0:0:0:
352,104,179812,2,0,L|436:92,1,75,0|10,1:0|0:0,0:0:0:0:
476,176,180441,1,0,1:0:0:0:
400,240,180755,6,0,L|324:252,2,75,2|0|0,0:0|1:0|1:0,0:0:0:0:
324,136,181698,1,2,0:0:0:0:
264,212,182012,1,2,0:3:0:0:
276,308,182326,2,0,L|344:364,2,75,0|10|0,1:0|0:0|1:0,0:0:0:0:
260,304,183112,1,0,1:0:0:0:
244,304,183269,6,0,L|192:372,2,75,2|0|0,0:0|1:0|1:0,0:0:0:0:
140,216,184212,2,0,L|112:164,1,37.5,0|0,1:0|0:0,0:0:0:0:
172,176,184526,2,0,L|176:92,1,75,2|0,0:3|1:0,0:0:0:0:
260,56,185155,1,10,0:0:0:0:
356,80,185469,6,0,L|396:156,1,75,0|2,1:0|0:0,0:0:0:0:
372,244,186097,1,0,1:0:0:0:
280,280,186412,2,0,L|196:244,2,75,0|2|2,1:0|0:0|0:3,0:0:0:0:
372,244,187354,2,0,L|448:276,2,75,0|10|0,1:0|0:0|1:0,0:0:0:0:
364,232,188140,1,0,1:0:0:0:
356,220,188297,6,0,P|376:148|436:96,1,150,6|0,0:0|1:0,0:0:0:0:
292,108,189240,1,2,0:0:0:0:
224,36,189554,1,2,0:3:0:0:
136,76,189869,2,0,L|63:56,1,75,0|10,1:0|0:0,0:0:0:0:
60,152,190497,1,0,1:0:0:0:
136,216,190811,6,0,L|108:292,2,75,2|0|0,0:0|1:0|1:0,0:0:0:0:
224,176,191754,1,2,0:0:0:0:
316,212,192068,1,2,0:3:0:0:
396,156,192383,2,0,L|424:80,1,75,2|10,0:0|0:0,0:0:0:0:
316,212,193011,1,0,1:0:0:0:
316,228,193168,1,0,1:0:0:0:
316,244,193326,6,0,L|384:292,2,75,2|0|0,0:0|1:0|1:0,0:0:0:0:
236,304,194268,2,0,L|184:152,1,150,2|0,0:0|1:0,0:0:0:0:
256,92,195211,1,10,0:0:0:0:
344,136,195525,1,0,1:0:0:0:
356,144,195683,1,0,1:0:0:0:
368,152,195840,6,0,L|452:20,1,150,2|0,0:0|1:0,0:0:0:0:
468,156,196782,1,2,0:0:0:0:
420,240,197097,2,0,L|484:284,1,75,2|0,0:3|1:0,0:0:0:0:
328,284,197725,1,10,0:0:0:0:
244,232,198039,1,0,1:0:0:0:
228,236,198197,1,0,1:0:0:0:
212,240,198354,6,0,P|148:208|112:132,1,150,6|0,0:0|1:0,0:0:0:0:
160,56,199297,1,2,0:0:0:0:
240,112,199611,2,0,L|300:88,1,37.5,2|0,0:3|0:0,0:0:0:0:
282,150,199925,2,0,L|360:138,1,75,0|10,1:0|0:0,0:0:0:0:
457,168,200554,1,0,1:0:0:0:
453,184,200711,1,0,1:0:0:0:
449,200,200868,6,0,L|368:213,2,75,2|0|0,0:0|1:0|1:0,0:0:0:0:
492,304,201811,1,2,0:0:0:0:
387,294,202125,1,2,0:3:0:0:
299,361,202439,2,0,L|384:369,2,75,0|10|0,1:0|0:0|1:0,0:0:0:0:
287,349,203225,1,0,1:0:0:0:
275,337,203382,6,0,L|194:328,2,75,2|0|0,0:0|1:0|1:0,0:0:0:0:
292,240,204325,2,0,L|304:204,1,37.5,2|2,0:0|0:0,0:0:0:0:
256,208,204639,2,0,L|256:128,1,75,2|0,0:3|1:0,0:0:0:0:
328,68,205268,1,10,0:0:0:0:
184,68,205582,1,0,1:0:0:0:
179,78,205739,1,0,1:0:0:0:
175,88,205896,6,0,L|95:88,1,75,2|0,0:0|1:0,0:0:0:0:
64,180,206525,2,0,L|148:180,2,75,0|2|2,1:0|0:0|0:3,0:0:0:0:
44,276,207467,1,0,1:0:0:0:
112,344,207782,1,10,0:0:0:0:
204,316,208096,2,0,L|204:228,1,75,0|2,1:0|0:0,0:0:0:0:
256,192,208724,12,4,210924,0:0:0:0:
