osu file format v12

[General]
AudioFilename: 03 - Only Time.mp3
AudioLeadIn: 0
PreviewTime: 110400
Countdown: 0
SampleSet: None
StackLeniency: 0.9
Mode: 0
LetterboxInBreaks: 0
WidescreenStoryboard: 1

[Editor]
Bookmarks: 189,11790,37892,61095,87198,110400,142303,164054,204658
DistanceSpacing: 1
BeatDivisor: 4
GridSize: 4

[Metadata]
Title:Only Time
TitleUnicode:Only Time
Artist:Enya
ArtistUnicode:Enya
Creator:[Luanny]
Version:Easy
Source:
Tags:new age blue dragon brennan a day without rain
BeatmapID:329045
BeatmapSetID:126291

[Difficulty]
HPDrainRate:2
CircleSize:4
OverallDifficulty:2
ApproachRate:2
SliderMultiplier:1
SliderTickRate:2

[Events]
//Background and Video events
0,0,"time.jpg",0,0
//Break Periods
//Storyboard Layer 0 (Background)
//Storyboard Layer 1 (Fail)
//Storyboard Layer 2 (Pass)
//Storyboard Layer 3 (Foreground)
//Storyboard Sound Samples
//Background Colour Transformations
3,100,163,162,255

[TimingPoints]
189,725.075528700906,4,2,1,40,1,0
110400,-100,4,2,1,40,0,1
139403,-100,4,2,1,40,0,0
142313,725.075528700906,6,2,1,40,1,0
158274,725.075528700906,4,2,1,40,1,0
158274,-100,4,2,1,5,0,0
164074,-100,4,2,1,40,0,1
198878,-100,4,2,1,40,0,0
205403,-100,4,2,1,5,0,0

[Colours]
Combo1 : 0,128,192
Combo2 : 255,255,149
Combo3 : 168,236,188
Combo4 : 255,159,113

[HitObjects]
312,320,11790,2,0,P|388:292|412:176,1,200,0|2,0:3|0:0,0:0:0:0:
316,216,13965,2,0,P|284:228|248:216,2,50,8|0|6,0:0|0:0|0:3,0:0:0:0:
376,136,15415,1,2,0:0:0:0:
276,128,16140,1,2,0:0:0:0:
316,216,16865,2,0,L|372:243,1,50,8|0,0:0|0:0,0:0:0:0:
404,260,17590,6,0,P|392:316|256:340,1,200,6|0,0:3|0:0,0:0:0:0:
196,276,19766,1,8,0:0:0:0:
264,204,20491,2,0,L|372:196,2,100,6|0|2,0:3|0:0|0:0,0:0:0:0:
164,184,22666,1,8,0:0:0:0:
156,84,23391,6,0,P|104:104|84:244,1,200,6|2,0:3|0:0,0:0:0:0:
164,184,25566,2,0,P|192:176|236:180,1,50,8|0,0:0|0:0,0:0:0:0:
260,192,26291,2,0,P|316:232|440:184,1,200,6|2,0:3|0:0,0:0:0:0:
452,96,28466,1,8,0:0:0:0:
452,96,28829,1,0,0:0:0:0:
452,96,29192,6,0,L|340:80,1,100,6|2,0:3|0:0,0:0:0:0:
260,120,30642,2,0,L|148:104,1,100,0|8,0:0|0:0,0:0:0:0:
84,172,32092,2,0,P|88:252|200:312,1,200,6|2,0:3|0:0,0:0:0:0:
256,244,34267,1,8,0:0:0:0:
330,313,34992,2,0,P|415:267|428:172,1,200,6|2,0:3|0:0,0:0:0:0:
392,80,37167,1,8,0:0:0:0:
344,168,37892,6,0,L|284:172,1,50,6|0,0:3|0:0,0:0:0:0:
252,196,38618,2,0,L|192:200,1,50,2|0,0:0|0:0,0:0:0:0:
159,228,39343,2,0,L|54:235,1,100,2|8,0:0|0:0,0:0:0:0:
88,140,40793,2,0,L|148:136,1,50,6|0,0:3|0:0,0:0:0:0:
180,112,41519,2,0,L|240:108,1,50,2|0,0:0|0:0,0:0:0:0:
272,80,42243,2,0,L|377:72,1,100,0|8,0:0|0:0,0:0:0:0:
391,192,43693,6,0,B|321:248|255:191|255:191|190:139|116:192,1,300,6|8,0:3|0:0,0:0:0:0:
188,264,46593,2,0,P|274:312|376:308,1,200,6|2,0:3|0:0,0:0:0:0:
460,260,48769,1,8,0:0:0:0:
376,208,49494,6,0,P|364:176|368:152,1,50,6|0,0:3|0:0,0:0:0:0:
392,120,50219,2,0,P|391:95|381:72,1,50,2|0,0:0|0:0,0:0:0:0:
344,40,50944,2,0,P|300:28|240:52,1,100,2|8,0:0|0:0,0:0:0:0:
208,136,52394,1,6,0:3:0:0:
264,220,53119,1,2,0:0:0:0:
312,132,53844,2,8,L|416:120,1,100,0|8,0:0|0:0,0:0:0:0:
400,220,55294,6,0,P|276:276|204:152,1,300,6|8,0:3|0:0,0:0:0:0:
309,158,58195,2,0,P|237:275|112:220,1,300,6|8,0:3|0:0,0:0:0:0:
60,132,61095,5,6,0:3:0:0:
128,56,61820,1,0,0:0:0:0:
152,152,62545,2,0,P|192:176|256:164,1,100,2|8,0:0|0:0,0:0:0:0:
276,136,63633,1,4,0:3:0:0:
316,108,63995,2,0,P|364:112|408:248,1,200,6|2,0:3|0:0,0:0:0:0:
332,296,66170,6,0,P|296:296|272:284,2,50,8|4|6,0:0|0:3|0:3,0:0:0:0:
316,196,67621,1,2,0:0:0:0:
215,179,68346,2,0,P|167:188|129:220,1,100,0|8,0:0|0:0,0:0:0:0:
212,284,69796,2,0,P|291:251|308:131,2,200,6|2|6,0:3|0:0|0:3,0:0:0:0:
120,248,73421,5,2,0:0:0:0:
108,148,74146,2,0,P|63:162|24:212,1,100,0|8,0:0|0:0,0:0:0:0:
16,248,75234,1,4,0:3:0:0:
24,292,75596,2,0,P|96:352|196:316,1,200,6|2,0:3|0:0,0:0:0:0:
264,256,77772,1,8,0:0:0:0:
264,256,78134,1,4,0:3:0:0:
264,256,78497,6,0,P|355:226|429:287,1,200,6|2,0:3|0:0,0:0:0:0:
368,364,80672,2,0,L|308:352,1,50,8|4,0:0|0:3,0:0:0:0:
268,356,81397,2,0,P|280:320|192:188,1,200,6|2,0:3|0:0,0:0:0:0:
104,184,83572,1,8,0:0:0:0:
156,268,84297,2,0,L|360:280,1,200,6|2,0:3|0:0,0:0:0:0:
432,344,86472,1,8,0:0:0:0:
452,245,87198,6,0,L|440:181,1,50,6|0,0:3|0:0,0:0:0:0:
404,165,87923,2,0,L|392:101,1,50,2|0,0:0|0:0,0:0:0:0:
364,77,88648,2,0,P|300:49|260:57,1,100,2|8,0:0|0:0,0:0:0:0:
232,85,89735,1,0,0:0:0:0:
224,133,90098,2,0,L|260:245,2,100,6|2|0,0:3|0:0|0:0,0:0:0:0:
184,41,92273,1,8,0:0:0:0:
91,77,92998,6,0,P|42:119|64:245,1,200,6|2,0:3|0:0,0:0:0:0:
127,169,95173,1,8,0:0:0:0:
167,261,95898,2,0,P|216:219|194:93,1,200,6|2,0:3|0:0,0:0:0:0:
107,53,98074,1,8,0:0:0:0:
32,119,98799,6,0,P|24:163|32:183,1,50,6|0,0:3|0:0,0:0:0:0:
60,203,99524,2,0,P|61:227|52:251,1,50,2|0,0:0|0:0,0:0:0:0:
12,283,100249,1,2,0:0:0:0:
108,307,100974,2,0,L|176:315,1,50,8|0,0:0|0:0,0:0:0:0:
204,327,101699,2,0,P|268:311|312:179,2,200,6|2|6,0:3|0:0|0:3,0:0:0:0:
110,292,105324,5,0,0:0:0:0:
104,190,106050,2,0,P|65:197|21:242,1,100,2|8,0:0|0:0,0:0:0:0:
110,292,107500,2,0,B|182:344|247:292|247:292|313:235|383:291,1,300,6|8,0:3|0:0,0:0:0:0:
444,212,110400,5,6,0:3:0:0:
380,136,111125,1,0,0:0:0:0:
480,116,111850,1,2,0:0:0:0:
444,212,112575,2,0,P|408:232|380:232,1,50,8|4,0:0|0:3,0:0:0:0:
360,204,113300,2,0,P|304:168|184:216,1,200,6|2,0:3|0:0,0:0:0:0:
192,312,115476,1,8,0:0:0:0:
192,312,115838,1,4,0:3:0:0:
192,312,116201,6,0,P|248:348|368:300,1,200,6|2,0:3|0:0,0:0:0:0:
348,208,118376,2,0,L|324:144,1,50,8|4,0:0|0:3,0:0:0:0:
332,112,119101,2,0,P|304:156|164:156,2,200,6|2|6,0:3|0:0|0:3,0:0:0:0:
324,12,122726,1,2,0:0:0:0:
240,68,123451,2,0,L|120:80,1,100,2|8,0:0|0:0,0:0:0:0:
96,104,124539,1,4,0:3:0:0:
80,152,124901,6,0,P|100:212|236:236,1,200,6|2,0:3|0:0,0:0:0:0:
292,172,127077,2,0,L|321:128,1,50,8|4,0:0|0:3,0:0:0:0:
352,92,127802,2,0,P|447:99|493:183,1,200,6|2,0:3|0:0,0:0:0:0:
428,260,129977,2,0,L|364:276,1,50,8|4,0:0|0:3,0:0:0:0:
328,276,130702,2,0,P|252:260|156:344,1,200,6|2,0:3|0:0,0:0:0:0:
356,364,133602,6,0,L|460:360,2,100,6|0|2,0:3|0:0|0:0,0:0:0:0:
260,332,135778,1,8,0:0:0:0:
340,272,136503,2,0,P|380:228|336:96,1,200,6|2,0:3|0:0,0:0:0:0:
264,52,138678,1,8,0:0:0:0:
200,128,139403,2,0,P|124:168|20:116,2,200,4|2|6,0:3|0:0|0:3,0:0:0:0:
248,40,143038,5,6,0:3:0:0:
344,16,143763,1,6,0:3:0:0:
436,60,144488,2,0,P|470:108|473:157,2,100,4|2|4,0:3|0:0|0:3,0:0:0:0:
376,140,146663,5,6,0:3:0:0:
344,236,147388,1,6,0:3:0:0:
256,280,148113,1,6,0:3:0:0:
156,268,148838,2,0,P|72:240|40:124,1,200,4|4,0:3|0:3,0:0:0:0:
88,56,151013,5,6,0:3:0:0:
188,56,151738,1,6,0:3:0:0:
268,116,152464,1,6,0:3:0:0:
320,200,153189,2,0,P|348:220|424:220,2,100,4|2|4,0:3|0:0|0:3,0:0:0:0:
392,128,155364,5,6,0:3:0:0:
316,64,156089,1,6,0:3:0:0:
216,76,156814,1,6,0:3:0:0:
156,156,157539,1,4,0:3:0:0:
256,192,158274,12,8,163349,0:0:0:0:
88,144,164074,6,0,P|132:101|255:129,1,200,6|2,0:3|0:0,0:0:0:0:
176,192,166249,2,0,L|132:232,1,50,8|4,0:0|0:3,0:0:0:0:
128,276,166974,2,0,P|168:316|300:288,1,200,6|2,0:3|0:0,0:0:0:0:
320,248,168787,1,0,0:0:0:0:
316,196,169150,2,0,L|288:136,1,50,8|4,0:0|0:3,0:0:0:0:
268,108,169875,6,0,P|220:92|112:192,1,200,6|2,0:3|0:0,0:0:0:0:
118,275,172050,2,0,L|169:295,1,50,8|4,0:0|0:3,0:0:0:0:
191,335,172775,2,0,P|239:351|347:251,2,200,6|2|6,0:3|0:0|0:3,0:0:0:0:
99,293,176400,5,2,0:0:0:0:
182,238,177125,2,0,P|202:194|186:138,1,100,2|8,0:0|0:0,0:0:0:0:
155,109,178213,1,4,0:3:0:0:
107,93,178576,2,0,P|59:109|43:245,1,200,6|2,0:3|0:0,0:0:0:0:
89,326,180751,1,8,0:0:0:0:
89,326,181113,1,4,0:3:0:0:
89,326,181476,6,0,L|301:334,1,200,6|2,0:3|0:0,0:0:0:0:
388,340,183651,1,8,0:0:0:0:
456,264,184376,2,0,P|464:216|436:156,2,100,6|0|2,0:3|0:0|0:0,0:0:0:0:
364,224,186551,1,8,0:0:0:0:
308,140,187277,6,0,P|248:108|112:156,2,200,6|2|6,0:3|0:0|0:3,0:0:0:0:
356,228,190902,1,0,0:0:0:0:
300,312,191627,2,0,L|228:316,1,50,2|0,0:0|0:0,0:0:0:0:
200,324,192352,2,0,L|128:328,1,50,8|0,0:0|0:0,0:0:0:0:
100,332,193077,2,0,P|116:304|47:169,1,200,6|2,0:3|0:0,0:0:0:0:
24,268,195252,1,8,0:0:0:0:
104,208,195977,6,0,B|176:155|241:207|241:207|307:264|377:208,1,300,6|8,0:3|0:0,0:0:0:0:
316,128,198878,2,0,P|280:184|428:296,1,300,4|8,0:3|0:0,0:0:0:0:
484,216,201778,2,0,P|480:168|448:128,1,100,4|0,0:3|0:0,0:0:0:0:
352,104,203228,1,2,0:0:0:0:
288,180,203953,2,0,P|248:196|228:196,1,50,8|0,0:0|0:0,0:0:0:0:
256,192,205403,12,0,211204,0:0:0:0:
