osu file format v12

[General]
AudioFilename: 03 - Only Time.mp3
AudioLeadIn: 0
PreviewTime: 110400
Countdown: 0
SampleSet: Soft
StackLeniency: 0.7
Mode: 0
LetterboxInBreaks: 0
WidescreenStoryboard: 0

[Editor]
Bookmarks: 11790
DistanceSpacing: 0.8
BeatDivisor: 4
GridSize: 4

[Metadata]
Title:Only Time
TitleUnicode:Only Time
Artist:Enya
ArtistUnicode:Enya
Creator:[Luanny]
Version:BD's Normal
Source:
Tags:new age blue dragon brennan a day without rain
BeatmapID:320962
BeatmapSetID:126291

[Difficulty]
HPDrainRate:5
CircleSize:5
OverallDifficulty:4
ApproachRate:5
SliderMultiplier:1.6
SliderTickRate:2

[Events]
//Background and Video events
0,0,"time.jpg",0,0
//Break Periods
//Storyboard Layer 0 (Background)
//Storyboard Layer 1 (Fail)
//Storyboard Layer 2 (Pass)
//Storyboard Layer 3 (Foreground)
//Storyboard Sound Samples
//Background Colour Transformations
3,100,163,162,255

[TimingPoints]
189,725.075528700906,4,2,1,40,1,0
110400,-100,4,2,1,40,0,1
139403,-100,4,2,1,40,0,0
142313,725.075528700906,6,2,1,40,1,0
158274,725.075528700906,4,2,1,40,1,0
164074,-100,4,2,1,40,0,1
198878,-100,4,2,1,40,0,0
205403,-100,4,2,1,5,0,0

[Colours]
Combo1 : 0,128,192
Combo2 : 255,255,149
Combo3 : 168,236,188
Combo4 : 255,159,113

[HitObjects]
64,76,11790,6,0,B|86:53|127:53|134:82|140:111|181:111|204:88,1,160,0|2,0:0|0:0,0:0:0:0:
256,48,12877,1,0,0:0:0:0:
316,20,13240,2,0,B|380:20|412:80|396:132,1,160,2|8,0:0|0:0,0:0:0:0:
372,192,14327,1,0,0:0:0:0:
396,252,14690,2,0,B|412:304|380:364|316:364,2,160,2|0|2,0:0|0:0|0:0,0:0:0:0:
116,252,16865,5,8,0:0:0:0:
116,252,17228,1,0,0:0:0:0:
116,252,17590,2,0,B|100:304|132:364|196:364,2,160,2|0|2,0:0|0:0|0:0,0:0:0:0:
256,32,19766,5,8,0:0:0:0:
256,32,20128,2,0,B|231:51|227:92|255:102|284:110|280:151|255:172,1,160,2|0,0:0|0:0,0:0:0:0:
255,237,21216,1,0,0:0:0:0:
176,136,21941,1,2,0:0:0:0:
44,136,22666,1,8,0:0:0:0:
12,192,23028,5,0,0:0:0:0:
76,192,23391,2,0,B|111:233|105:301|46:326,2,160,2|0|2,0:0|0:0|0:0,0:0:0:0:
44,136,25204,1,0,0:0:0:0:
104,112,25566,2,0,B|188:112,1,80,8|0,0:0|0:0,0:0:0:0:
176,176,26291,2,0,B|336:176,2,160,2|0|2,0:0|0:0|0:0,0:0:0:0:
408,272,28466,6,0,B|324:272,1,80,8|0,0:0|0:0,0:0:0:0:
336,208,29192,2,0,B|176:208,2,160,2|0|2,0:0|0:0|0:0,0:0:0:0:
316,80,31367,1,8,0:0:0:0:
316,80,31729,2,0,B|306:37|257:17|211:37|198:80,1,160,2|0,0:0|0:0,0:0:0:0:
152,125,32817,5,0,0:0:0:0:
116,248,33542,1,2,0:0:0:0:
208,340,34267,1,8,0:0:0:0:
256,300,34630,1,0,0:0:0:0:
304,340,34992,1,0,0:0:0:0:
396,248,35717,1,0,0:0:0:0:
360,125,36442,1,2,0:0:0:0:
256,196,37167,1,8,0:0:0:0:
216,332,37892,6,0,B|296:332,1,80,2|0,0:0|0:0,0:0:0:0:
328,276,38618,1,0,0:0:0:0:
328,276,38980,2,0,B|256:215|184:276,1,160,2|0,0:0|0:0,0:0:0:0:
148,332,40068,1,8,0:0:0:0:
296,52,40793,6,0,B|216:52,1,80,2|0,0:0|0:0,0:0:0:0:
184,108,41518,1,0,0:0:0:0:
184,108,41880,2,0,B|256:169|328:108,1,160,2|0,0:0|0:0,0:0:0:0:
364,52,42968,1,8,0:0:0:0:
389,302,43693,6,0,B|335:337|256:320|254:259|253:198|174:181|120:216,1,320,2|2,0:0|0:0,0:0:0:0:
0,264,45868,1,8,0:0:0:0:
123,302,46593,2,0,B|176:337|255:320|257:259|258:198|337:181|391:216,1,320,2|2,0:0|0:0,0:0:0:0:
512,264,48769,1,8,0:0:0:0:
512,136,49494,6,0,B|512:52,1,80,2|0,0:0|0:0,0:0:0:0:
466,10,50219,1,0,0:0:0:0:
420,55,50581,2,0,B|348:116|276:55,1,160,2|0,0:0|0:0,0:0:0:0:
230,10,51669,1,8,0:0:0:0:
0,248,52394,6,0,B|0:332,1,80,2|0,0:0|0:0,0:0:0:0:
46,374,53119,1,0,0:0:0:0:
92,329,53482,2,0,B|164:268|236:329,1,160,2|0,0:0|0:0,0:0:0:0:
282,374,54569,1,8,0:0:0:0:
436,216,55294,6,0,B|454:95|353:-42|183:-19|110:77,1,480,0|8,0:0|0:0,0:0:0:0:
56,108,57832,1,0,0:0:0:0:
76,168,58195,2,0,B|57:288|158:426|328:403|401:306,1,480,2|8,0:0|0:0,0:0:0:0:
328,200,61095,6,0,B|256:139|184:200,1,160,2|0,0:0|0:0,0:0:0:0:
136,160,62182,1,0,0:0:0:0:
144,92,62545,2,0,B|228:92,1,80,2|0,0:0|0:0,0:0:0:0:
288,92,63270,2,0,B|368:92,1,80,8|0,0:0|0:0,0:0:0:0:
376,28,63995,2,0,B|136:28,1,240,2|0,0:0|0:0,0:0:0:0:
76,48,65445,1,2,0:0:0:0:
40,100,65808,1,0,0:0:0:0:
48,164,66170,6,0,B|48:252,1,80,8|0,0:0|0:0,0:0:0:0:
112,244,66895,2,0,B|112:302|153:344|212:344,1,160,2|0,0:0|0:0,0:0:0:0:
276,328,67983,1,0,0:0:0:0:
284,264,68346,2,0,B|284:205|242:163|183:163,1,160,2|8,0:0|0:0,0:0:0:0:
120,176,69433,2,0,B|120:12,1,160,0|2,0:0|0:0,0:0:0:0:
428,136,71971,5,8,0:0:0:0:
460,192,72334,1,0,0:0:0:0:
414,237,72696,2,0,B|414:295|372:337|313:337,1,160,2|0,0:0|0:0,0:0:0:0:
256,308,73784,1,0,0:0:0:0:
199,337,74146,2,0,B|139:337|98:295|98:237,1,160,0|8,0:0|0:0,0:0:0:0:
131,182,75234,1,0,0:0:0:0:
176,136,75596,2,0,B|336:136,2,160,2|0|2,0:0|0:0|0:0,0:0:0:0:
140,84,77409,2,0,B|52:84,2,80,0|8|0,0:0|0:0|0:0,0:0:0:0:
176,32,78497,2,0,B|336:32,2,160,2|0|2,0:0|0:0|0:0,0:0:0:0:
256,192,80309,12,2,82847,0:0:0:0:
256,344,83572,5,8,0:0:0:0:
182,237,84297,2,0,P|121:282|136:356,1,160
355,356,85747,2,0,P|370:281|309:236,1,160,0|8,0:0|0:0,0:0:0:0:
314,99,87198,6,0,P|284:124|272:168,2,80,2|0|2,0:0|0:0|0:0,0:0:0:0:
377,99,88285,2,0,B|137:99,1,240,0|8,0:0|0:0,0:0:0:0:
132,164,89735,1,0,0:0:0:0:
198,179,90098,2,0,P|212:136|244:112,2,80,2|0|2,0:0|0:0|0:0,0:0:0:0:
256,208,91185,2,0,B|279:230|279:271|250:278|221:284|221:325|244:348,1,160,2|0,0:0|0:0,0:0:0:0:
244,348,92273,1,8,0:0:0:0:
374,159,92998,6,0,B|354:80|256:21|157:80|137:158,1,320,2|2,0:0|0:0,0:0:0:0:
256,192,95173,1,8,0:0:0:0:
138,225,95898,2,0,B|157:303|255:362|354:303|374:225,1,320,2|2,0:0|0:0,0:0:0:0:
256,192,98074,1,8,0:0:0:0:
296,72,98799,6,0,B|216:72,1,80,2|0,0:0|0:0,0:0:0:0:
156,52,99524,1,0,0:0:0:0:
110,97,99886,2,0,B|87:119|87:160|116:167|145:173|145:214|122:237,1,160,2|0,0:0|0:0,0:0:0:0:
76,282,100974,1,8,0:0:0:0:
216,312,101699,6,0,B|296:312,1,80,2|0,0:0|0:0,0:0:0:0:
356,332,102424,1,0,0:0:0:0:
402,287,102787,2,0,B|425:265|425:224|396:217|367:211|367:170|390:147,1,160,2|0,0:0|0:0,0:0:0:0:
435,101,103874,2,0,B|435:23,1,80,8|0,0:0|0:0,0:0:0:0:
372,24,104599,6,0,B|256:80|140:24,1,240,2|0,0:0|0:0,0:0:0:0:
77,21,106050,2,0,B|77:101,1,80,2|0,0:0|0:0,0:0:0:0:
60,164,106775,1,8,0:0:0:0:
84,224,107137,1,0,0:0:0:0:
140,256,107500,6,0,B|256:200|372:256,1,240,2|0,0:0|0:0,0:0:0:0:
392,316,108950,2,0,B|336:200|392:84,1,240,2|0,0:0|0:0,0:0:0:0:
436,39,110400,6,0,B|488:100,1,80,2|0,0:0|0:0,0:0:0:0:
442,145,111125,1,0,0:0:0:0:
372,16,111850,2,0,B|332:28|292:80|308:148,1,160,2|8,0:0|0:0,0:0:0:0:
340,204,112938,1,0,0:0:0:0:
332,268,113300,6,0,B|256:312|180:268,1,160,2|0,0:0|0:0,0:0:0:0:
180,204,114388,1,2,0:0:0:0:
124,236,114750,1,0,0:0:0:0:
124,172,115113,1,2,0:0:0:0:
68,204,115476,1,8,0:0:0:0:
68,140,115838,1,2,0:0:0:0:
68,75,116201,6,0,B|144:31|220:75,1,160,2|0,0:0|0:0,0:0:0:0:
256,128,117288,1,2,0:0:0:0:
288,228,117651,1,0,0:0:0:0:
204,168,118013,1,2,0:0:0:0:
308,168,118376,1,8,0:0:0:0:
224,228,118738,1,2,0:0:0:0:
292,74,119101,6,0,B|368:31|444:75,1,160,2|0,0:0|0:0,0:0:0:0:
484,124,120188,1,2,0:0:0:0:
432,160,120551,1,0,0:0:0:0:
376,192,120914,1,2,0:0:0:0:
432,224,121276,1,8,0:0:0:0:
484,260,121639,1,0,0:0:0:0:
443,309,122001,6,0,B|368:353|292:309,1,160,2|0,0:0|0:0,0:0:0:0:
256,256,123089,1,0,0:0:0:0:
219,309,123451,2,0,B|144:353|68:309,1,160,2|8,0:0|0:0,0:0:0:0:
40,252,124539,1,0,0:0:0:0:
60,192,124901,2,0,B|156:192,1,80,2|0,0:0|0:0,0:0:0:0:
204,188,125627,6,0,B|226:165|267:165|274:194|280:223|321:223|344:200,1,160,2|0,0:0|0:0,0:0:0:0:
389,154,126714,1,0,0:0:0:0:
440,192,127077,2,0,B|440:272,1,80,8|0,0:0|0:0,0:0:0:0:
392,312,127802,6,0,B|370:335|329:335|322:306|316:277|275:277|252:300,1,160,2|0,0:0|0:0,0:0:0:0:
206,345,128889,1,2,0:0:0:0:
155,307,129252,2,0,B|155:227,1,80,0|2,0:0|0:0,0:0:0:0:
256,192,129977,12,8,132877,0:0:0:0:
176,69,133602,6,0,B|256:89|335:69,1,160,2|2,0:0|0:0,0:0:0:0:
392,36,134690,1,0,0:0:0:0:
392,100,135053,2,0,B|367:136|392:173,1,80,2|0,0:0|0:0,0:0:0:0:
448,208,135778,2,0,B|472:171|448:134,1,80,8|0,0:0|0:0,0:0:0:0:
340,212,136503,6,0,B|320:291|340:370,2,160,2|0|2,0:0|0:0|0:0,0:0:0:0:
280,100,138678,1,8,0:0:0:0:
172,172,139403,6,0,B|191:92|172:13,2,160,2|0|2,0:0|0:0|0:0,0:0:0:0:
232,284,141578,1,8,0:0:0:0:
104,292,142313,6,0,B|28:264,1,80,2|0,0:0|0:0,0:0:0:0:
116,224,143038,2,0,B|56:168,1,80,2|0,0:0|0:0,0:0:0:0:
156,168,143763,2,0,B|123:93,1,80,2|0,0:0|0:0,0:0:0:0:
216,136,144488,2,0,B|216:56,2,80,2|0|2,0:0|0:0|0:0,0:0:0:0:
256,184,145575,1,0,0:0:0:0:
296,136,145938,2,0,B|296:56,1,80,2|0,0:0|0:0,0:0:0:0:
388,93,146663,6,0,B|356:168,1,80,2|0,0:0|0:0,0:0:0:0:
455,168,147388,2,0,B|396:224,1,80,2|0,0:0|0:0,0:0:0:0:
484,264,148113,2,0,B|408:292,1,80,2|0,0:0|0:0,0:0:0:0:
332,328,148838,2,0,B|255:289|178:328,1,160,2|0,0:0|0:0,0:0:0:0:
128,288,149926,1,0,0:0:0:0:
176,244,150288,1,2,0:0:0:0:
176,28,151013,6,0,B|108:72,1,80,2|0,0:0|0:0,0:0:0:0:
176,152,151738,2,0,B|220:84,1,80,2|0,0:0|0:0,0:0:0:0:
292,84,152464,2,0,B|336:152,1,80,2|0,0:0|0:0,0:0:0:0:
404,72,153189,2,0,B|336:28,2,80,2|0|2,0:0|0:0|0:0,0:0:0:0:
176,28,154639,2,0,B|108:72,2,80,2|0|2,0:0|0:0|0:0,0:0:0:0:
224,72,155726,5,0,0:0:0:0:
288,72,156089,1,2,0:0:0:0:
320,128,156451,1,0,0:0:0:0:
256,128,156814,1,2,0:0:0:0:
192,128,157177,1,0,0:0:0:0:
192,192,157539,2,0,B|224:248|288:248|320:192,1,160,2|2,0:0|0:0,0:0:0:0:
256,192,158455,12,0,163349,0:0:0:0:
292,36,164074,6,0,B|304:124,1,80,2|0,0:0|0:0,0:0:0:0:
256,160,164799,2,0,B|268:248,1,80,2|0,0:0|0:0,0:0:0:0:
323,263,165524,2,0,B|264:263|224:303|224:363,1,160,2|8,0:0|0:0,0:0:0:0:
288,364,166612,1,0,0:0:0:0:
287,364,166974,2,0,B|287:303|247:263|188:263,1,160,2|0,0:0|0:0,0:0:0:0:
141,217,168062,2,0,B|152:138,1,80,2|0,0:0|0:0,0:0:0:0:
105,93,168787,2,0,B|116:14,2,80,2|8|0,0:0|0:0|0:0,0:0:0:0:
64,144,169875,6,0,B|45:169|53:210|83:211|112:211|120:252|102:279,1,160,2|0,0:0|0:0,0:0:0:0:
48,320,170962,1,0,0:0:0:0:
80,376,171325,1,2,0:0:0:0:
136,344,171687,1,0,0:0:0:0:
192,376,172050,1,8,0:0:0:0:
248,344,172412,2,0,B|278:343|298:324|298:294,1,80,2|0,0:0|0:0,0:0:0:0:
352,264,173138,2,0,B|396:192|368:80|256:24|144:80|116:192|160:264,1,480,2|0,0:0|0:0,0:0:0:0:
223,224,175675,6,0,B|209:192|228:161|256:148|283:161|302:192|288:224,1,160,2|0,0:0|0:0,0:0:0:0:
256,280,176763,1,0,0:0:0:0:
192,280,177125,2,0,B|192:324|192:324|220:344,1,80,2|0,0:0|0:0,0:0:0:0:
290,344,177851,2,0,B|320:324|320:324|320:280,1,80,8|0,0:0|0:0,0:0:0:0:
256,280,178576,6,0,B|231:260|227:219|255:209|284:201|280:160|255:139,1,160,2|0,0:0|0:0,0:0:0:0:
192,140,179663,1,2,0:0:0:0:
172,80,180026,1,0,0:0:0:0:
224,40,180388,1,2,0:0:0:0:
288,40,180751,1,8,0:0:0:0:
340,80,181113,1,2,0:0:0:0:
320,140,181476,6,0,B|320:200|359:240|419:240,1,160,2|0,0:0|0:0,0:0:0:0:
464,192,182564,1,0,0:0:0:0:
419,143,182926,2,0,B|359:143|320:183|320:244,1,160,2|8,0:0|0:0,0:0:0:0:
365,289,184014,1,2,0:0:0:0:
234,303,184739,2,0,B|217:243|260:192|260:192|217:140|234:80,1,240,2|0,0:0|0:0,0:0:0:0:
200,24,186189,1,0,0:0:0:0:
156,68,186551,2,0,B|144:108|156:148,1,80,8|0,0:0|0:0,0:0:0:0:
108,192,187277,6,0,B|152:268|108:344,2,160,0|0|2,0:0|0:0|0:0,0:0:0:0:
56,152,189089,1,0,0:0:0:0:
36,92,189452,2,0,L|96:32,1,80,8|2,0:0|0:0,0:0:0:0:
292,116,190539,6,0,B|248:192|292:268,1,160
340,224,191627,1,2,0:0:0:0:
340,160,191990,1,0,0:0:0:0:
400,252,192352,1,8,0:0:0:0:
400,132,192715,1,0,0:0:0:0:
460,224,193077,6,0,B|504:300|460:376,2,160,0|2|0,0:0|0:0|0:0,0:0:0:0:
460,160,194890,2,0,B|438:122|460:84,1,80,0|8,0:0|0:0,0:0:0:0:
406,46,195615,2,0,B|362:122|406:198,2,160,0|2|0,0:0|0:0|0:0,0:0:0:0:
348,20,197428,2,0,B|268:20,1,80,2|0,0:0|0:0,0:0:0:0:
272,84,198153,2,0,B|192:84,1,80,8|0,0:0|0:0,0:0:0:0:
196,148,198878,1,0,0:0:0:0:
116,324,199965,5,0,0:0:0:0:
164,364,200328,2,0,B|244:364,1,80,2|0,0:0|0:0,0:0:0:0:
240,300,201053,2,0,B|320:300,1,80,8|0,0:0|0:0,0:0:0:0:
316,236,201778,1,0,0:0:0:0:
196,84,202866,5,0,0:0:0:0:
176,144,203228,2,0,B|228:216,1,80,2|0,0:0|0:0,0:0:0:0:
289,208,203953,2,0,B|336:144,1,80,8|0,0:0|0:0,0:0:0:0:
256,192,205403,12,0,211204,0:0:0:0:
