osu file format v12

[General]
AudioFilename: China Roses.mp3
AudioLeadIn: 0
PreviewTime: 89497
Countdown: 0
SampleSet: Soft
StackLeniency: 0.6
Mode: 0
LetterboxInBreaks: 0

[Editor]
Bookmarks: 15540,18687,40192,65892,87926,154027,179208
DistanceSpacing: 0.9
BeatDivisor: 2
GridSize: 4

[Metadata]
Title:China Roses
TitleUnicode:China Roses
Artist:Enya
ArtistUnicode:Enya
Creator:Blue Dragon
Version:Easy
Source:
Tags:the memory of trees brennan
BeatmapID:249510
BeatmapSetID:92258

[Difficulty]
HPDrainRate:2
CircleSize:4
OverallDifficulty:2
ApproachRate:2
SliderMultiplier:1
SliderTickRate:1

[Events]
//Background and Video events
0,0,"Enya3.jpg",0,0
//Break Periods
2,65894,87923
//Storyboard Layer 0 (Background)
//Storyboard Layer 1 (Fail)
//Storyboard Layer 2 (Pass)
//Storyboard Layer 3 (Foreground)
//Storyboard Sound Samples
//Background Colour Transformations
3,100,163,162,255

[TimingPoints]
15540,524.521374246001,3,2,0,40,1,0
20260,-100,3,2,0,45,0,0
25505,-100,3,2,0,40,0,0
26030,-100,3,2,0,30,0,0
26554,-100,3,2,0,20,0,0
27079,-100,3,2,0,10,0,0
27603,-100,3,2,0,40,0,0
28128,-100,3,2,0,30,0,0
28653,-100,3,2,0,70,0,0
29702,-100,3,2,0,35,0,0
30226,-100,3,2,0,70,0,0
31275,-100,3,2,0,70,0,0
35471,-100,3,2,0,45,0,0
35996,-100,3,2,0,70,0,0
36520,-100,3,2,0,60,0,0
37307,-100,3,2,0,45,0,0
39143,-100,3,2,0,30,0,0
40717,-100,3,2,0,70,0,0
41766,-100,3,2,0,45,0,0
42290,-100,3,2,0,65,0,0
43339,-100,3,2,0,45,0,0
43864,-100,3,2,0,70,0,0
44913,-100,3,2,0,50,0,0
45437,-100,3,2,0,60,0,0
46486,-100,3,2,0,50,0,0
47011,-100,3,2,0,35,0,0
47535,-100,3,2,0,70,0,0
48060,-100,3,2,0,55,0,0
48584,-100,3,2,0,55,0,0
50158,-100,3,2,0,60,0,0
50682,-100,3,2,0,40,0,0
51207,-100,3,2,0,20,0,0
51731,-100,3,2,0,5,0,0
52781,-100,3,2,0,35,0,0
53305,-100,3,2,0,30,0,0
53830,-100,3,2,0,20,0,0
54879,-100,3,2,0,30,0,0
55403,-100,3,2,0,50,0,0
56452,-100,3,2,0,45,0,0
57501,-100,3,2,0,25,0,0
58026,-100,3,2,0,55,0,0
58550,-100,3,2,0,35,0,0
59075,-100,3,2,0,15,0,0
59599,-100,3,2,0,30,0,0
60124,-100,3,2,0,50,0,0
60648,-100,3,2,0,40,0,0
61435,-100,3,2,0,30,0,0
63271,-100,3,2,0,25,0,0
63795,-100,3,2,0,20,0,0
64320,-100,3,2,0,15,0,0
65894,-100,3,2,0,30,0,0
90546,-100,3,2,0,15,0,0
91071,-100,3,2,0,40,0,0
92120,-100,3,2,0,20,0,0
92644,-100,3,2,0,45,0,0
93693,-100,3,2,0,35,0,0
94218,-100,3,2,0,45,0,0
95267,-100,3,2,0,35,0,0
95791,-100,3,2,0,45,0,0
96840,-100,3,2,0,40,0,0
97889,-100,3,2,0,50,0,0
98938,-100,3,2,0,40,0,0
102085,-100,3,2,0,25,0,0
102610,-100,3,2,0,40,0,0
103135,-100,3,2,0,55,0,0
105233,-100,3,2,0,45,0,0
106282,-100,3,2,0,30,0,0
106806,-100,3,2,0,45,0,0
107855,-100,3,2,0,30,0,0
113100,-100,3,2,0,15,0,0
117821,-100,3,2,0,45,0,0
133557,-100,3,2,0,30,0,0
134606,-100,3,2,0,45,0,0
154013,-90.9090909090909,3,2,0,60,0,1
166077,-90.9090909090909,3,2,0,40,0,1
166602,-90.9090909090909,3,2,0,30,0,1
167126,-90.9090909090909,3,2,0,60,0,1
179190,-100,3,2,0,60,0,0

[Colours]
Combo1 : 255,192,74
Combo2 : 251,189,221
Combo3 : 170,24,248
Combo4 : 200,38,38

[HitObjects]
60,68,15540,2,0,P|86:121|220:136,1,200,2|0,0:0|0:0,0:0:0:0:
300,112,17113,2,0,P|427:130|454:183,1,200,2|0,0:0|0:0,0:0:0:0:
436,272,18687,5,2,0:0:0:0:
276,192,19736,1,0,0:0:0:0:
328,120,20260,2,0,P|256:62|184:120,1,200,2|0,0:0|0:0,0:0:0:0:
104,160,21834,6,0,P|136:224|0:368,2,300,2|2|0,0:0|0:0|0:0,0:0:0:0:
52,88,25505,1,0,0:0:0:0:
112,20,26030,2,0,P|208:96|388:88,1,300,2|2,0:0|0:0,0:0:0:0:
442,28,28128,1,4,0:0:0:0:
476,112,28653,6,0,B|435:193|512:220|471:306,2,200,2|0|0,0:0|0:0|0:0,0:0:0:0:
388,92,31275,2,0,P|248:127|220:173,1,200,2|0,0:0|0:0,0:0:0:0:
308,200,32849,2,0,P|272:60|232:34,1,200,2|0,0:0|0:0,0:0:0:0:
144,36,34422,6,0,P|56:152|280:336,1,500,2|0,0:0|0:0,0:0:0:0:
256,192,37569,12,0,39143,0:0:0:0:
36,272,40717,6,0,P|170:267|210:307,1,200,2|0,0:0|0:0,0:0:0:0:
301,307,42290,2,0,P|341:267|500:380,2,300,2|2|0,0:0|0:0|0:0,0:0:0:0:
216,340,45962,2,0,P|156:344|44:268,1,200,0|4,0:0|0:0,0:0:0:0:
20,180,47535,5,2,0:0:0:0:
52,96,48060,1,0,0:0:0:0:
124,40,48584,2,0,P|204:28|364:160,2,300,2|2|0,0:0|0:0|0:0,0:0:0:0:
24,188,52781,2,0,P|32:236|68:280,1,100,2|4,0:0|0:0,0:0:0:0:
104,356,53830,6,0,P|152:300|372:308,1,300,2|0,0:0|0:0,0:0:0:0:
384,124,56452,2,0,P|256:58|128:124,2,300,2|2|0,0:0|0:0|0:0,0:0:0:0:
332,196,60124,6,0,P|256:251|180:196,2,200,2|0|0,0:0|0:0|0:0,0:0:0:0:
308,108,62746,2,0,B|196:213|311:262|195:373,1,300,2|0,0:0|0:0,0:0:0:0:
56,56,89497,6,0,P|132:76|208:168,1,200,2|0,0:0|0:0,0:0:0:0:
304,166,91071,2,0,P|380:76|456:56,1,200,2|0,0:0|0:0,0:0:0:0:
492,140,92644,2,0,P|468:260|304:300,2,300,2|2|0,0:0|0:0|0:0,0:0:0:0:
444,64,96316,6,0,P|404:32|348:28,1,100,0|2,0:0|0:0,0:0:0:0:
272,60,97365,2,0,P|244:104|312:232,1,200
324,140,98938,2,0,P|219:147|216:312,2,300,6|0|4,0:0|0:0|0:0,0:0:0:0:
412,156,102610,5,0,0:0:0:0:
472,224,103135,2,0,P|484:280|380:364,1,200,0|2,0:0|0:0,0:0:0:0:
256,240,105233,6,0,P|204:236|76:308,1,200,2|0,0:0|0:0,0:0:0:0:
156,348,106806,2,0,L|176:140,1,200,2|0,0:0|0:0,0:0:0:0:
164,56,108380,2,0,P|256:96|344:56,2,200,2|0|2,0:0|0:0|0:0,0:0:0:0:
256,192,111527,12,0,113100,0:0:0:0:
256,192,114674,12,0,116248,0:0:0:0:
392,56,117821,6,0,P|420:164|328:324,2,300,2|2|0,0:0|0:0|0:0,0:0:0:0:
304,32,121493,2,0,P|244:44|220:72,1,100,2|0,0:0|0:0,0:0:0:0:
260,152,122542,6,0,P|264:240|184:316,1,200,2|0,0:0|0:0,0:0:0:0:
100,300,124115,2,0,P|52:225|83:119,1,200,2|0,0:0|0:0,0:0:0:0:
124,44,125689,2,0,P|196:88|316:84,1,200,2|0,0:0|0:0,0:0:0:0:
368,20,127263,6,0,L|472:308,1,300,0|2,0:0|0:0,0:0:0:0:
220,372,130410,2,0,P|168:348|140:204,1,200,2|0,0:0|0:0,0:0:0:0:
212,260,131983,2,0,P|268:188|120:140,1,300,2|4,0:0|0:0,0:0:0:0:
268,24,134606,5,0,0:0:0:0:
352,60,135130,2,0,P|416:64|492:264,1,300,2|0,0:0|0:0,0:0:0:0:
416,296,137228,2,0,P|373:304|331:351,1,100,2|0,0:0|0:0,0:0:0:0:
248,316,138278,2,0,P|184:312|108:112,1,300,2|0,0:0|0:0,0:0:0:0:
184,80,140376,2,0,P|226:71|268:24,1,100,2|0,0:0|0:0,0:0:0:0:
359,25,141425,6,0,P|311:121|132:157,2,300,2|0|2,0:0|0:0|0:0,0:0:0:0:
476,160,145621,5,0,0:0:0:0:
492,248,146145,2,0,P|456:308|336:344,1,200,2|0,0:0|0:0,0:0:0:0:
346,261,147719,2,0,B|311:207|311:207|348:143|331:63|284:20|215:3|143:19|103:63|79:131|92:182|171:227|229:189|223:142,1,600,2|2,0:0|0:0,0:0:0:0:
256,192,150997,12,4,154013,0:0:0:0:
400,36,155062,5,0,0:0:0:0:
460,116,155587,2,0,P|456:200|352:292,1,220.000006713867,2|0,0:0|0:0,0:0:0:0:
332,196,157160,2,0,B|288:252|232:252|232:252|200:292|212:356,1,220.000006713867,2|0,0:0|0:0,0:0:0:0:
301,347,158734,2,0,B|312:292|280:252|280:252|224:252|180:196,1,220.000006713867,2|0,0:0|0:0,0:0:0:0:
124,116,160307,6,0,P|256:32|388:116,2,330.000010070801,2|2|0,0:0|0:0|0:0,0:0:0:0:
32,156,163979,1,0,0:0:0:0:
100,228,164504,2,0,P|148:252|212:248,1,110.000003356934,2|0,0:0|0:0,0:0:0:0:
308,252,165553,2,0,P|364:254|412:230,2,110.000003356934,0|2|4,0:0|0:0|0:0,0:0:0:0:
328,160,167126,6,0,P|408:124|492:304,1,330.000010070801,2|2,0:0|0:0,0:0:0:0:
292,268,169749,2,0,P|160:260|84:320,1,220.000006713867,2|0,0:0|0:0,0:0:0:0:
176,360,171322,2,0,L|176:140,1,220.000006713867,2|0,0:0|0:0,0:0:0:0:
99,76,172896,6,0,B|264:6|248:159|412:108,2,330.000010070801,2|2|0,0:0|0:0|0:0,0:0:0:0:
256,192,176174,12,4,179190,2:0:0:0:
