osu file format v12

[General]
AudioFilename: Caribbean Blue.mp3
AudioLeadIn: 0
PreviewTime: 42728
Countdown: 0
SampleSet: Soft
StackLeniency: 0.2
Mode: 0
LetterboxInBreaks: 0
WidescreenStoryboard: 1

[Editor]
Bookmarks: 25599,42728,52244,60999,81553,98682,116953,138649,156920,175190,192319,196887
DistanceSpacing: 1.3
BeatDivisor: 4
GridSize: 4

[Metadata]
Title:Caribbean Blue
TitleUnicode:Caribbean Blue
Artist:Enya
ArtistUnicode:Enya
Creator:Blue Dragon
Version:Luanny's Insane
Source:
Tags:Shepherd Moons New Age luanny
BeatmapID:373657
BeatmapSetID:109446

[Difficulty]
HPDrainRate:5
CircleSize:6
OverallDifficulty:6
ApproachRate:8
SliderMultiplier:1.6
SliderTickRate:2

[Events]
//Background and Video events
0,0,"wallpaper-2152611.jpg",0,0
//Break Periods
//Storyboard Layer 0 (Background)
//Storyboard Layer 1 (Fail)
//Storyboard Layer 2 (Pass)
//Storyboard Layer 3 (Foreground)
//Storyboard Sound Samples
//Background Colour Transformations
3,100,163,162,255

[TimingPoints]
25609.8718711775,380.63820338768,3,2,1,45,1,0
61019,380.63820338768,3,2,1,45,1,0
81563,380.63820338768,3,2,1,45,1,0
155788,-100,3,2,1,5,0,0
156930,-100,3,2,1,35,0,0
175200,-100,3,2,1,30,0,0
192519,-100,3,2,1,5,0,0

[Colours]
Combo1 : 47,83,104
Combo2 : 250,80,37
Combo3 : 105,210,228
Combo4 : 158,111,39

[HitObjects]
132,376,25609,6,0,P|196:360|220:276,1,160,0|0,3:0|0:0,0:0:0:0:
180,208,26180,1,0,0:0:0:0:
100,216,26371,2,0,L|56:288,2,80,0|2|0,0:0|0:0|3:0,0:0:0:0:
132,140,26942,1,0,0:0:0:0:
116,60,27132,2,0,P|96:20|60:0,1,80,0|0,0:0|0:0,0:0:0:0:
50,157,27513,2,0,P|70:197|100:216,1,80,0|2,0:0|0:0,0:0:0:0:
132,140,27893,6,0,L|72:288,1,160,0|0,3:0|0:0,0:0:0:0:
12,340,28464,1,0,0:0:0:0:
160,264,28654,2,0,B|225:212|243:266|308:215,1,160,0|0,0:0|3:0,0:0:0:0:
348,148,29225,1,0,0:0:0:0:
308,216,29416,1,0,0:0:0:0:
344,288,29606,1,0,0:0:0:0:
420,308,29796,1,0,0:0:0:0:
400,228,29987,1,2,0:0:0:0:
344,288,30177,6,0,P|344:336|368:364,1,80,0|0,3:0|0:0,0:0:0:0:
440,372,30558,2,0,L|272:348,1,160,0|0,0:0|0:0,0:0:0:0:
192,268,31129,1,2,0:0:0:0:
304,224,31319,1,0,3:0:0:0:
304,224,31509,1,0,0:0:0:0:
281,349,31700,2,0,P|240:364|200:352,1,80,0|0,0:0|0:0,0:0:0:0:
124,232,32080,2,0,P|166:242|193:274,1,80,0|2,0:0|0:0,0:0:0:0:
124,312,32461,6,0,P|80:300|52:200,1,160,0|0,3:0|0:0,0:0:0:0:
116,152,33032,1,0,0:0:0:0:
128,72,33222,1,0,0:0:0:0:
84,4,33412,1,2,0:0:0:0:
204,60,33603,2,0,L|284:72,1,80,0|0,3:0|0:0,0:0:0:0:
145,227,33983,2,0,L|116:152,1,80,0|0,3:0|0:0,0:0:0:0:
328,192,34364,2,0,L|277:255,1,80,0|2,3:0|0:0,0:0:0:0:
244,184,34745,6,0,L|348:60,1,160,0|0,3:0|0:0,0:0:0:0:
388,132,35316,1,0,0:0:0:0:
408,208,35506,2,0,P|384:256|352:268,1,80,0|2,0:0|0:0,0:0:0:0:
328,192,35887,2,0,L|444:76,1,160,0|0,3:0|0:0,0:0:0:0:
364,56,36458,1,0,0:0:0:0:
296,12,36648,1,0,0:0:0:0:
236,64,36838,1,2,0:0:0:0:
164,32,37029,6,0,P|120:76|136:168,1,160,0|0,3:0|0:0,0:0:0:0:
184,232,37599,2,0,L|152:308,2,80,0|0|2,0:0|0:0|0:0,0:0:0:0:
240,176,38170,2,0,P|280:172|320:196,1,80,0|0,3:0|0:0,0:0:0:0:
400,316,38551,2,0,P|360:320|320:296,1,80,0|0,0:0|0:0,0:0:0:0:
376,240,38932,1,0,0:0:0:0:
420,176,39122,1,2,0:0:0:0:
428,96,39312,6,0,L|348:60,1,80,0|0,3:0|0:0,0:0:0:0:
300,8,39693,2,0,P|352:56|340:140,1,160,0|0,0:0|0:0,0:0:0:0:
276,184,40264,1,2,0:0:0:0:
196,168,40454,2,0,P|152:160|112:176,1,80,0|0,3:0|0:0,0:0:0:0:
48,292,40835,2,0,L|136:268,1,80,0|0,0:0|0:0,0:0:0:0:
280,344,41216,2,0,L|192:368,1,80,0|2,0:0|0:0,0:0:0:0:
296,252,41596,6,0,P|356:240|396:152,1,160,0|2,3:0|0:0,0:0:0:0:
384,76,42167,1,0,0:0:0:0:
304,24,42357,1,0,0:0:0:0:
200,40,42548,1,2,0:0:0:0:
152,132,42738,6,0,P|140:228|180:276,1,160,0|2,3:0|0:0,0:0:0:0:
256,292,43309,1,0,0:0:0:0:
332,264,43499,2,0,L|284:200,2,80,2|0|0,0:0|3:0|3:0,0:0:0:0:
316,344,44070,1,0,0:0:0:0:
316,344,44261,2,0,P|280:372|240:372,1,80,2|0,0:0|0:0,0:0:0:0:
172,344,44641,2,0,P|138:345|102:373,1,80,2|0,0:0|0:0,0:0:0:0:
32,336,45022,6,0,P|84:284|176:264,1,160,0|2,3:0|0:0,0:0:0:0:
240,296,45593,1,0,0:0:0:0:
312,264,45783,2,0,L|340:180,1,80,2|0,0:0|0:0,0:0:0:0:
308,112,46164,2,0,P|340:188|412:216,1,160,0|2,3:0|0:0,0:0:0:0:
476,176,46735,1,0,0:0:0:0:
464,96,46925,1,2,0:0:0:0:
400,48,47115,1,0,0:0:0:0:
320,32,47306,6,0,P|268:40|244:64,1,80,0|0,3:0|0:0,0:0:0:0:
236,136,47686,2,0,P|268:177|293:185,1,80,2|0,0:0|0:0,0:0:0:0:
404,232,48067,2,0,P|351:240|332:257,1,80,2|0,0:0|0:0,0:0:0:0:
392,308,48448,2,0,L|420:144,1,160,0|2,3:0|0:0,0:0:0:0:
392,76,49019,1,0,0:0:0:0:
344,140,49209,1,2,0:0:0:0:
418,150,49399,1,0,0:0:0:0:
312,68,49590,6,0,P|264:144|292:200,1,160,0|2,3:0|0:0,0:0:0:0:
372,208,50161,1,0,0:0:0:0:
400,284,50351,1,2,0:0:0:0:
348,348,50541,1,2,0:0:0:0:
268,348,50731,2,0,P|256:304|228:280,1,80,0|0,3:0|0:0,0:0:0:0:
72,264,51112,2,0,P|116:275|150:263,1,80,0|0,3:0|0:0,0:0:0:0:
240,144,51493,2,0,P|207:176|201:212,1,80,0|0,3:0|0:0,0:0:0:0:
268,348,51873,6,0,P|256:304|152:288,1,160,0|2,3:0|0:0,0:0:0:0:
120,356,52444,2,0,L|40:308,2,80,0|2|0,0:0|0:0|3:0,0:0:0:0:
155,285,53015,2,0,P|160:212|100:152,1,160,0|2,3:0|0:0,0:0:0:0:
24,132,53586,1,0,0:0:0:0:
64,244,53777,1,2,0:0:0:0:
144,152,53967,1,0,0:0:0:0:
24,132,54157,6,0,P|88:92|88:8,1,160,0|2,3:0|0:0,0:0:0:0:
12,48,54728,1,0,0:0:0:0:
144,152,54919,2,0,P|188:176|228:176,1,80,2|0,0:0|0:0,0:0:0:0:
292,144,55299,2,0,P|212:181|171:238,1,160,0|2,3:0|0:0,0:0:0:0:
164,316,55870,1,0,0:0:0:0:
220,372,56060,2,0,L|308:384,1,80,2|0,0:0|0:0,0:0:0:0:
408,304,56441,6,0,P|344:292|284:212,1,160,0|2,3:0|0:0,0:0:0:0:
292,144,57012,1,0,0:0:0:0:
360,100,57202,1,2,0:0:0:0:
436,128,57393,1,0,0:0:0:0:
460,204,57583,2,0,P|392:232|352:168,1,160,0|2,3:0|0:0,0:0:0:0:
400,108,58154,1,0,0:0:0:0:
412,28,58344,2,0,L|332:8,1,80,2|0,0:0|0:0,0:0:0:0:
256,16,58725,6,0,P|280:60|224:144,1,160,4|2,0:0|0:0,0:0:0:0:
148,156,59296,1,0,0:0:0:0:
80,116,59486,1,2,0:0:0:0:
4,136,59676,1,0,0:0:0:0:
80,116,59867,2,0,P|112:76|116:40,1,80,2|2,0:0|0:0,0:0:0:0:
160,252,60247,2,0,P|120:220|84:216,1,80,0|2,0:0|0:0,0:0:0:0:
244,296,60628,2,0,P|212:336|208:372,1,80,2|0,0:0|0:0,0:0:0:0:
352,260,61019,6,0,P|360:188|304:124,1,160,0|2,3:0|0:0,0:0:0:0:
228,108,61589,1,0,0:0:0:0:
164,152,61780,2,0,L|204:221,1,80,2|0,0:0|0:0,0:0:0:0:
168,316,62160,2,0,L|127:246,1,80,0|0,3:0|0:0,0:0:0:0:
208,64,62541,2,0,L|248:133,1,80,2|0,0:0|0:0,0:0:0:0:
440,236,62922,1,2,0:0:0:0:
424,156,63112,1,0,0:0:0:0:
364,100,63302,6,0,P|324:80|308:40,1,80,0|0,3:0|0:0,3:0:0:0:
230,52,63683,2,0,P|193:77|159:74,1,80,2|0,0:0|0:0,0:0:0:0:
122,144,64064,2,0,P|125:189|106:217,1,80,2|0,0:0|0:0,0:0:0:0:
146,283,64444,2,0,P|188:303|202:332,1,80,2|0,0:0|0:0,0:0:0:0:
281,331,64825,2,0,P|318:306|351:308,1,80,2|0,0:0|0:0,0:0:0:0:
389,239,65206,2,0,P|386:194|405:166,1,80,2|0,0:0|0:0,0:0:0:0:
364,100,65586,5,0,3:0:0:0:
404,166,65776,1,0,0:0:0:0:
366,237,65967,1,2,0:0:0:0:
286,239,66157,1,0,0:0:0:0:
244,171,66347,1,2,0:0:0:0:
284,101,66538,1,0,0:0:0:0:
364,100,66728,5,0,3:0:0:0:
366,237,66918,1,0,0:0:0:0:
244,171,67109,1,2,0:0:0:0:
404,166,67299,1,0,0:0:0:0:
286,239,67489,1,2,0:0:0:0:
284,101,67680,1,0,0:0:0:0:
404,166,67870,6,0,P|444:208|416:304,1,160,0|2,3:0|0:0,0:0:0:0:
340,296,68441,1,0,0:0:0:0:
292,360,68631,1,2,0:0:0:0:
228,308,68822,1,0,0:0:0:0:
164,356,69012,2,0,L|64:332,1,80,2|0,0:0|0:0,0:0:0:0:
48,240,69393,2,0,L|148:264,1,80,2|0,0:0|0:0,0:0:0:0:
200,188,69773,2,0,L|100:164,1,80,2|0,0:0|0:0,0:0:0:0:
87,71,70154,6,0,L|247:110,1,160,0|2,3:0|0:0,0:0:0:0:
324,120,70725,1,0,0:0:0:0:
296,44,70915,1,2,0:0:0:0:
243,109,71105,1,0,0:0:0:0:
324,120,71296,2,0,P|368:88|376:64,1,80,0|0,3:0|0:0,0:0:0:0:
244,109,71676,2,0,P|200:141|192:165,1,80,2|0,0:0|0:0,0:0:0:0:
253,304,72057,2,0,P|247:249|232:232,1,80,2|0,0:0|0:0,0:0:0:0:
78,210,72438,6,0,P|128:232|192:164,1,160,0|2,3:0|0:0,0:0:0:0:
168,88,73009,2,0,P|132:52|124:20,2,80,0|2|0,0:0|0:0|0:0,0:0:0:0:
243,109,73580,2,0,L|292:176,1,80,2|0,0:0|0:0,0:0:0:0:
360,255,73960,2,0,L|372:176,1,80,2|0,0:0|0:0,0:0:0:0:
420,312,74341,2,0,L|355:362,1,80,2|0,0:0|0:0,0:0:0:0:
220,348,74721,6,0,P|256:296|224:200,1,160,0|2,3:0|0:0,0:0:0:0:
164,168,75292,1,0,0:0:0:0:
164,168,75483,2,0,L|88:196,1,80,2|0,0:0|0:0,0:0:0:0:
16,232,75863,2,0,P|56:188|20:92,1,160,0|2,3:0|0:0,0:0:0:0:
32,20,76434,1,0,0:0:0:0:
104,56,76625,2,0,L|176:20,1,80,2|0,0:0|0:0,0:0:0:0:
188,100,77005,6,0,P|188:144|212:176,1,80,0|0,3:0|0:0,0:0:0:0:
136,212,77386,2,0,P|166:243|206:249,1,80,2|0,0:0|0:0,0:0:0:0:
180,328,77767,2,0,P|223:329|256:306,1,80,2|0,0:0|0:0,0:0:0:0:
360,184,78147,2,0,P|316:182|283:205,1,80,2|0,0:0|0:0,0:0:0:0:
136,212,78528,2,0,P|166:243|206:249,1,80,2|0,0:0|0:0,0:0:0:0:
256,64,78908,2,0,P|225:32|185:26,1,80,2|0,0:0|0:0,0:0:0:0:
276,148,79289,6,0,P|344:104|424:120,1,160,0|2,3:0|0:0,0:0:0:0:
424,196,79860,2,0,L|472:268,1,80,0|2,0:0|0:0,0:0:0:0:
448,340,80241,1,0,0:0:0:0:
380,296,80431,1,2,0:0:0:0:
300,304,80621,1,2,0:0:0:0:
248,364,80812,1,4,0:0:0:0:
56,252,81192,5,0,0:0:0:0:
56,252,81383,1,0,0:0:0:0:
56,252,81563,2,0,P|112:256|176:184,1,160,0|2,3:0|0:0,0:0:0:0:
172,104,82133,1,0,0:0:0:0:
128,40,82324,2,0,L|48:16,1,80,2|0,0:0|3:0,0:0:0:0:
172,104,82704,2,0,P|224:120|248:216,1,160,0|2,3:0|0:0,0:0:0:0:
176,183,83275,1,0,0:0:0:0:
248,213,83466,2,0,L|328:204,1,80,2|0,0:0|0:0,0:0:0:0:
388,256,83846,6,0,P|336:216|312:120,1,160,0|2,3:0|0:0,0:0:0:0:
284,52,84417,1,0,0:0:0:0:
360,80,84608,2,0,P|400:60|416:28,1,80,2|0,0:0|0:0,0:0:0:0:
340,4,84988,2,0,L|460:144,1,160,0|2,3:0|0:0,0:0:0:0:
440,204,85559,1,0,0:0:0:0:
360,212,85750,1,2,0:0:0:0:
316,280,85940,1,0,0:0:0:0:
336,356,86130,6,0,L|420:336,1,80,0|0,3:0|0:0,0:0:0:0:
316,280,86511,2,0,L|238:261,1,80,2|0,0:0|0:0,0:0:0:0:
360,212,86891,2,0,L|437:193,1,80,2|0,0:0|0:0,0:0:0:0:
332,136,87272,2,0,P|296:92|192:88,1,160,0|2,3:0|0:0,0:0:0:0:
140,139,87843,1,0,0:0:0:0:
98,207,88033,2,0,P|135:219|173:210,1,80,2|0,0:0|0:0,0:0:0:0:
240,160,88414,6,0,L|259:319,1,160,0|2,3:0|0:0,0:0:0:0:
336,348,88985,1,0,0:0:0:0:
259,319,89175,1,2,0:0:0:0:
196,364,89366,1,2,0:0:0:0:
124,328,89556,2,0,P|104:288|104:252,1,80,0|0,3:0|0:0,0:0:0:0:
248,212,89937,2,0,P|223:249|193:266,1,80,0|0,3:0|0:0,0:0:0:0:
88,160,90317,2,0,P|132:162|162:179,1,80,0|0,3:0|0:0,0:0:0:0:
16,200,90698,6,0,P|19:113|82:81,1,160,0|2,3:0|0:0,0:0:0:0:
156,68,91269,1,0,0:0:0:0:
232,92,91459,2,0,P|276:80|300:48,1,80,2|0,0:0|0:0,0:0:0:0:
376,68,91840,2,0,B|360:120|312:152|312:152|312:204,1,160,0|2,3:0|0:0,0:0:0:0:
324,284,92411,2,0,P|356:328|384:336,2,80,0|2|0,0:0|0:0|0:0,0:0:0:0:
244,268,92982,6,0,L|160:296,1,80,0|0,3:0|0:0,0:0:0:0:
40,316,93362,2,0,L|124:344,1,80,2|0,0:0|0:0,0:0:0:0:
252,208,93743,2,0,L|168:236,1,80,2|0,0:0|0:0,0:0:0:0:
32,340,94124,2,0,L|116:368,1,80,0|0,3:0|0:0,0:0:0:0:
188,360,94504,1,2,0:0:0:0:
252,312,94695,1,0,0:0:0:0:
268,232,94885,1,2,0:0:0:0:
244,156,95075,1,0,0:0:0:0:
188,100,95265,6,0,P|96:92|40:124,1,160,0|2,3:0|0:0,0:0:0:0:
92,184,95836,1,0,0:0:0:0:
40,244,96027,2,0,P|56:277|113:292,1,80,2|0,0:0|0:0,0:0:0:0:
172,308,96407,2,0,P|106:361|24:356,2,160,0|2|2,3:0|0:0|0:0,0:0:0:0:
224,248,97359,1,0,0:0:0:0:
304,232,97549,2,0,L|384:276,1,80,0|0,3:0|0:0,0:0:0:0:
344,104,97930,2,0,L|264:60,1,80,2|0,0:0|0:0,0:0:0:0:
312,268,98311,2,0,L|392:312,1,80,2|0,0:0|3:0,0:0:0:0:
224,156,98691,5,0,3:0:0:0:
127,283,99072,1,2,0:0:0:0:
79,219,99262,1,0,0:0:0:0:
111,146,99452,1,2,0:0:0:0:
62,81,99643,1,0,3:0:0:0:
188,168,99833,2,0,P|248:168|300:84,1,160,0|2,3:0|0:0,0:0:0:0:
220,96,100404,1,0,0:0:0:0:
188,168,100594,2,0,L|188:256,1,80,2|0,0:0|3:0,0:0:0:0:
220,324,100975,6,0,P|260:276|360:268,1,160,0|2,3:0|0:0,0:0:0:0:
420,308,101546,1,0,0:0:0:0:
344,180,101736,2,0,P|328:136|336:100,1,80,2|0,0:0|3:0,0:0:0:0:
408,132,102117,1,0,3:0:0:0:
344,180,102307,1,0,0:0:0:0:
264,188,102498,1,2,0:0:0:0:
204,136,102688,1,0,0:0:0:0:
264,188,102878,2,0,P|248:236|224:256,1,80,2|0,0:0|3:0,0:0:0:0:
204,136,103259,6,0,P|276:108|336:160,1,160,0|2,3:0|0:0,0:0:0:0:
328,236,103830,1,0,0:0:0:0:
408,132,104020,2,0,P|436:100|484:92,1,80,2|0,0:0|3:0,0:0:0:0:
476,172,104401,2,0,L|320:136,1,160,0|2,3:0|0:0,0:0:0:0:
224,36,104972,1,0,0:0:0:0:
244,116,105162,1,2,0:0:0:0:
148,20,105352,1,0,3:0:0:0:
168,96,105543,6,0,P|144:156|56:176,1,160,0|2,3:0|0:0,0:0:0:0:
92,76,106114,1,0,0:0:0:0:
200,24,106304,2,0,L|284:36,1,80,2|0,0:0|3:0,0:0:0:0:
344,80,106685,2,0,P|304:128|300:148,1,80,0|0,3:0|0:0,0:0:0:0:
308,324,107065,2,0,P|287:265|272:252,1,80,0|0,3:0|0:0,0:0:0:0:
115,171,107446,2,0,P|176:182|195:175,1,80,0|0,3:0|0:0,0:0:0:0:
264,64,107827,6,0,P|292:140|362:157,1,160,0|2,3:0|0:0,0:0:0:0:
344,80,108397,2,0,P|340:32|320:4,2,80,0|2|0,0:0|0:0|3:0,0:0:0:0:
264,216,108968,2,0,B|196:263|181:211|114:258,1,160,0|2,3:0|0:0,0:0:0:0:
172,312,109539,1,0,0:0:0:0:
108,176,109730,1,2,0:0:0:0:
24,296,109920,1,0,3:0:0:0:
156,236,110110,6,0,P|184:196|140:104,1,160,0|2,3:0|0:0,0:0:0:0:
108,176,110681,1,0,0:0:0:0:
200,296,110872,2,0,L|284:296,1,80,2|0,0:0|3:0,0:0:0:0:
352,260,111252,2,0,P|304:216|312:116,1,160,0|2,3:0|0:0,0:0:0:0:
356,64,111823,1,0,0:0:0:0:
388,136,112014,2,0,P|424:160|464:160,1,80,2|0,0:0|3:0,0:0:0:0:
356,64,112394,6,0,P|320:40|280:40,1,80,0|0,3:0|0:0,0:0:0:0:
208,60,112775,1,2,0:0:0:0:
156,124,112965,1,0,0:0:0:0:
200,192,113155,1,2,0:0:0:0:
208,60,113346,1,0,3:0:0:0:
80,124,113536,2,0,L|40:204,1,80,0|0,3:0|0:0,0:0:0:0:
92,336,113917,2,0,L|132:256,1,80,2|0,0:0|0:0,0:0:0:0:
212,124,114297,1,2,0:0:0:0:
252,192,114488,1,0,3:0:0:0:
328,220,114678,5,2,0:0:0:0:
312,140,114868,1,0,0:0:0:0:
252,192,115059,1,2,0:0:0:0:
387,165,115249,1,0,0:0:0:0:
376,88,115439,1,2,0:0:0:0:
312,140,115630,1,0,0:0:0:0:
456,116,115820,1,2,0:0:0:0:
440,36,116010,1,2,0:0:0:0:
376,88,116201,2,0,P|376:136|392:172,1,80,0|2,0:0|0:0,0:0:0:0:
480,272,116581,2,0,P|480:224|464:188,1,80,2|0,0:0|0:0,0:0:0:0:
404,244,116962,6,0,P|360:280|180:152,1,320,2|0,0:0|0:0,0:0:0:0:
332,159,118104,2,0,P|152:280|108:244,1,320,2|0,0:0|0:0,0:0:0:0:
92,164,119055,1,2,0:0:0:0:
136,96,119246,2,0,P|184:76|216:80,1,80,0|0,3:0|0:0,0:0:0:0:
288,104,119626,2,0,P|314:106|362:86,1,80,2|0,0:0|0:0,0:0:0:0:
388,12,120007,1,2,0:0:0:0:
308,28,120197,1,0,0:0:0:0:
362,86,120388,6,0,P|396:128|408:236,1,160,0|2,3:0|0:0,0:0:0:0:
328,224,120959,2,0,P|328:180|304:144,2,80,0|2|0,0:0|0:0|0:0,0:0:0:0:
268,284,121530,2,0,P|216:276|176:180,2,160,0|2|2,3:0|0:0|0:0,0:0:0:0:
328,224,122481,1,0,0:0:0:0:
308,148,122671,6,0,L|228:132,1,80,0|0,3:0|0:0,0:0:0:0:
96,88,123052,2,0,L|176:72,1,80,2|0,0:0|0:0,0:0:0:0:
252,56,123433,1,2,0:0:0:0:
328,36,123623,1,0,0:0:0:0:
240,132,123813,2,0,P|244:180|272:204,1,80,0|0,3:0|0:0,0:0:0:0:
376,268,124194,2,0,P|372:220|344:196,1,80,2|0,0:0|0:0,0:0:0:0:
324,332,124575,1,2,0:0:0:0:
404,344,124765,1,0,0:0:0:0:
376,268,124955,6,0,P|312:252|244:316,1,160,0|2,3:0|0:0,0:0:0:0:
324,332,125526,1,0,0:0:0:0:
376,268,125717,2,0,L|336:184,1,80,2|0,0:0|0:0,0:0:0:0:
392,132,126097,2,0,L|464:280,2,160,0|0|0,3:0|0:0|0:0,0:0:0:0:
344,68,127049,1,2,0:0:0:0:
268,48,127239,6,0,P|224:80|216:112,1,80,0|0,3:0|0:0,0:0:0:0:
284,196,127620,2,0,L|360:160,1,80,2|0,0:0|0:0,0:0:0:0:
376,276,128000,2,0,L|300:312,1,80,2|0,0:0|0:0,0:0:0:0:
252,372,128381,2,0,P|272:312|216:240,1,160,0|2,3:0|0:0,0:0:0:0:
136,232,128952,1,0,0:0:0:0:
164,308,129142,1,2,0:0:0:0:
217,240,129333,1,0,0:0:0:0:
84,296,129523,6,0,L|236:364,2,160,0|2|2,3:0|0:0|0:0,0:0:0:0:
136,232,130475,1,0,0:0:0:0:
120,152,130665,2,0,P|160:120|196:120,1,80,0|0,3:0|0:0,0:0:0:0:
296,56,131045,2,0,P|328:96|328:132,1,80,2|0,0:0|0:0,0:0:0:0:
392,232,131426,2,0,P|352:264|316:264,1,80,2|0,0:0|0:0,0:0:0:0:
216,328,131807,6,0,P|184:288|228:200,1,160,0|2,3:0|0:0,0:0:0:0:
304,220,132378,1,0,0:0:0:0:
196,128,132568,2,0,P|176:96|176:52,1,80,2|0,0:0|0:0,0:0:0:0:
252,72,132949,2,0,L|136:192,1,160,0|2,3:0|0:0,0:0:0:0:
88,248,133520,1,0,0:0:0:0:
136,320,133710,1,2,0:0:0:0:
224,300,133900,1,0,0:0:0:0:
288,364,134091,6,0,P|352:376|440:328,1,160,0|2,3:0|0:0,0:0:0:0:
408,260,134662,1,0,0:0:0:0:
408,260,134852,2,0,L|456:184,1,80,2|0,0:0|0:0,0:0:0:0:
448,84,135232,2,0,P|384:104|304:56,2,160,0|2|0,3:0|0:0|0:0,0:0:0:0:
367,228,136374,5,2,0:0:0:0:
317,291,136565,1,0,0:0:0:0:
239,307,136755,1,2,0:0:0:0:
169,270,136945,1,0,0:0:0:0:
139,196,137136,1,2,0:0:0:0:
163,119,137326,1,0,0:0:0:0:
231,77,137516,1,0,0:0:0:0:
310,88,137707,1,2,0:0:0:0:
364,148,137897,1,4,0:0:0:0:
156,324,138278,6,0,P|128:292|88:284,1,80,2|0,0:0|0:0,0:0:0:0:
88,364,138658,2,0,L|172:220,1,160,0|2,3:0|0:0,0:0:0:0:
184,148,139229,1,0,0:0:0:0:
164,72,139420,2,0,P|124:92|80:84,1,80,2|0,0:0|3:0,0:0:0:0:
184,148,139800,2,0,P|244:140|304:216,1,160,0|2,3:0|0:0,0:0:0:0:
272,284,140371,1,0,0:0:0:0:
224,220,140561,1,2,0:0:0:0:
303,210,140752,1,0,0:0:0:0:
340,324,140942,6,0,P|296:364|184:356,1,160,0|2,3:0|0:0,0:0:0:0:
148,304,141513,1,0,0:0:0:0:
220,272,141703,2,0,L|237:193,1,80,2|0,0:0|0:0,0:0:0:0:
228,114,142084,2,0,P|169:150|176:244,1,160,0|2,3:0|0:0,0:0:0:0:
261,312,142655,1,0,0:0:0:0:
352,236,142845,1,2,0:0:0:0:
238,194,143036,1,0,0:0:0:0:
261,312,143226,6,0,P|304:324|348:320,1,80,0|0,3:0|0:0,0:0:0:0:
429,225,143607,2,0,P|385:237|351:235,1,80,2|0,0:0|0:0,0:0:0:0:
260,140,143987,2,0,P|303:152|347:148,1,80,2|0,0:0|0:0,0:0:0:0:
428,53,144368,2,0,P|384:65|280:16,1,160,0|2,3:0|0:0,0:0:0:0:
204,12,144939,2,0,P|208:56|192:88,2,80,0|2|0,0:0|0:0|0:0,0:0:0:0:
128,36,145510,6,0,P|112:84|188:172,1,160,0|2,3:0|0:0,0:0:0:0:
248,180,146081,1,0,0:0:0:0:
304,124,146271,1,2,0:0:0:0:
288,44,146461,1,2,0:0:0:0:
248,180,146652,2,0,P|264:216|308:240,1,80,0|0,3:0|0:0,0:0:0:0:
132,264,147032,2,0,P|155:232|153:182,1,80,0|0,3:0|0:0,0:0:0:0:
260,308,147413,2,0,P|220:303|178:329,1,80,0|0,3:0|0:0,0:0:0:0:
304,368,147794,6,0,L|384:224,1,160,0|2,3:0|0:0,0:0:0:0:
408,68,148555,1,2,0:0:0:0:
408,68,148935,2,0,P|336:120|272:104,1,160,0|2,3:0|0:0,0:0:0:0:
232,172,149506,2,0,L|156:144,2,80,0|2|0,0:0|0:0|0:0,0:0:0:0:
308,200,150077,5,0,3:0:0:0:
364,256,150268,1,0,0:0:0:0:
392,332,150458,1,2,0:0:0:0:
364,256,150648,1,0,0:0:0:0:
380,176,150839,2,0,P|400:129|434:108,1,80,2|0,0:0|0:0,0:0:0:0:
460,184,151219,2,0,L|308:248,1,160,0|2,3:0|0:0,0:0:0:0:
320,324,151790,1,0,0:0:0:0:
256,280,151981,1,2,0:0:0:0:
176,272,152171,1,0,0:0:0:0:
104,308,152361,6,0,L|44:360,1,80,0|0,3:0|0:0,0:0:0:0:
8,240,152742,2,0,L|68:188,1,80,2|0,0:0|0:0,0:0:0:0:
156,120,153122,2,0,P|204:100|240:104,1,80,2|0,0:0|0:0,0:0:0:0:
304,136,153503,2,0,P|344:180|444:184,2,160,0|0|0,3:0|0:0|0:0,0:0:0:0:
304,56,154455,1,2,0:0:0:0:
380,36,154645,6,0,L|460:56,1,80,0|0,3:0|0:0,0:0:0:0:
482,131,155026,2,0,P|438:159|402:155,1,80,2|0,0:0|0:0,0:0:0:0:
339,123,155406,1,2,0:0:0:0:
270,163,155597,1,0,0:0:0:0:
256,192,155787,12,0,156929,3:0:0:0:
65,85,157310,6,0,L|71:171,1,80,2|0,0:0|0:0,0:0:0:0:
137,209,157690,2,0,L|142:129,1,80,2|0,0:0|3:0,0:0:0:0:
77,255,158071,2,0,P|111:280|211:222,1,160,0|2,3:0|0:0,0:0:0:0:
196,156,158642,1,0,0:0:0:0:
266,274,158832,2,0,P|301:293|350:282,1,80,2|0,0:0|0:0,0:0:0:0:
317,211,159213,2,0,P|387:224|417:306,2,160,0|2|2,3:0|0:0|0:0,0:0:0:0:
266,274,160164,1,0,0:0:0:0:
188,294,160355,2,0,P|149:270|137:232,1,80,0|0,3:0|0:0,0:0:0:0:
266,174,160735,2,0,P|249:209|215:228,1,80,2|0,0:0|0:0,0:0:0:0:
142,99,161116,2,0,P|176:117|192:153,1,80,2|0,0:0|0:0,0:0:0:0:
104,305,161497,6,0,P|73:234|116:171,1,160,0|2,3:0|0:0,0:0:0:0:
171,230,162067,1,0,0:0:0:0:
250,236,162258,1,2,0:0:0:0:
321,200,162448,1,0,0:0:0:0:
351,126,162638,2,0,P|337:74|239:86,1,160,0|2,3:0|0:0,0:0:0:0:
193,137,163209,1,0,0:0:0:0:
114,149,163400,1,2,0:0:0:0:
55,93,163590,1,0,0:0:0:0:
108,233,163780,6,0,P|99:295|10:331,1,160,0|2,3:0|0:0,0:0:0:0:
30,253,164351,2,0,L|53:171,2,80,0|2|0,0:0|0:0|0:0,0:0:0:0:
140,349,164922,2,0,P|191:362|230:353,1,80,0|0,3:0|0:0,0:0:0:0:
282,249,165303,2,0,P|242:245|204:257,1,80,0|0,3:0|0:0,0:0:0:0:
333,315,165684,2,0,P|358:286|366:244,1,80,0|0,3:0|0:0,0:0:0:0:
346,149,166064,6,0,P|388:174|483:124,1,160,0|2,3:0|0:0,0:0:0:0:
469,50,166635,2,0,P|432:64|408:95,2,80,0|2|0,0:0|0:0|3:0,0:0:0:0:
444,232,167206,2,0,B|366:255|366:207|286:231,1,160,0|2,3:0|0:0,0:0:0:0:
224,280,167777,1,0,0:0:0:0:
228,200,167967,2,0,P|200:168|156:160,1,80,2|0,0:0|0:0,0:0:0:0:
94,205,168348,2,0,P|95:281|164:316,2,160,0|2|2,3:0|0:0|0:0,0:0:0:0:
164,159,169300,1,0,0:0:0:0:
152,80,169490,2,0,P|108:88|68:72,1,80,0|0,3:0|0:0,0:0:0:0:
165,159,169871,2,0,P|202:170|241:161,1,80,2|0,0:0|0:0,0:0:0:0:
348,76,170251,2,0,P|310:64|271:73,1,80,2|0,0:0|0:0,0:0:0:0:
312,200,170632,6,0,P|360:196|416:296,1,160,0|2,3:0|0:0,0:0:0:0:
364,336,171203,2,0,P|404:357|440:356,2,80,0|2|0,0:0|0:0|0:0,0:0:0:0:
333,261,171774,2,0,P|374:220|327:135,1,160,0|2,3:0|0:0,0:0:0:0:
255,136,172345,1,0,0:0:0:0:
195,190,172535,1,2,0:0:0:0:
122,156,172725,1,0,0:0:0:0:
199,273,172916,6,0,P|269:304|332:262,1,160,0|2,3:0|0:0,0:0:0:0:
266,217,173487,1,0,0:0:0:0:
255,136,173677,2,0,P|265:92|297:62,1,80,2|0,0:0|0:0,0:0:0:0:
338,168,174058,2,0,L|424:171,1,80,0|0,3:0|0:0,0:0:0:0:
474,272,174438,2,0,L|388:269,1,80,0|0,3:0|0:0,0:0:0:0:
327,149,174819,2,0,L|413:152,1,80,0|0,3:0|0:0,0:0:0:0:
462,286,175199,6,0,L|300:280,2,160,0|0|0,3:0|0:0|0:0,0:0:0:0:
494,212,176151,1,2,0:0:0:0:
454,142,176341,2,0,P|388:114|313:162,1,160,0|0,3:0|0:0,0:0:0:0:
286,312,177103,1,2,0:0:0:0:
195,180,177483,6,0,L|187:96,1,80,0|0,3:0|0:0,0:0:0:0:
272,149,177864,2,0,L|307:72,1,80
359,150,178245,2,0,L|427:101,1,80,0|2,0:0|0:0,0:0:0:0:
490,193,178625,2,0,P|461:252|365:262,2,160,0|0|0,3:0|0:0|0:0,0:0:0:0:
463,117,179577,1,2,0:0:0:0:
411,178,179767,6,0,P|352:186|323:166,1,80,0|0,3:0|0:0,0:0:0:0:
209,103,180148,2,0,P|268:95|297:115,1,80
180,176,180528,2,0,P|121:184|92:164,1,80,0|2,0:0|0:0,0:0:0:0:
70,102,180909,2,0,P|89:166|36:235,1,160,0|0,3:0|0:0,0:0:0:0:
9,310,181480,2,0,P|49:298|90:309,1,80
139,365,181861,1,2,0:0:0:0:
218,354,182051,6,0,P|257:307|210:227,1,160,0|0,3:0|0:0,0:0:0:0:
135,218,182622,1,0,0:0:0:0:
264,170,182812,2,0,P|292:126|292:88,1,80,0|2,0:0|0:0,0:0:0:0:
188,144,183193,2,0,L|98:148,1,80,0|0,3:0|0:0,0:0:0:0:
264,170,183574,2,0,L|354:174,1,80,0|0,3:0|0:0,0:0:0:0:
195,223,183954,2,0,L|105:227,1,80,0|0,3:0|0:0,0:0:0:0:
271,249,184335,6,0,L|436:256,2,160,0|0|0,3:0|0:0|0:0,0:0:0:0:
206,296,185286,1,2,0:0:0:0:
131,267,185477,2,0,P|117:208|184:143,2,160,0|0|0,3:0|0:0|0:0,0:0:0:0:
257,168,186619,6,0,B|334:144|334:192|414:168,1,160,0|0,3:0|0:0,0:0:0:0:
462,105,187190,1,0,0:0:0:0:
488,180,187380,2,0,P|467:223|427:243,1,80,0|2,0:0|0:0,0:0:0:0:
361,245,187761,1,0,3:0:0:0:
325,316,187951,1,0,0:0:0:0:
250,344,188141,1,0,0:0:0:0:
171,327,188332,1,0,0:0:0:0:
118,266,188522,1,0,0:0:0:0:
119,186,188712,1,2,0:0:0:0:
179,133,188902,6,0,P|214:173|322:160,1,160,0|0,3:0|0:0,0:0:0:0:
360,102,189473,1,0,0:0:0:0:
439,100,189664,2,0,P|426:151|390:175,1,80,0|2,0:0|0:0,0:0:0:0:
360,102,190044,2,0,P|329:60|225:64,1,160,0|0,3:0|0:0,0:0:0:0:
179,124,190615,1,0,0:0:0:0:
188,203,190806,1,0,0:0:0:0:
258,241,190996,1,2,0:0:0:0:
334,217,191186,6,0,P|383:201|417:208,2,80,0|0|2,3:0|0:0|0:0,0:0:0:0:
261,321,191757,2,0,P|212:337|178:330,2,80,0|0|2,0:0|0:0|0:0,0:0:0:0:
258,241,192328,1,0,0:0:0:0:
256,192,192519,12,0,196896,0:0:0:0:
