osu file format v12

[General]
AudioFilename: Caribbean Blue.mp3
AudioLeadIn: 0
PreviewTime: 42728
Countdown: 0
SampleSet: Soft
StackLeniency: 0.2
Mode: 0
LetterboxInBreaks: 0
WidescreenStoryboard: 1

[Editor]
Bookmarks: 192319
DistanceSpacing: 1.3
BeatDivisor: 4
GridSize: 4

[Metadata]
Title:Caribbean Blue
TitleUnicode:Caribbean Blue
Artist:Enya
ArtistUnicode:Enya
Creator:Blue Dragon
Version:Hard
Source:
Tags:Shepherd Moons New Age luanny
BeatmapID:285639
BeatmapSetID:109446

[Difficulty]
HPDrainRate:4
CircleSize:5
OverallDifficulty:6
ApproachRate:7
SliderMultiplier:1.2
SliderTickRate:2

[Events]
//Background and Video events
0,0,"wallpaper-2152611.jpg",0,0
//Break Periods
//Storyboard Layer 0 (Background)
//Storyboard Layer 1 (Fail)
//Storyboard Layer 2 (Pass)
//Storyboard Layer 3 (Foreground)
//Storyboard Sound Samples
//Background Colour Transformations
3,100,163,162,255

[TimingPoints]
25609.8718711775,380.63820338768,3,2,1,60,1,0
58725,-133.333333333333,3,2,1,60,0,0
61019,380.63820338768,3,2,1,60,1,0
61019,-100,3,2,1,60,0,0
81563,380.63820338768,3,2,1,60,1,0
90699,-86.9565217391304,3,2,1,60,0,0
97550,-100,3,2,1,60,0,0
114678,-133.333333333333,3,2,1,60,0,0
116963,-100,3,2,1,60,0,0
134091,-100,3,2,1,60,0,0
138659,-100,3,2,1,60,0,0
147794,-86.9565217391304,3,2,1,60,0,0
154645,-100,3,2,1,60,0,0
175200,-100,3,2,1,50,0,0
184336,-100,3,2,1,35,0,0
192519,-100,3,2,1,20,0,0

[Colours]
Combo1 : 47,83,104
Combo2 : 250,80,37
Combo3 : 105,210,228
Combo4 : 158,111,39

[HitObjects]
384,40,25609,6,0,P|440:48|472:108,1,120,2|0,0:0|0:0,0:0:0:0:
468,176,26180,1,0,0:0:0:0:
388,176,26371,2,0,P|357:191|340:219,1,60,0|2,0:0|0:0,0:0:0:0:
304,284,26751,2,0,L|352:336,2,60
208,284,27322,2,0,L|160:336,2,60,0|0|2,0:0|0:0|0:0,0:0:0:0:
256,224,27893,6,0,P|248:127|124:140,1,240
192,180,28845,1,2,0:0:0:0:
192,180,29035,2,0,P|232:116|208:16,1,180
132,8,29796,1,0,0:0:0:0:
56,32,29987,1,2,0:0:0:0:
20,100,30177,6,0,B|-21:221|85:210|44:331,1,240
108,376,31129,1,2,0:0:0:0:
172,332,31319,2,0,L|220:280,1,60
144,252,31700,2,0,L|172:188,1,60,0|0,0:0|0:0,0:0:0:0:
92,180,32080,2,0,L|96:116,1,60,0|2,0:0|0:0,0:0:0:0:
104,44,32461,6,0,P|124:104|284:116,1,240
224,65,33412,1,2,0:0:0:0:
224,65,33603,2,0,P|379:81|399:141,1,240
392,220,34554,1,2,0:0:0:0:
364,292,34745,6,0,L|384:356,1,60
392,220,35125,2,0,L|372:156,1,60,0|0,0:0|0:0,0:0:0:0:
436,280,35506,2,0,L|500:260,1,60,0|2,0:0|0:0,0:0:0:0:
320,232,35887,2,0,P|272:248|232:304,1,120
264,376,36458,1,0,0:0:0:0:
264,376,36648,1,0,0:0:0:0:
388,200,37029,6,0,P|320:144|316:52,1,180,2|0,0:0|0:0,0:0:0:0:
388,28,37790,1,0,0:0:0:0:
388,28,38170,2,0,P|384:96|184:148,1,300,2|0,0:0|0:0,0:0:0:0:
176,80,39312,6,0,L|168:20,1,60,2|0,0:0|0:0,0:0:0:0:
104,144,39693,2,0,L|96:84,1,60,0|0,0:0|0:0,0:0:0:0:
32,200,40074,2,0,L|24:140,1,60,0|2,0:0|0:0,0:0:0:0:
108,224,40454,2,0,P|144:312|24:360,1,240
65,292,41406,1,2,0:0:0:0:
65,292,41596,6,0,P|176:320|256:236,1,240
152,40,42738,5,2,0:0:0:0:
112,108,42928,1,0,0:0:0:0:
192,108,43119,2,0,P|252:96|312:108,1,120
348,176,43690,1,2,0:0:0:0:
384,244,43880,2,0,P|324:256|264:244,2,120
444,192,44832,1,2,0:0:0:0:
476,120,45022,6,0,L|492:56,1,60
412,76,45403,2,0,L|401:10,1,60,0|0,0:0|0:0,0:0:0:0:
336,60,45783,2,0,L|301:4,1,60,0|2,0:0|0:0,0:0:0:0:
252,68,46164,2,0,P|224:112|296:204,1,180
300,128,46925,2,0,L|364:152,1,60,0|2,0:0|0:0,0:0:0:0:
408,208,47306,6,0,P|404:284|316:320,1,180
256,272,48067,1,0,0:0:0:0:
195,320,48257,2,0,P|108:284|104:208,1,180,2|0,0:0|0:0,0:0:0:0:
144,140,49019,1,0,0:0:0:0:
216,108,49209,1,0,0:0:0:0:
296,108,49399,1,2,0:0:0:0:
368,140,49590,6,0,L|420:176,1,60
472,284,49970,2,0,L|420:248,1,60,0|0,0:0|0:0,0:0:0:0:
308,252,50351,2,0,L|360:288,1,60,0|2,0:0|0:0,0:0:0:0:
408,372,50731,2,0,P|364:352|288:352,1,120
232,300,51302,1,2,0:0:0:0:
176,356,51493,2,0,L|120:324,1,60
44,304,51873,6,0,P|84:228|62:141,1,180,2|0,0:0|0:0,0:0:0:0:
60,62,52635,1,0,0:0:0:0:
60,62,52825,2,0,P|56:130|156:172,1,180,2|0,0:0|0:0,0:0:0:0:
128,100,53586,1,2,0:0:0:0:
152,24,53777,2,0,L|212:56,1,60,0|2,0:0|0:0,0:0:0:0:
307,52,54157,6,0,L|360:24,2,60,2|0|0,0:0|0:0|0:0,0:0:0:0:
304,132,54728,1,0,0:0:0:0:
344,200,54919,1,2,0:0:0:0:
412,240,55109,1,0,0:0:0:0:
496,268,55299,2,0,P|460:264|384:308,1,120
344,368,55870,1,0,0:0:0:0:
276,328,56060,2,0,L|208:348,1,60,0|2,0:0|0:0,0:0:0:0:
160,292,56441,6,0,P|124:192|184:76,1,240
256,52,57393,1,2,0:0:0:0:
330,78,57583,2,0,P|387:192|352:292,1,240
288,336,58535,1,2,0:0:0:0:
212,340,58725,6,0,L|196:296,1,45.0000017166138
105,227,59106,2,0,L|135:192,1,45.0000017166138
149,79,59486,2,0,L|195:88,1,45.0000017166138,2|0,0:0|0:0,0:0:0:0:
300,44,59867,2,0,L|316:87,1,45.0000017166138
406,156,60247,2,0,L|376:191,1,45.0000017166138,0|2,0:0|0:0,0:0:0:0:
362,304,60628,2,0,L|316:295,1,45.0000017166138,2|0,0:0|0:0,0:0:0:0:
256,336,61009,5,2,0:0:0:0:
196,288,61209,1,0,0:0:0:0:
120,268,61399,2,0,P|88:268|60:280,1,60,2|0,0:0|0:0,0:0:0:0:
44,356,61780,2,0,P|76:356|104:344,1,60,2|0,0:0|0:0,0:0:0:0:
120,268,62160,6,0,P|124:208|84:156,1,120,0|2,0:0|0:0,0:0:0:0:
24,124,62731,1,0,0:0:0:0:
40,48,62922,2,0,L|96:20,1,60,2|0,0:0|0:0,0:0:0:0:
136,88,63302,6,0,P|188:116|260:116,1,120,0|2,0:0|0:0,0:0:0:0:
312,76,63873,1,0,0:0:0:0:
388,60,64064,1,2,0:0:0:0:
464,76,64254,1,0,0:0:0:0:
508,140,64444,6,0,L|496:204,1,60,2|0,0:0|0:0,0:0:0:0:
424,280,64825,2,0,L|412:216,1,60,2|0,0:0|0:0,0:0:0:0:
340,140,65206,2,0,L|328:204,1,60,2|0,0:0|0:0,0:0:0:0:
308,276,65586,5,0,0:0:0:0:
248,328,65776,1,0,0:0:0:0:
172,352,65967,2,0,P|137:360|102:352,2,60,2|0|2,0:0|0:0|0:0,0:0:0:0:
196,276,66538,1,0,0:0:0:0:
152,212,66728,6,0,P|104:168|52:156,1,120,0|2,0:0|0:0,0:0:0:0:
8,220,67299,1,0,0:0:0:0:
8,220,67489,2,0,L|0:280,1,60,2|0,0:0|0:0,0:0:0:0:
52,156,67870,6,0,P|56:68|184:68,1,240,2|2,0:0|0:0,0:0:0:0:
120,116,68822,1,0,0:0:0:0:
120,116,69012,2,0,P|192:144|260:76,1,180,2|0,0:0|0:0,0:0:0:0:
183,66,69773,2,0,L|147:10,1,60,2|0,0:0|0:0,0:0:0:0:
120,116,70154,6,0,P|112:192|216:320,1,240,2|2,0:0|0:0,0:0:0:0:
256,256,71105,1,0,0:0:0:0:
305,316,71296,2,0,P|400:192|392:116,1,240,2|2,0:0|0:0,0:0:0:0:
352,48,72247,1,0,0:0:0:0:
300,104,72438,6,0,L|320:168,1,60,2|0,0:0|0:0,0:0:0:0:
212,104,72818,2,0,L|192:168,2,60,2|0|2,0:0|0:0|0:0,0:0:0:0:
148,56,73389,1,0,0:0:0:0:
148,56,73580,2,0,P|256:12|364:56,1,240,2|0,0:0|0:0,0:0:0:0:
396,128,74531,1,0,0:0:0:0:
396,208,74721,6,0,L|464:232,1,60,2|0,0:0|0:0,0:0:0:0:
452,305,75102,2,0,L|384:329,1,60,2|0,0:0|0:0,0:0:0:0:
316,316,75483,1,2,0:0:0:0:
256,268,75673,1,0,0:0:0:0:
256,188,75863,6,0,L|256:56,1,120,0|2,0:0|0:0,0:0:0:0:
188,28,76434,1,0,0:0:0:0:
112,36,76625,2,0,P|80:48|56:68,1,60,2|0,0:0|0:0,0:0:0:0:
124,111,77005,6,0,P|137:138|92:210,1,120,2|2,0:0|0:0,0:0:0:0:
23,238,77576,1,0,0:0:0:0:
28,316,77767,2,0,L|52:380,1,60,2|0,0:0|0:0,0:0:0:0:
124,352,78147,5,2,0:0:0:0:
200,372,78338,1,0,0:0:0:0:
256,316,78528,1,0,0:0:0:0:
312,372,78718,1,0,0:0:0:0:
388,352,78908,1,2,0:0:0:0:
464,372,79099,2,0,L|485:315,1,60,0|2,0:0|0:0,0:0:0:0:
412,150,79670,5,2,0:0:0:0:
369,84,79860,1,0,0:0:0:0:
434,41,80050,1,2,0:0:0:0:
476,106,80241,1,0,0:0:0:0:
336,152,80431,5,2,0:0:0:0:
434,41,80621,1,0,0:0:0:0:
484,184,80812,1,4,2:1:0:0:
300,312,81192,5,0,0:0:0:0:
300,312,81383,1,0,0:0:0:0:
300,312,81563,2,0,B|179:270|190:376|70:334,1,240,2|0,0:0|0:0,0:0:0:0:
32,268,82514,2,0,P|76:192|32:116,1,180,2|0,0:0|0:0,0:0:0:0:
0,45,83275,1,0,0:0:0:0:
0,45,83466,2,0,L|48:0,1,60,2|0,0:0|0:0,0:0:0:0:
112,20,83846,6,0,P|173:94|308:84,1,240,2|0,0:0|0:0,0:0:0:0:
260,24,84798,2,0,P|236:72|324:156,1,180,2|0,0:0|0:0,0:0:0:0:
384,180,85559,1,0,0:0:0:0:
384,180,85750,2,0,L|444:180,1,60,2|0,0:0|0:0,0:0:0:0:
328,231,86130,6,0,P|256:316|280:364,1,180,2|0,0:0|0:0,0:0:0:0:
336,308,86891,1,0,0:0:0:0:
336,308,87082,2,0,P|256:284|220:140,1,240,2|0,0:0|0:0,0:0:0:0:
256,76,88033,1,0,0:0:0:0:
294,145,88224,2,0,P|256:284|108:284,1,300,2|0,0:0|0:0,0:0:0:0:
68,232,89366,1,0,0:0:0:0:
36,160,89556,2,0,L|20:96,1,60,2|0,0:0|0:0,0:0:0:0:
100,104,89937,2,0,L|110:38,1,60,2|0,0:0|0:0,0:0:0:0:
180,80,90317,2,0,L|214:24,1,60,2|0,0:0|0:0,0:0:0:0:
268,92,90698,6,0,P|336:192|448:184,1,240,2|0,0:0|0:0,0:0:0:0:
392,124,91649,2,0,P|348:96|436:52,1,207.000003948212,2|0,0:0|0:0,0:0:0:0:
488,128,92411,1,0,0:0:0:0:
440,204,92601,2,0,P|440:240|452:272,1,69.0000013160706,2|0,0:0|0:0,0:0:0:0:
500,344,92982,6,0,P|464:280|288:304,1,276.000005264282,2|0,0:0|0:0,0:0:0:0:
256,372,93933,1,2,0:0:0:0:
224,304,94124,2,0,P|48:280|12:344,1,276.000005264282,0|0,0:0|0:0,0:0:0:0:
100,364,95075,6,0,P|144:296|144:172,1,207.000003948212,2|0,0:0|0:0,0:0:0:0:
212,112,95836,1,0,0:0:0:0:
300,112,96027,1,0,0:0:0:0:
367,173,96217,2,0,P|368:296|412:364,1,207.000003948212,2|0,0:0|0:0,0:0:0:0:
476,300,96978,1,0,0:0:0:0:
456,212,97169,2,0,L|472:128,1,69.0000013160706,0|2,0:0|0:0,0:0:0:0:
256,192,97549,12,2,98691,0:0:0:0:
324,72,99072,5,0,0:0:0:0:
396,47,99262,1,2,0:0:0:0:
441,108,99452,1,0,0:0:0:0:
397,170,99643,1,0,0:0:0:0:
325,148,99833,1,2,0:0:0:0:
188,72,100214,5,0,0:0:0:0:
116,47,100404,1,2,0:0:0:0:
71,108,100594,1,0,0:0:0:0:
115,170,100785,1,0,0:0:0:0:
187,148,100975,1,2,0:0:0:0:
322,217,101356,5,0,0:0:0:0:
368,280,101546,1,2,0:0:0:0:
352,356,101736,2,0,P|323:366|294:369,1,60
217,369,102117,2,0,P|188:366|160:356,1,60,2|0,0:0|0:0,0:0:0:0:
144,280,102498,1,0,0:0:0:0:
192,216,102688,1,2,0:0:0:0:
256,260,102878,2,0,L|256:320,1,60
321,217,103259,6,0,P|313:129|353:41,1,180,2|0,0:0|0:0,0:0:0:0:
424,68,104020,1,0,0:0:0:0:
464,136,104210,1,2,0:0:0:0:
388,136,104401,2,0,P|304:104|256:32,1,180
184,64,105162,2,0,P|156:80|128:88,1,60,0|2,0:0|0:0,0:0:0:0:
64,44,105543,5,0,0:0:0:0:
16,104,105733,1,0,0:0:0:0:
72,160,105923,2,0,P|72:196|60:228,1,60,0|2,0:0|0:0,0:0:0:0:
36,292,106304,1,0,0:0:0:0:
112,308,106494,1,2,0:0:0:0:
167,253,106685,2,0,L|219:281,1,60,2|0,0:0|0:0,0:0:0:0:
275,226,107065,2,0,L|327:254,1,60,0|2,0:0|0:0,0:0:0:0:
382,199,107446,2,0,L|434:227,1,60,0|2,0:0|0:0,0:0:0:0:
424,304,107827,6,0,P|352:276|304:128,1,240,2|0,0:0|0:0,0:0:0:0:
256,68,108778,1,0,0:0:0:0:
208,131,108968,2,0,P|160:276|88:304,1,240,2|0,0:0|0:0,0:0:0:0:
28,252,109920,1,0,0:0:0:0:
92,208,110110,6,0,P|180:252|204:400,1,240,2|0,0:0|0:0,0:0:0:0:
301,381,111062,1,0,0:0:0:0:
301,381,111252,2,0,P|332:252|420:208,1,240,2|0,0:0|0:0,0:0:0:0:
492,240,112204,1,0,0:0:0:0:
432,288,112394,6,0,L|464:348,1,60,2|0,0:0|0:0,0:0:0:0:
492,240,112775,2,0,L|460:180,1,60,2|0,0:0|0:0,0:0:0:0:
412,320,113155,2,0,L|444:380,1,60,0|0,0:0|0:0,0:0:0:0:
512,212,113536,2,0,L|480:152,1,60,2|0,0:0|0:0,0:0:0:0:
436,96,113917,1,0,0:0:0:0:
364,68,114107,1,0,0:0:0:0:
288,68,114297,2,0,P|256:88|228:96,1,60,2|0,0:0|0:0,0:0:0:0:
176,56,114678,6,0,P|88:48|104:192,2,270.000010299683,0|0|2,0:0|0:0|0:0,0:0:0:0:
208,128,117152,1,0,0:0:0:0:
224,204,117342,1,0,0:0:0:0:
212,280,117533,1,0,0:0:0:0:
156,336,117723,2,0,L|104:364,1,60,0|2,0:0|0:0,0:0:0:0:
212,280,118104,5,2,0:0:0:0:
288,264,118294,1,0,0:0:0:0:
364,276,118484,1,0,0:0:0:0:
432,316,118675,1,0,0:0:0:0:
472,384,118865,2,0,L|504:328,1,60,0|2,0:0|0:0,0:0:0:0:
484,256,119246,6,0,P|408:208|412:68,1,240,2|0,0:0|0:0,0:0:0:0:
472,20,120197,1,2,0:0:0:0:
488,96,120388,2,0,P|418:187|304:175,1,240,2|0,0:0|0:0,0:0:0:0:
256,112,121339,1,2,0:0:0:0:
207,175,121530,2,0,P|93:187|24:96,1,240,2|0,0:0|0:0,0:0:0:0:
40,20,122481,1,2,0:0:0:0:
108,56,122671,6,0,L|160:16,1,60,2|0,0:0|0:0,0:0:0:0:
256,128,123052,2,0,L|256:64,1,60
404,56,123433,2,0,L|352:16,1,60,0|2,0:0|0:0,0:0:0:0:
360,112,123813,6,0,L|412:152,1,60,2|0,0:0|0:0,0:0:0:0:
256,128,124194,2,0,L|256:68,1,60
152,112,124575,2,0,L|100:152,1,60,0|2,0:0|0:0,0:0:0:0:
180,196,124955,6,0,L|164:260,1,60,2|0,0:0|0:0,0:0:0:0:
256,128,125336,2,0,L|256:68,1,60
332,196,125717,2,0,L|348:260,1,60,0|2,0:0|0:0,0:0:0:0:
436,296,126097,6,0,L|420:232,1,60,2|0,0:0|0:0,0:0:0:0:
256,128,126478,2,0,L|256:64,1,60
76,296,126858,2,0,L|92:228,1,60,0|2,0:0|0:0,0:0:0:0:
56,156,127239,6,0,P|48:112|96:52,1,120,2|0,0:0|0:0,0:0:0:0:
128,124,127810,1,0,0:0:0:0:
120,200,128000,2,0,L|152:256,1,60,0|2,0:0|0:0,0:0:0:0:
224,276,128381,6,0,P|216:320|264:380,1,120,2|0,0:0|0:0,0:0:0:0:
296,308,128952,1,0,0:0:0:0:
288,232,129142,2,0,L|320:176,1,60,0|2,0:0|0:0,0:0:0:0:
312,100,129523,6,0,P|392:100|424:128,2,120,2|0|0,0:0|0:0|0:0,0:0:0:0:
256,44,130475,1,2,0:0:0:0:
200,100,130665,2,0,P|120:100|88:128,2,120,0|0|0,0:0|0:0|0:0,0:0:0:0:
256,156,131616,1,2,0:0:0:0:
328,188,131807,6,0,L|400:204,1,60,2|0,0:0|0:0,0:0:0:0:
328,264,132187,2,0,L|388:306,1,60,0|2,0:0|0:0,0:0:0:0:
292,328,132568,2,0,L|330:390,1,60,0|2,0:0|0:0,0:0:0:0:
188,379,132949,6,0,L|220:328,1,60,2|0,0:0|0:0,0:0:0:0:
135,298,133329,2,0,L|184:264,1,60,0|2,0:0|0:0,0:0:0:0:
125,201,133710,2,0,L|184:188,1,60,0|2,0:0|0:0,0:0:0:0:
220,108,134091,6,0,P|160:48|20:88,1,240
12,160,135042,1,2,0:0:0:0:
68,216,135232,2,0,L|128:200,1,60
125,278,135613,2,0,L|185:262,1,60,0|2,0:0|0:0,0:0:0:0:
182,340,135994,2,0,L|242:324,1,60,0|2,0:0|0:0,0:0:0:0:
312,352,136374,5,2,0:0:0:0:
261,290,136565,1,0,0:0:0:0:
242,213,136755,1,0,0:0:0:0:
259,136,136945,1,0,0:0:0:0:
308,73,137136,1,2,0:0:0:0:
379,39,137326,1,0,0:0:0:0:
459,38,137516,1,0,0:0:0:0:
459,38,137707,2,0,L|496:100,1,60,2|4,0:0|2:1,0:0:0:0:
404,264,138278,5,0,0:0:0:0:
404,264,138468,2,0,P|328:272|296:364,1,180,2|0,0:0|0:0,0:0:0:0:
216,360,139229,1,0,0:0:0:0:
216,360,139420,1,0,0:0:0:0:
216,360,139610,2,0,P|184:272|108:264,1,180,2|0,0:0|0:0,0:0:0:0:
40,304,140371,1,0,0:0:0:0:
84,368,140561,2,0,L|140:340,1,60,0|2,0:0|0:0,0:0:0:0:
232,208,140942,6,0,P|176:184|114:183,1,120,2|0,0:0|0:0,0:0:0:0:
52,224,141513,1,0,0:0:0:0:
40,304,141703,2,0,L|64:360,1,60,0|2,0:0|0:0,0:0:0:0:
52,224,142084,2,0,P|80:152|72:100,1,120,2|0,0:0|0:0,0:0:0:0:
28,48,142655,1,0,0:0:0:0:
104,36,142845,2,0,L|160:16,1,60,0|2,0:0|0:0,0:0:0:0:
216,72,143226,6,0,P|280:112|180:128,1,240,2|0,0:0|0:0,0:0:0:0:
288,12,144177,1,0,0:0:0:0:
288,12,144368,2,0,P|351:93|308:216,1,240,2|0,0:0|0:0,0:0:0:0:
240,244,145319,1,0,0:0:0:0:
164,224,145510,2,0,P|116:176|104:124,2,120,2|0|2,0:0|0:0|0:0,0:0:0:0:
240,244,146461,1,0,0:0:0:0:
312,216,146652,2,0,L|376:220,1,60,2|0,0:0|0:0,0:0:0:0:
476,280,147032,2,0,L|412:284,1,60,2|0,0:0|0:0,0:0:0:0:
312,344,147413,2,0,L|376:348,1,60,2|0,0:0|0:0,0:0:0:0:
476,280,147794,6,0,P|456:184|296:120,1,276.000005264282,2|0,0:0|0:0,0:0:0:0:
256,176,148745,1,0,0:0:0:0:
207,118,148935,2,0,P|56:184|36:280,1,276.000005264282,2|0,0:0|0:0,0:0:0:0:
112,328,149887,1,0,0:0:0:0:
208,340,150077,2,0,L|152:212,2,138.000002632141,2|0|0,0:0|0:0|0:0,0:0:0:0:
304,340,151029,2,0,L|360:212,1,138.000002632141,2|0,0:0|0:0,0:0:0:0:
336,128,151600,2,0,P|348:88|372:64,1,69.0000013160706,2|0,0:0|0:0,0:0:0:0:
256,80,151981,2,0,L|256:8,1,69.0000013160706,0|2,0:0|0:0,0:0:0:0:
176,128,152361,6,0,P|164:88|72:48,2,138.000002632141,2|0|0,0:0|0:0|0:0,0:0:0:0:
192,216,153313,1,0,0:0:0:0:
100,216,153503,2,0,P|19:174|7:134,2,138.000002632141,2|0|0,0:0|0:0|0:0,0:0:0:0:
192,216,154455,1,0,0:0:0:0:
232,148,154645,6,0,L|173:126,1,60,2|0,0:0|0:0,0:0:0:0:
229,234,155026,2,0,L|241:302,1,60,2|0,0:0|0:0,0:0:0:0:
306,193,155406,2,0,L|358:149,1,60,2|0,0:0|0:0,0:0:0:0:
256,192,155787,12,2,156929,0:0:0:0:
308,48,157310,5,0,0:0:0:0:
364,100,157500,1,0,0:0:0:0:
328,168,157690,2,0,L|341:226,1,60,2|0,0:0|0:0,0:0:0:0:
412,264,158071,2,0,P|376:300|308:300,1,120,2|0,0:0|0:0,0:0:0:0:
256,244,158642,1,0,0:0:0:0:
202,300,158832,2,0,P|168:308|124:296,1,60,2|0,0:0|0:0,0:0:0:0:
88,252,159213,5,2,0:0:0:0:
68,176,159403,1,0,0:0:0:0:
92,104,159593,2,0,L|76:40,1,60
160,72,159974,2,0,L|170:6,1,60,0|2,0:0|0:0,0:0:0:0:
232,60,160355,2,0,P|272:56|344:92,1,120,2|0,0:0|0:0,0:0:0:0:
388,152,160926,1,0,0:0:0:0:
408,228,161116,2,0,P|440:248|472:252,1,60,0|2,0:0|0:0,0:0:0:0:
332,212,161497,5,2,0:0:0:0:
252,216,161687,1,0,0:0:0:0:
184,252,161877,1,0,0:0:0:0:
136,316,162067,1,0,0:0:0:0:
212,324,162258,2,0,P|248:328|272:324,1,60,0|2,0:0|0:0,0:0:0:0:
108,240,162638,6,0,P|72:236|48:240,2,60,2|0|0,0:0|0:0|0:0,0:0:0:0:
184,252,163209,1,0,0:0:0:0:
252,216,163400,1,0,0:0:0:0:
264,140,163590,1,2,0:0:0:0:
256,64,163780,6,0,P|216:32|144:32,1,120,2|0,0:0|0:0,0:0:0:0:
80,68,164351,1,0,0:0:0:0:
128,132,164542,2,0,L|104:196,1,60,0|2,0:0|0:0,0:0:0:0:
176,288,164922,2,0,L|197:231,1,60,0|2,0:0|0:0,0:0:0:0:
314,231,165303,2,0,L|336:288,1,60,0|2,0:0|0:0,0:0:0:0:
405,188,165684,2,0,L|384:132,1,60,0|2,0:0|0:0,0:0:0:0:
362,29,166064,6,0,P|303:29|256:64,1,120,2|0,0:0|0:0,0:0:0:0:
256,144,166635,1,0,0:0:0:0:
320,188,166825,2,0,P|336:220|336:248,1,60,0|2,0:0|0:0,0:0:0:0:
312,320,167206,2,0,L|436:348,1,120,2|0,0:0|0:0,0:0:0:0:
496,308,167777,1,0,0:0:0:0:
432,264,167967,1,2,0:0:0:0:
432,264,168348,6,0,P|400:196|440:92,1,180,2|0,0:0|0:0,0:0:0:0:
488,48,169109,1,2,0:0:0:0:
416,20,169300,1,0,0:0:0:0:
432,101,169490,2,0,L|476:149,1,60,2|0,0:0|0:0,0:0:0:0:
352,96,169871,2,0,L|308:48,1,60,2|0,0:0|0:0,0:0:0:0:
320,168,170251,2,0,L|364:216,1,60,2|0,0:0|0:0,0:0:0:0:
244,160,170632,6,0,P|200:156|124:200,1,120,2|0,0:0|0:0,0:0:0:0:
84,248,171203,1,0,0:0:0:0:
140,304,171393,2,0,L|128:364,1,60,0|2,0:0|0:0,0:0:0:0:
84,248,171774,2,0,P|57:200|76:136,1,120,2|0,0:0|0:0,0:0:0:0:
140,100,172345,1,0,0:0:0:0:
216,120,172535,1,0,0:0:0:0:
256,188,172725,1,2,0:0:0:0:
296,120,172916,6,0,L|328:60,1,60,2|0,0:0|0:0,0:0:0:0:
395,163,173296,2,0,L|336:176,1,60,2|0,0:0|0:0,0:0:0:0:
319,243,173677,2,0,L|373:285,1,60,2|0,0:0|0:0,0:0:0:0:
258,333,174058,2,0,L|257:274,1,60,2|0,0:0|0:0,0:0:0:0:
193,245,174438,2,0,L|149:286,1,60,2|0,0:0|0:0,0:0:0:0:
114,170,174819,2,0,L|174:179,1,60,2|0,0:0|0:0,0:0:0:0:
40,156,175199,6,0,P|32:112|68:44,1,120,2|0,0:0|0:0,0:0:0:0:
144,36,175770,1,0,0:0:0:0:
204,88,175961,2,0,L|236:148,1,60,0|2,0:0|0:0,0:0:0:0:
260,212,176341,5,2,0:0:0:0:
332,236,176532,1,0,0:0:0:0:
408,220,176722,1,0,0:0:0:0:
452,156,176912,1,0,0:0:0:0:
440,80,177103,2,0,L|384:40,1,60,0|2,0:0|0:0,0:0:0:0:
336,100,177483,5,2,0:0:0:0:
136,168,177864,1,0,0:0:0:0:
295,307,178245,1,0,0:0:0:0:
336,100,178625,6,0,P|298:61|231:65,1,120,2|0,0:0|0:0,0:0:0:0:
172,108,179196,1,0,0:0:0:0:
96,96,179387,2,0,L|52:48,1,60,0|2,0:0|0:0,0:0:0:0:
124,168,179767,5,2,0:0:0:0:
128,244,179957,1,0,0:0:0:0:
104,320,180148,2,0,P|72:344|40:348,1,60,0|0,0:0|0:0,0:0:0:0:
128,244,180528,2,0,P|160:220|192:216,1,60,0|2,0:0|0:0,0:0:0:0:
256,212,180909,5,2,0:0:0:0:
332,232,181099,1,0,0:0:0:0:
392,284,181290,1,0,0:0:0:0:
424,356,181480,1,0,0:0:0:0:
348,348,181670,2,0,L|288:368,1,60,0|2,0:0|0:0,0:0:0:0:
392,284,182051,6,0,P|408:236|376:164,1,120,2|0,0:0|0:0,0:0:0:0:
316,140,182622,1,0,0:0:0:0:
240,136,182812,1,0,0:0:0:0:
168,160,183003,1,2,0:0:0:0:
124,224,183193,2,0,L|116:292,1,60
200,360,183574,2,0,L|208:292,1,60
300,224,183954,2,0,L|292:292,1,60,0|2,0:0|0:0,0:0:0:0:
376,360,184335,6,0,P|384:304|440:260,1,120,2|0,0:0|0:0,0:0:0:0:
508,268,184906,1,0,0:0:0:0:
480,196,185096,2,0,L|456:120,1,60,0|2,0:0|0:0,0:0:0:0:
428,68,185477,2,0,P|372:56|308:88,1,120,2|0,0:0|0:0,0:0:0:0:
256,128,186048,1,0,0:0:0:0:
195,79,186238,2,0,P|141:56|84:68,2,120,0|2|0,0:0|0:0|0:0,0:0:0:0:
256,128,187190,1,0,0:0:0:0:
276,204,187380,1,2,0:0:0:0:
248,276,187570,1,0,0:0:0:0:
184,316,187761,6,0,L|100:308,1,60,2|0,0:0|0:0,0:0:0:0:
248,276,188141,2,0,L|332:284,1,60,2|0,0:0|0:0,0:0:0:0:
276,204,188522,2,0,L|192:196,1,60,0|2,0:0|0:0,0:0:0:0:
336,352,188902,6,0,P|392:364|440:320,1,120,2|0,0:0|0:0,0:0:0:0:
460,252,189473,1,0,0:0:0:0:
424,184,189664,2,0,L|432:116,1,60,0|2,0:0|0:0,0:0:0:0:
440,48,190044,1,2,0:0:0:0:
364,24,190235,1,0,0:0:0:0:
288,36,190425,1,0,0:0:0:0:
228,88,190615,1,0,0:0:0:0:
200,160,190806,1,0,0:0:0:0:
216,236,190996,1,2,0:0:0:0:
256,304,191186,6,0,L|320:320,1,60,2|0,0:0|0:0,0:0:0:0:
352,248,191567,2,0,L|394:204,1,60,0|0,0:0|0:0,0:0:0:0:
352,136,191948,2,0,L|334:72,2,60,2|0|2,0:0|0:0|0:0,0:0:0:0:
256,192,192519,12,0,196896,0:0:0:0:
