osu file format v14

[General]
AudioFilename: 550961_EnV---Shinto.mp3
AudioLeadIn: 0
PreviewTime: 36937
Countdown: 0
SampleSet: None
StackLeniency: 0.7
Mode: 0
LetterboxInBreaks: 0
WidescreenStoryboard: 0

[Editor]
Bookmarks: 14
DistanceSpacing: 1
BeatDivisor: 4
GridSize: 8
TimelineZoom: 1

[Metadata]
Title:Shinto
TitleUnicode:Shinto
Artist:Envy
ArtistUnicode:Envy
Creator:KamiJar
Version:Hard
Source:Newgrounds
Tags:dance electronic house
BeatmapID:381380
BeatmapSetID:155514

[Difficulty]
HPDrainRate:6
CircleSize:4
OverallDifficulty:6
ApproachRate:7
SliderMultiplier:1.3
SliderTickRate:2

[Events]
//Background and Video events
0,0,"shinto.jpg",0,0
//Break Periods
2,110521,113114
2,114674,116576
2,118367,120498
2,122059,123960
//Storyboard Layer 0 (Background)
//Storyboard Layer 1 (Fail)
//Storyboard Layer 2 (Pass)
//Storyboard Layer 3 (Foreground)
//Storyboard Sound Samples

[TimingPoints]
14,461.538461538462,4,3,1,80,1,0
14,-90.9090909090909,4,3,1,80,0,0
44321,-90.9090909090909,4,3,1,80,0,1
73398,-90.9090909090909,4,3,1,80,0,0
84475,-90.9090909090909,4,3,1,80,0,1
110321,-90.9090909090909,4,3,1,80,0,0
180475,-200,4,3,1,80,0,0
180937,-90.9090909090909,4,3,1,80,0,0
195244,-200,4,3,1,80,0,0
195706,-90.9090909090909,4,3,1,80,0,0

[Colours]
Combo1 : 123,191,210
Combo2 : 233,67,67
Combo3 : 174,225,166
Combo4 : 216,119,230

[HitObjects]
80,56,14783,6,8,P|96:120|160:184,1,143.000004364014
200,152,15475,1,0,0:0:0:0:
200,152,15706,1,0,0:0:0:0:
88,256,16629,1,0,0:0:0:0:
152,296,16860,1,0,0:0:0:0:
152,296,16975,1,0,0:0:0:0:
152,296,17090,1,0,0:0:0:0:
224,288,17321,1,0,0:0:0:0:
224,288,17552,2,4,P|312:264|344:208,1,143.000004364014
352,112,18475,5,0,0:0:0:0:
248,192,18937,1,0,0:0:0:0:
232,64,19167,1,0,0:0:0:0:
352,112,19398,1,0,0:0:0:0:
168,248,20321,5,0,0:0:0:0:
216,312,20783,2,8,P|144:320|88:264,1,143.000004364014
32,224,21475,2,8,P|56:192|104:192,2,71.5000021820069
168,192,22167,6,4,P|216:128|280:120,1,143.000004364014
344,120,22860,1,0,0:0:0:0:
256,48,23090,1,0,0:0:0:0:
288,272,24014,1,0,0:0:0:0:
344,312,24245,1,0,0:0:0:0:
344,312,24360,1,0,0:0:0:0:
344,312,24476,1,0,0:0:0:0:
392,264,24706,1,0,0:0:0:0:
288,272,24937,1,0,0:0:0:0:
88,152,25860,6,8,P|128:160|168:152,1,71.5000021820069
160,96,26321,2,8,P|192:88|240:96,1,71.5000021820069
232,152,26783,2,8,P|272:152|304:144,1,71.5000021820069
432,56,27706,1,0,0:0:0:0:
472,160,28168,1,0,0:0:0:0:
360,184,28629,2,4,P|368:216|400:248,3,71.5000021820069
360,296,29552,5,0,0:0:0:0:
232,264,30014,1,0,0:0:0:0:
264,176,30245,1,0,0:0:0:0:
296,88,30475,1,0,0:0:0:0:
184,64,30937,5,0,0:0:0:0:
157,146,31168,1,0,0:0:0:0:
123,231,31398,1,0,0:0:0:0:
120,344,31860,6,8,P|192:344|248:296,1,143.000004364014
240,184,32783,6,8,B|272:120|272:120|360:120,1,143.000004364014
320,240,33706,1,0,0:0:0:0:
264,264,33937,1,0,0:0:0:0:
216,288,34167,2,8,P|149:267|114:206,1,143.000004364014
216,160,35090,6,8,P|248:104|336:88,1,143.000004364014
432,112,36014,2,4,P|400:168|328:184,1,143.000004364014
312,72,36937,5,8,0:0:0:0:
248,88,37398,1,8,0:0:0:0:
296,136,37860,1,8,0:0:0:0:
232,152,38321,1,8,0:0:0:0:
280,200,38783,1,8,0:0:0:0:
216,216,39244,1,8,0:0:0:0:
264,264,39706,1,8,0:0:0:0:
200,280,40167,1,8,0:0:0:0:
112,208,40629,5,8,0:0:0:0:
96,144,41090,1,8,0:0:0:0:
160,160,41552,1,8,0:0:0:0:
144,96,42014,1,8,0:0:0:0:
200,120,42475,1,8,0:0:0:0:
192,64,42937,1,8,0:0:0:0:
360,72,43398,6,2,L|424:40,1,71.5000021820069
430,141,43860,2,2,L|344:184,1,71.5000021820069
264,176,44321,5,0,0:0:0:0:
184,104,44552,1,0,0:0:0:0:
128,184,44783,1,0,0:0:0:0:
184,104,45014,1,0,0:0:0:0:
48,160,45244,2,4,P|64:232|128:264,1,143.000004364014
176,264,45937,5,0,0:0:0:0:
256,312,46167,1,0,0:0:0:0:
256,312,46398,1,0,0:0:0:0:
312,240,46629,1,0,0:0:0:0:
312,240,46860,1,0,0:0:0:0:
312,240,47091,1,0,0:0:0:0:
328,128,47552,6,8,P|296:120|208:176,1,143.000004364014
128,256,48475,2,8,L|40:256,1,71.5000021820069
56,200,48937,1,0,0:0:0:0:
88,88,49398,6,8,P|160:120|200:168,1,143.000004364014
128,256,50321,1,0,0:0:0:0:
128,256,50552,1,0,0:0:0:0:
176,288,50783,1,0,0:0:0:0:
224,320,51014,1,0,0:0:0:0:
280,320,51245,1,0,0:0:0:0:
336,304,51476,1,0,0:0:0:0:
336,216,51706,6,4,B|280:184|296:144|224:120,1,143.000004364014
160,224,52398,1,0,0:0:0:0:
230,122,52629,1,0,0:0:0:0:
152,40,53090,2,8,P|80:40|96:120,1,143.000004364014
176,144,54014,1,0,0:0:0:0:
88,232,54245,1,0,0:0:0:0:
208,288,54475,1,0,0:0:0:0:
288,208,54937,6,8,L|288:128,1,71.5000021820069
344,136,55398,1,0,0:0:0:0:
288,208,55860,2,4,L|187:107,1,143.000004364014
72,128,56783,2,8,P|104:56|168:16,1,143.000004364014
176,136,57706,1,0,0:0:0:0:
176,136,57937,1,0,0:0:0:0:
176,136,58167,5,0,0:0:0:0:
176,184,58398,1,0,0:0:0:0:
176,224,58629,1,0,0:0:0:0:
176,264,58860,1,0,0:0:0:0:
176,336,59090,2,8,L|272:360,1,71.5000021820069
245,353,59552,1,4,0:0:0:0:
296,320,59783,5,0,0:0:0:0:
304,264,60014,2,4,P|360:216|424:176,1,143.000004364014
418,179,60706,1,0,0:0:0:0:
312,144,60937,5,0,0:0:0:0:
264,176,61167,1,0,0:0:0:0:
224,136,61398,1,0,0:0:0:0:
176,168,61629,1,0,0:0:0:0:
128,136,61860,1,0,0:0:0:0:
48,216,62321,5,0,0:0:0:0:
88,256,62552,1,0,0:0:0:0:
80,312,62783,2,8,P|144:280|128:208,1,143.000004364014
160,168,63475,5,0,0:0:0:0:
224,88,63706,1,0,0:0:0:0:
120,48,63937,1,0,0:0:0:0:
120,48,64167,5,0,0:0:0:0:
72,88,64398,1,0,0:0:0:0:
56,144,64629,1,0,0:0:0:0:
88,256,65090,1,0,0:0:0:0:
192,264,65552,5,0,0:0:0:0:
224,256,65783,1,0,0:0:0:0:
256,248,66014,1,0,0:0:0:0:
288,240,66244,1,0,0:0:0:0:
360,208,66475,2,8,P|320:176|280:168,1,71.5000021820069
320,112,66937,6,8,L|224:112,1,71.5000021820069
176,40,67398,2,8,P|160:120|176:200,1,143.000004364014
80,200,68090,1,0,0:0:0:0:
80,200,68321,1,0,0:0:0:0:
144,288,68552,1,0,0:0:0:0:
144,288,68783,1,0,0:0:0:0:
144,288,69014,1,0,0:0:0:0:
216,336,69245,2,8,L|256:272,1,71.5000021820069
336,240,69706,2,4,P|296:184|208:200,1,143.000004364014
189,102,70398,5,0,0:0:0:0:
288,104,70629,1,0,0:0:0:0:
244,23,70860,1,0,0:0:0:0:
189,102,71090,1,0,0:0:0:0:
189,102,71552,2,8,L|128:230,1,143.000004364014
64,264,72475,5,0,0:0:0:0:
88,296,72706,1,0,0:0:0:0:
120,312,72936,1,0,0:0:0:0:
160,312,73167,1,0,0:0:0:0:
96,96,73860,5,4,0:0:0:0:
189,147,74090,1,4,0:0:0:0:
288,96,74552,1,4,0:0:0:0:
189,147,74783,1,4,0:0:0:0:
80,240,75244,5,4,0:0:0:0:
128,296,75474,1,4,0:0:0:0:
200,296,75705,1,4,0:0:0:0:
264,264,75937,6,8,L|315:323,1,71.5000021820069
368,184,76630,2,8,L|321:131,1,71.5000021820069
264,88,77090,5,2,0:0:0:0:
264,88,77321,1,2,0:0:0:0:
168,136,77783,5,4,0:0:0:0:
240,240,78014,1,4,0:0:0:0:
128,248,78475,1,4,0:0:0:0:
168,136,78706,1,4,0:0:0:0:
320,288,79629,6,8,L|392:336,1,71.5000021820069
416,216,80321,2,8,L|456:152,1,71.5000021820069
408,120,80783,1,2,0:0:0:0:
256,192,81244,12,0,84014,0:0:0:0:
112,160,84475,5,2,0:0:0:0:
128,136,84590,1,2,0:0:0:0:
144,112,84705,1,2,0:0:0:0:
168,96,84821,1,2,0:0:0:0:
192,80,84937,6,8,P|257:56|328:72,1,143.000004364014
328,72,85629,1,0,0:0:0:0:
348,146,85860,2,8,P|281:168|216:144,1,143.000004364014
215,143,86552,1,0,0:0:0:0:
352,232,86783,2,8,P|285:253|219:229,1,143.000004364014
218,228,87475,1,0,0:0:0:0:
304,320,87937,1,0,0:0:0:0:
200,328,88168,1,0,0:0:0:0:
112,272,88398,1,0,0:0:0:0:
176,208,88629,6,2,L|192:128,1,71.5000021820069,2|2,0:0|0:0,0:0:0:0:
208,216,89090,2,2,L|224:144,1,71.5000021820069
240,224,89552,2,2,L|256:144,1,71.5000021820069
272,232,90014,2,2,L|288:160,1,71.5000021820069
376,104,90475,5,0,0:0:0:0:
231,119,90937,2,4,P|222:86|240:56,2,71.5000021820069
240,208,91860,6,8,B|280:224|280:224|288:280,1,71.5000021820069
192,328,92321,6,8,L|104:296,1,71.5000021820069
152,232,92783,2,8,L|72:200,1,71.5000021820069
120,112,93244,1,0,0:0:0:0:
240,160,93706,5,0,0:0:0:0:
240,160,93937,1,0,0:0:0:0:
240,160,94167,1,0,0:0:0:0:
336,224,94629,5,0,0:0:0:0:
296,240,94860,1,0,0:0:0:0:
248,232,95090,1,0,0:0:0:0:
112,232,96014,6,4,L|168:296,1,71.5000021820069
159,285,96475,1,0,0:0:0:0:
296,256,96937,6,8,L|328:176,1,71.5000021820069
232,128,97398,1,0,0:0:0:0:
232,128,97629,1,0,0:0:0:0:
232,128,97860,1,0,0:0:0:0:
88,96,98321,6,8,P|56:112|48:152,1,71.5000021820069
112,160,98783,2,8,P|96:192|48:216,1,71.5000021820069
168,264,99244,5,0,0:0:0:0:
168,264,99475,2,8,L|232:200,1,71.5000021820069
176,48,100167,6,8,L|224:112,1,71.5000021820069
304,80,100629,2,8,L|248:8,1,71.5000021820069
218,105,101090,1,0,0:0:0:0:
152,160,101321,1,0,0:0:0:0:
232,200,101552,1,0,0:0:0:0:
208,304,102014,6,4,P|144:288|80:224,1,143.000004364014
56,112,102937,1,0,0:0:0:0:
136,72,103167,1,0,0:0:0:0:
232,88,103398,6,8,P|256:144|240:176,1,71.5000021820069
176,160,103860,2,8,P|192:200|232:224,1,71.5000021820069
296,248,104321,2,8,P|280:280|216:288,2,71.5000021820069
296,248,105014,1,0,0:0:0:0:
376,192,105244,6,4,L|296:136,1,71.5000021820069
376,112,105706,2,4,L|312:64,1,71.5000021820069
216,152,106167,1,0,0:0:0:0:
128,160,106629,6,8,B|112:200|112:200|136:224,1,71.5000021820069
248,248,107090,6,4,L|312:176,1,71.5000021820069
248,248,107552,2,4,L|336:248,1,71.5000021820069
248,248,108014,2,4,L|288:320,1,71.5000021820069
360,320,108475,6,8,P|392:304|400:248,2,71.5000021820069
328,160,109398,5,0,0:0:0:0:
328,160,109860,1,0,0:0:0:0:
328,160,110321,1,0,0:0:0:0:
240,128,114014,5,4,0:0:0:0:
240,128,114244,2,4,L|240:208,1,71.5000021820069
104,232,117476,5,4,0:0:0:0:
104,232,117707,1,4,0:0:0:0:
104,232,117937,2,4,L|176:288,1,71.5000021820069
152,136,121398,5,4,0:0:0:0:
152,136,121629,2,4,L|200:208,1,71.5000021820069
240,120,124860,5,4,0:0:0:0:
240,120,125090,1,4,0:0:0:0:
240,120,125321,2,4,L|256:224,1,71.5000021820069
104,200,125783,5,0,0:0:0:0:
160,288,126013,2,4,P|200:320|240:312,1,71.5000021820069
304,248,126475,1,2,0:0:0:0:
304,248,126590,1,2,0:0:0:0:
304,248,126706,1,2,0:0:0:0:
304,248,126821,1,2,0:0:0:0:
304,248,126937,1,2,0:0:0:0:
304,248,127167,2,4,P|328:224|320:168,1,71.5000021820069
336,104,127629,6,4,P|280:120|240:144,1,71.5000021820069
224,160,128090,1,0,0:0:0:0:
184,200,128321,1,2,0:0:0:0:
184,200,128437,1,2,0:0:0:0:
184,200,128552,1,2,0:0:0:0:
184,200,128667,1,2,0:0:0:0:
184,200,128783,1,2,0:0:0:0:
200,256,129014,1,8,0:0:0:0:
200,256,129244,6,8,L|224:304,6,35.7500010910034
256,248,130167,6,8,L|232:208,6,35.7500010910034
296,296,131090,5,8,0:0:0:0:
296,296,131206,1,8,0:0:0:0:
296,296,131321,1,8,0:0:0:0:
352,272,131552,1,8,0:0:0:0:
352,272,131667,1,8,0:0:0:0:
352,272,131783,1,8,0:0:0:0:
392,232,132014,1,8,0:0:0:0:
392,232,132129,1,8,0:0:0:0:
392,232,132244,2,8,P|384:200|344:152,2,71.5000021820069
256,192,132937,12,0,139398,0:0:0:0:
152,96,140321,6,4,L|240:216,1,143.000004364014
344,144,141014,1,0,0:0:0:0:
288,272,141244,1,0,0:0:0:0:
288,272,141706,6,4,P|216:296|144:264,1,143.000004364014
88,176,142629,1,0,0:0:0:0:
128,144,142860,1,0,0:0:0:0:
176,136,143090,1,0,0:0:0:0:
168,40,143552,6,8,P|248:56|288:128,1,143.000004364014
280,240,144475,1,0,0:0:0:0:
280,240,144706,1,0,0:0:0:0:
280,240,144937,2,4,P|336:208|320:128,1,143.000004364014
144,112,145629,5,0,0:0:0:0:
216,200,145860,1,0,0:0:0:0:
48,232,146321,1,0,0:0:0:0:
208,304,146783,5,0,0:0:0:0:
248,280,147014,1,0,0:0:0:0:
280,248,147244,1,0,0:0:0:0:
304,208,147475,1,0,0:0:0:0:
424,136,147706,6,8,P|360:104|272:104,1,143.000004364014
224,176,148398,1,0,0:0:0:0:
136,96,148629,2,8,L|104:168,1,71.5000021820069
32,144,149091,2,8,L|64:64,1,71.5000021820069
120,240,149552,6,4,L|168:304,1,71.5000021820069
256,272,150014,1,0,0:0:0:0:
256,272,150244,1,0,0:0:0:0:
256,272,150475,1,0,0:0:0:0:
240,168,150937,6,4,P|312:168|360:224,1,143.000004364014
424,96,151860,2,4,L|352:24,1,71.5000021820069
424,96,152321,2,4,L|328:120,1,71.5000021820069
240,128,152783,1,0,0:0:0:0:
152,200,153014,2,8,P|184:240|224:256,1,71.5000021820069
200,248,153706,5,0,0:0:0:0:
360,128,154167,1,0,0:0:0:0:
296,288,154398,1,0,0:0:0:0:
248,168,154629,1,0,0:0:0:0:
400,240,154860,1,0,0:0:0:0:
472,152,155090,6,2,B|456:136|456:136|464:104|464:104|440:80,1,71.5000021820069
452,92,155552,1,4,0:0:0:0:
344,64,156014,6,4,B|280:56|280:56|184:112,1,143.000004364014
212,95,156706,1,0,0:0:0:0:
212,95,156937,1,0,0:0:0:0:
212,95,157168,1,0,0:0:0:0:
144,152,157398,2,4,P|176:208|184:240,2,71.5000021820069
32,168,158321,6,8,P|56:232|128:288,1,143.000004364014
184,328,159014,1,0,0:0:0:0:
256,288,159244,2,8,L|304:224,2,71.5000021820069
376,304,160167,6,4,P|400:224|360:160,1,143.000004364014
304,232,161090,1,0,0:0:0:0:
184,160,161552,5,0,0:0:0:0:
144,192,161783,1,0,0:0:0:0:
128,232,162014,1,0,0:0:0:0:
120,280,162244,1,0,0:0:0:0:
216,312,162475,6,4,B|256:328|256:328|312:312,4,71.5000021820069
216,224,163860,2,8,P|296:232|368:200,1,143.000004364014
368,144,164552,1,0,0:0:0:0:
360,72,164783,1,0,0:0:0:0:
296,32,165014,1,0,0:0:0:0:
224,24,165244,1,0,0:0:0:0:
80,24,165706,6,4,P|32:72|8:144,1,143.000004364014
96,256,166629,1,0,0:0:0:0:
152,296,166859,1,0,0:0:0:0:
160,224,167090,1,0,0:0:0:0:
256,192,167552,5,0,0:0:0:0:
256,192,167783,1,0,0:0:0:0:
256,192,168014,1,0,0:0:0:0:
256,192,168244,12,0,169629,0:0:0:0:
224,184,169860,6,6,L|224:104,1,71.5000021820069
272,112,170322,2,2,L|272:192,1,71.5000021820069
320,184,170784,2,2,L|320:112,1,71.5000021820069
288,288,171244,5,0,0:0:0:0:
232,280,171475,1,0,0:0:0:0:
184,256,171706,1,0,0:0:0:0:
56,208,172167,6,8,L|152:184,2,71.5000021820069
104,104,173090,5,0,0:0:0:0:
128,96,173206,1,0,0:0:0:0:
160,96,173321,1,0,0:0:0:0:
184,104,173437,1,0,0:0:0:0:
184,104,173552,6,4,P|168:184|128:232,1,143.000004364014
104,344,174475,2,4,B|48:312|48:312|48:232,1,143.000004364014
120,136,175167,1,0,0:0:0:0:
224,128,175398,1,0,0:0:0:0:
336,216,175860,1,0,0:0:0:0:
336,216,176321,2,4,L|264:256,1,71.5000021820069
208,288,176783,2,2,L|150:269,3,35.7500010910034
80,200,177244,5,0,0:0:0:0:
160,136,177475,1,0,0:0:0:0:
48,112,177706,1,0,0:0:0:0:
80,200,177937,1,0,0:0:0:0:
160,136,178167,1,0,0:0:0:0:
48,112,178398,1,0,0:0:0:0:
80,200,178629,1,0,0:0:0:0:
104,48,178860,2,4,P|136:40|176:64,3,71.5000021820069
256,136,179783,5,0,0:0:0:0:
256,136,180014,1,0,0:0:0:0:
256,136,180475,6,2,L|232:208,1,65
216,336,181398,5,0,0:0:0:0:
360,360,181860,2,8,P|432:312|448:240,1,143.000004364014
416,200,182552,1,0,0:0:0:0:
416,200,182783,1,0,0:0:0:0:
456,64,183244,2,4,P|416:48|368:64,2,71.5000021820069
416,200,184167,1,0,0:0:0:0:
279,217,184629,6,4,L|208:216,1,71.5000021820069
261,263,185090,2,0,L|208:216,1,71.5000021820069
226,285,185552,2,0,L|208:216,1,71.5000021820069
185,283,186014,2,0,L|208:216,1,71.5000021820069
112,144,186475,6,8,P|144:120|192:120,3,71.5000021820069
174,116,187398,1,0,0:0:0:0:
312,200,187860,5,2,0:0:0:0:
312,200,187975,1,2,0:0:0:0:
312,200,188090,1,2,0:0:0:0:
312,200,188206,1,2,0:0:0:0:
312,200,188321,6,4,P|272:248|184:232,1,143.000004364014
232,144,189014,1,0,0:0:0:0:
232,144,189244,2,8,P|256:104|304:96,1,71.5000021820069
368,136,189706,1,0,0:0:0:0:
432,232,189937,1,0,0:0:0:0:
368,136,190167,1,0,0:0:0:0:
432,232,190398,1,0,0:0:0:0:
488,168,190629,2,8,P|528:232|480:288,1,143.000004364014
312,200,191552,6,2,L|256:224,3,35.7500010910034
159,194,192014,6,4,P|127:234|127:282,1,71.5000021820069
176,344,192475,2,4,P|204:323|215:290,1,71.5000021820069
123,253,192937,2,4,P|133:219|158:194,1,71.5000021820069
215,290,193398,2,4,P|199:330|159:346,1,71.5000021820069
72,296,193860,5,0,0:0:0:0:
64,184,194090,1,0,0:0:0:0:
168,160,194321,1,0,0:0:0:0:
64,184,194552,1,0,0:0:0:0:
72,296,194783,1,0,0:0:0:0:
72,296,195244,6,2,L|136:264,1,65
224,328,196167,6,8,P|256:272|224:200,1,143.000004364014
344,176,197090,1,0,0:0:0:0:
288,40,197320,1,0,0:0:0:0:
248,120,197551,1,0,0:0:0:0:
392,88,197782,1,0,0:0:0:0:
280,176,198014,1,0,0:0:0:0:
352,40,198244,1,0,0:0:0:0:
352,40,198475,1,0,0:0:0:0:
184,64,199398,6,4,L|104:104,1,71.5000021820069
144,128,199860,2,4,L|216:88,1,71.5000021820069
232,128,200321,2,4,L|152:168,1,71.5000021820069
184,200,200783,2,4,L|256:168,1,71.5000021820069
360,192,201244,6,4,P|368:240|336:280,1,71.5000021820069
288,232,201706,2,4,P|280:272|288:304,1,71.5000021820069
359,259,202167,2,4,P|369:225|360:192,1,71.5000021820069
286,301,202629,2,0,P|279:266|288:232,1,71.5000021820069
200,312,203090,6,4,L|128:256,1,71.5000021820069
143,268,203552,2,4,L|200:200,1,71.5000021820069
189,213,204014,2,4,L|128:160,1,71.5000021820069
135,166,204475,2,4,L|192:112,1,71.5000021820069
272,80,204937,6,2,P|296:96|304:128,8,35.7500010910034
256,160,206090,1,0,0:0:0:0:
344,216,206321,1,0,0:0:0:0:
344,216,206552,1,0,0:0:0:0:
248,320,206783,6,4,L|152:320,1,71.5000021820069
176,280,207245,2,4,L|96:280,1,71.5000021820069
104,240,207706,2,8,L|40:240,4,35.7500010910034
64,144,208398,1,0,0:0:0:0:
64,144,208629,6,4,L|136:144,1,71.5000021820069
144,176,209090,2,4,L|216:176,1,71.5000021820069
301,82,209552,5,0,0:0:0:0:
342,119,209783,1,0,0:0:0:0:
351,170,210014,1,0,0:0:0:0:
319,216,210244,1,0,0:0:0:0:
208,288,210475,6,8,B|192:256|192:256|208:216,1,71.5000021820069
125,222,210937,2,8,B|112:256|112:256|128:288,1,71.5000021820069
40,288,211398,2,8,B|32:256|32:256|48:216,1,71.5000021820069
112,136,211860,1,0,0:0:0:0:
112,136,212090,1,0,0:0:0:0:
200,80,212321,2,4,L|280:96,4,71.5000021820069
232,176,213475,5,0,0:0:0:0:
232,176,213706,1,0,0:0:0:0:
232,176,213937,1,0,0:0:0:0:
152,72,214167,5,0,0:0:0:0:
248,80,214398,1,0,0:0:0:0:
336,128,214629,1,0,0:0:0:0:
392,208,214860,1,0,0:0:0:0:
336,128,215090,5,0,0:0:0:0:
248,80,215321,1,0,0:0:0:0:
152,72,215552,1,0,0:0:0:0:
56,104,215783,1,0,0:0:0:0:
120,184,216014,6,4,L|72:248,1,71.5000021820069
152,280,216475,2,4,L|200:216,1,71.5000021820069
248,144,216937,1,2,0:0:0:0:
248,144,217167,1,2,0:0:0:0:
248,144,217398,1,2,0:0:0:0:
80,144,217860,6,8,P|48:168|32:208,1,71.5000021820069
128,224,218321,2,8,P|112:256|72:280,1,71.5000021820069
136,296,218783,1,0,0:0:0:0:
192,304,219014,1,0,0:0:0:0:
248,296,219244,1,0,0:0:0:0:
296,264,219475,1,0,0:0:0:0:
280,160,219706,5,0,0:0:0:0:
120,168,219937,1,0,0:0:0:0:
192,72,220167,1,0,0:0:0:0:
192,72,220398,1,0,0:0:0:0:
288,80,220629,2,2,P|336:104|360:136,2,71.5000021820069
256,224,221552,5,0,0:0:0:0:
160,176,221783,1,0,0:0:0:0:
232,112,222014,1,0,0:0:0:0:
256,224,222244,1,0,0:0:0:0:
320,136,222475,1,0,0:0:0:0:
256,224,222706,1,0,0:0:0:0:
368,216,222937,1,0,0:0:0:0:
256,224,223167,1,0,0:0:0:0:
120,248,223398,6,4,P|128:288|176:304,2,71.5000021820069
120,248,224090,1,0,0:0:0:0:
40,216,224321,5,2,0:0:0:0:
64,176,224552,1,2,0:0:0:0:
104,160,224783,1,2,0:0:0:0:
199,70,225244,6,2,B|220:145|220:145|256:200,1,143.000004364014
347,90,226167,2,2,B|304:154|304:154|256:200,1,143.000004364014
324,324,227090,2,2,B|296:256|296:256|256:200,1,143.000004364014
176,320,228014,2,6,B|208:256|208:256|256:200,1,143.000004364014
