osu file format v12

[General]
AudioFilename: Envy - Paladin.mp3
AudioLeadIn: 0
PreviewTime: 46173
Countdown: 0
SampleSet: Soft
StackLeniency: 0.7
Mode: 0
LetterboxInBreaks: 0
CountdownOffset: 3
WidescreenStoryboard: 0

[Editor]
Bookmarks: 211615
DistanceSpacing: 1.5
BeatDivisor: 4
GridSize: 4

[Metadata]
Title:Paladin
TitleUnicode:Paladin
Artist:Envy
ArtistUnicode:Envy
Creator:Aldwych
Version:Insane
Source:Newgrounds
Tags:_Gezo_ dance house electronic EDM
BeatmapID:288339
BeatmapSetID:109525

[Difficulty]
HPDrainRate:7
CircleSize:4
OverallDifficulty:7
ApproachRate:8
SliderMultiplier:1.8
SliderTickRate:1

[Events]
//Background and Video events
0,0,"paladin.jpg",0,0
//Break Periods
2,61143,67577
2,105450,114654
2,171912,178346
//Storyboard Layer 0 (Background)
//Storyboard Layer 1 (Fail)
//Storyboard Layer 2 (Pass)
//Storyboard Layer 3 (Foreground)
//Storyboard Sound Samples
//Background Colour Transformations
3,100,163,162,255

[TimingPoints]
20,461.538461538462,4,2,0,50,1,0
14789,-100,4,2,0,30,0,0
14889,-100,4,2,0,50,0,0
37866,-100,4,2,0,60,0,0
38789,-100,4,2,0,70,0,0
39712,-100,4,2,0,80,0,0
40635,-100,4,2,0,90,0,0
42712,-100,4,2,0,100,0,0
46173,-83.3333333333333,4,1,1,70,0,1
46289,-83.3333333333333,4,1,1,70,0,0
72943,-83.3333333333333,4,1,0,50,0,0
75020,-83.3333333333333,4,1,0,70,0,0
75712,-83.3333333333333,4,1,1,80,0,1
105250,-83.3333333333333,4,2,0,50,0,0
115404,-100,4,2,0,50,0,0
119904,-100,4,2,0,20,0,0
120135,-100,4,2,0,35,0,0
120366,-100,4,2,0,50,0,0
134789,-83.3333333333333,4,1,1,70,0,1
134904,-83.3333333333333,4,1,1,70,0,0
145866,-83.3333333333333,4,1,1,55,0,0
147712,-83.3333333333333,4,1,1,40,0,0
156943,-83.3333333333333,4,1,1,70,0,0
186481,-83.3333333333333,4,1,1,80,0,1
216020,-83.3333333333333,4,1,1,60,0,0
230789,-100,4,2,0,50,0,0

[Colours]
Combo1 : 245,220,73
Combo2 : 179,140,156
Combo3 : 69,232,250

[HitObjects]
104,160,20,2,0,P|104:96|136:64,2,90
189,132,712,1,0,0:0:0:0:
256,192,943,2,0,P|340:224|420:192,1,180
356,132,1635,1,0,0:0:0:0:
292,72,1866,6,0,P|372:40|456:72,1,180
480,156,2558,1,0,0:0:0:0:
448,240,2789,2,0,L|384:320,2,90
360,224,3481,1,0,0:0:0:0:
312,148,3712,6,0,P|360:132|404:148,2,90
264,224,4404,1,0,0:0:0:0:
196,280,4635,2,0,P|129:225|115:136,1,180,0|0,0:0|0:0,2:0:0:0:
188,80,5327,1,0,0:0:0:0:
264,28,5558,6,0,P|299:108|272:192,1,180
196,240,6250,1,0,0:0:0:0:
124,296,6481,2,0,P|184:328|216:316,1,90
256,252,6943,1,0,0:0:0:0:
312,324,7173,2,0,P|328:329|388:297,1,90
428,208,7635,6,0,L|484:132,2,90
404,296,8327,2,0,B|344:272|336:220|336:220|272:268,1,180
220,332,9020,1,0,0:0:0:0:
164,264,9250,6,0,B|105:220|105:220|97:272|37:296,1,180
16,208,9943,1,0,0:0:0:0:
64,132,10173,2,0,P|100:96|100:56,2,90
196,108,10866,1,0,0:0:0:0:
328,132,11096,6,0,P|292:96|292:56,2,90
384,60,11789,1,0,0:0:0:0:
428,140,12020,2,0,P|460:224|428:304,1,180
324,220,12712,1,0,0:0:0:0:
216,140,12943,6,0,P|184:224|216:304,1,180
140,352,13635,1,0,0:0:0:0:
76,288,13866,1,0,0:0:0:0:
100,200,14096,1,0,0:0:0:0:
188,180,14327,1,0,0:0:0:0:
160,264,14558,2,0,P|208:276|244:252,1,90,0|4,0:0|0:0,0:0:0:0:
324,96,15250,6,2,L|376:64,2,45,2|2|2,0:0|0:0|0:0,0:0:0:0:
356,180,15712,2,0,L|456:192,2,90,2|0|0,0:0|0:0|0:0,0:0:0:0:
268,156,16404,1,0,0:0:0:0:
196,100,16635,6,0,L|128:36,2,90,0|0|2,0:0|0:0|0:0,0:0:0:0:
164,132,17212,1,2,0:0:0:0:
140,168,17327,1,2,0:0:0:0:
88,240,17558,2,0,P|184:300|264:264,1,180,2|0,0:0|0:0,0:0:0:0:
320,240,18250,2,0,P|332:288|320:328,2,90
292,204,18827,5,2,0:0:0:0:
252,180,18943,1,2,0:0:0:0:
208,180,19058,1,2,0:0:0:0:
172,204,19173,1,2,0:0:0:0:
172,204,19404,2,0,L|60:60,1,180,2|0,0:0|0:0,0:0:0:0:
152,56,20096,2,0,P|200:72|240:64,1,90
320,104,20558,6,0,L|360:72,2,45,2|2|2,0:0|0:0|0:0,0:0:0:0:
320,104,21020,1,2,0:0:0:0:
388,164,21250,1,2,0:0:0:0:
376,252,21481,2,0,L|332:336,2,90
296,216,22173,5,0,0:0:0:0:
212,252,22404,2,0,L|253:331,1,90,0|2,0:0|0:0,0:0:0:0:
253,331,22750,1,2,0:0:0:0:
253,331,22866,1,2,0:0:0:0:
132,292,23096,2,0,P|100:212|132:128,1,180,2|0,0:0|0:0,0:0:0:0:
208,176,23789,1,0,0:0:0:0:
284,224,24020,6,0,P|316:140|284:60,1,180,0|2,0:0|0:0,0:0:0:0:
244,40,24596,1,2,0:0:0:0:
200,32,24712,1,2,0:0:0:0:
200,32,24943,1,2,0:0:0:0:
112,52,25173,2,0,P|140:100|184:112,1,90
132,196,25635,1,0,0:0:0:0:
132,196,25866,6,0,P|188:204|228:176,1,90
252,160,26212,1,2,0:0:0:0:
280,124,26327,1,2,0:0:0:0:
320,104,26443,1,2,0:0:0:0:
364,108,26558,1,2,0:0:0:0:
420,180,26789,2,0,P|376:200|328:192,1,90,2|0,0:0|0:0,0:0:0:0:
312,284,27250,1,0,0:0:0:0:
312,284,27481,2,0,P|268:260|244:220,1,90
284,148,27943,5,2,0:0:0:0:
252,116,28058,1,2,0:0:0:0:
208,104,28173,1,2,0:0:0:0:
76,128,28404,1,2,0:0:0:0:
60,264,28635,1,2,0:0:0:0:
182,321,28866,1,0,0:0:0:0:
274,222,29097,1,2,0:0:0:0:
208,104,29327,1,2,0:0:0:0:
76,128,29558,5,2,0:0:0:0:
172,216,29789,1,2,0:0:0:0:
204,248,29904,1,2,0:0:0:0:
236,280,30020,1,2,0:0:0:0:
268,308,30135,1,2,0:0:0:0:
300,340,30250,1,2,0:0:0:0:
376,296,30481,2,0,P|432:296|468:252,1,90,2|0,0:0|0:0,0:0:0:0:
396,212,30943,1,0,0:0:0:0:
436,132,31173,2,0,P|384:120|336:148,1,90,0|2,0:0|0:0,0:0:0:0:
296,64,31635,5,2,0:0:0:0:
252,48,31750,1,2,0:0:0:0:
208,56,31866,1,2,0:0:0:0:
172,84,31981,1,2,0:0:0:0:
156,124,32096,1,2,0:0:0:0:
244,144,32327,1,2,0:0:0:0:
180,208,32558,2,0,P|264:232|336:164,1,180,2|2,0:0|0:0,0:0:0:0:
208,56,33250,5,2,0:0:0:0:
124,116,33481,1,2,0:0:0:0:
80,116,33596,1,2,0:0:0:0:
44,140,33712,1,2,0:0:0:0:
28,184,33827,1,2,0:0:0:0:
40,228,33943,1,2,0:0:0:0:
128,264,34173,1,2,0:0:0:0:
232,188,34404,1,0,0:0:0:0:
100,188,34635,1,0,0:0:0:0:
204,264,34866,1,0,0:0:0:0:
164,136,35096,5,2,0:0:0:0:
240,80,35327,2,0,L|196:52,2,45,2|2|2,0:0|0:0|0:0,0:0:0:0:
320,124,35789,2,0,P|336:84|320:32,1,90,0|2,0:0|0:0,0:0:0:0:
408,76,36250,1,2,0:0:0:0:
392,164,36481,1,0,0:0:0:0:
476,192,36712,2,0,P|448:240|400:252,1,90,0|2,0:0|0:0,0:0:0:0:
340,292,37173,5,2,0:0:0:0:
300,312,37289,1,2,0:0:0:0:
256,320,37404,1,2,0:0:0:0:
212,312,37520,1,2,0:0:0:0:
172,292,37635,1,2,0:0:0:0:
256,192,37866,1,2,0:0:0:0:
356,108,38096,5,2,0:0:0:0:
376,148,38212,1,2,0:0:0:0:
384,192,38327,1,2,0:0:0:0:
375,236,38443,1,2,0:0:0:0:
356,275,38558,1,2,0:0:0:0:
256,192,38789,1,2,0:0:0:0:
172,92,39020,5,2,0:0:0:0:
212,72,39136,1,2,0:0:0:0:
256,64,39251,1,2,0:0:0:0:
300,72,39367,1,2,0:0:0:0:
340,92,39482,1,2,0:0:0:0:
256,192,39713,1,2,0:0:0:0:
156,276,39943,5,2,0:0:0:0:
136,236,40059,1,2,0:0:0:0:
128,192,40174,1,2,0:0:0:0:
136,148,40290,1,2,0:0:0:0:
156,108,40405,1,2,0:0:0:0:
336,156,40635,6,0,P|356:192|336:232,1,90,2|0,0:0|0:0,0:0:0:0:
176,232,41096,2,0,P|156:192|176:156,1,90,2|0,0:0|0:0,0:0:0:0:
420,156,41558,2,0,P|440:192|420:232,1,90,2|0,0:0|0:0,0:0:0:0:
92,232,42019,2,0,P|72:192|92:156,1,90,2|0,0:0|0:0,0:0:0:0:
292,272,42481,6,0,P|256:292|216:272,1,90,2|0,0:0|0:0,0:0:0:0:
220,112,42942,2,0,P|256:92|296:112,1,90,2|0,0:0|0:0,0:0:0:0:
296,340,43404,2,0,P|256:360|220:340,1,90,2|0,0:0|0:0,0:0:0:0:
220,44,43865,2,0,P|256:24|296:44,1,90,2|0,0:0|0:0,0:0:0:0:
256,192,44327,12,0,45943,0:0:0:0:
164,272,46173,6,0,P|104:232|104:184,2,107.999996704102,0|0|8,0:0|0:0|0:0,0:0:0:0:
164,272,46750,1,0,0:0:0:0:
164,272,46866,1,0,0:0:0:0:
208,172,47096,2,0,L|228:60,1,107.999996704102,0|0,0:0|0:0,0:0:0:0:
226,65,47443,1,0,0:0:0:0:
226,65,47558,1,8,0:0:0:0:
368,144,47789,1,0,0:0:0:0:
436,292,48020,6,0,L|308:248,2,107.999996704102,0|0|8,0:0|0:0|0:0,0:0:0:0:
276,320,48712,1,0,0:0:0:0:
116,336,48943,1,0,0:0:0:0:
40,192,49173,1,0,0:0:0:0:
44,136,49289,1,0,0:0:0:0:
76,96,49404,1,8,0:0:0:0:
184,112,49635,2,0,P|236:72|280:88,1,107.999996704102,0|0,0:0|0:0,0:0:0:0:
334,272,50096,6,0,P|283:260|264:211,1,107.999996704102,0|8,0:0|0:0,0:0:0:0:
352,152,50558,2,0,P|417:143|443:170,1,107.999996704102,0|0,0:0|0:0,0:0:0:0:
452,276,51020,1,0,0:0:0:0:
424,324,51135,1,0,0:0:0:0:
376,348,51250,1,8,0:0:0:0:
296,276,51481,2,0,P|244:300|200:276,1,107.999996704102,0|0,0:0|0:0,0:0:0:0:
124,352,51943,5,0,0:0:0:0:
76,328,52058,1,0,0:0:0:0:
48,280,52173,1,8,0:0:0:0:
60,172,52404,2,0,L|120:80,1,107.999996704102,0|0,0:0|0:0,0:0:0:0:
192,160,52866,1,0,0:0:0:0:
192,160,52981,1,0,0:0:0:0:
192,160,53096,1,8,0:0:0:0:
320,160,53327,1,0,0:0:0:0:
320,160,53442,1,0,0:0:0:0:
320,160,53557,1,0,0:0:0:0:
393,81,53789,6,0,L|452:172,1,107.999996704102,0|8,0:0|0:0,0:0:0:0:
472,276,54250,2,0,P|436:240|372:244,1,107.999996704102,0|0,0:0|0:0,0:0:0:0:
272,232,54712,2,0,L|240:184,2,53.9999983520508,0|0|8,0:0|0:0|0:0,0:0:0:0:
272,232,55173,1,0,0:0:0:0:
220,328,55404,2,0,P|161:269|165:225,1,107.999996704102,0|0,0:0|0:0,0:0:0:0:
240,84,55866,6,0,P|284:113|300:164,1,107.999996704102,8|0,0:0|0:0,0:0:0:0:
92,156,56327,2,0,P|33:97|37:53,1,107.999996704102,0|0,0:0|0:0,0:0:0:0:
31,77,56673,1,0,0:0:0:0:
31,77,56789,1,8,0:0:0:0:
140,56,57020,2,0,L|248:64,1,107.999996704102,0|0,0:0|0:0,0:0:0:0:
372,168,57481,6,0,L|264:160,1,107.999996704102,0|8,0:0|0:0,0:0:0:0:
156,152,57943,1,0,0:0:0:0:
28,248,58173,2,0,L|136:256,1,107.999996704102,0|0,0:0|0:0,0:0:0:0:
188,260,58519,1,0,0:0:0:0:
244,264,58635,1,8,0:0:0:0:
328,332,58866,1,0,0:0:0:0:
372,236,59096,6,0,P|400:188|396:132,1,107.999996704102,0|0,0:0|0:0,0:0:0:0:
360,96,59443,1,0,0:0:0:0:
324,56,59558,1,8,0:0:0:0:
160,48,59789,2,0,P|124:84|48:80,1,107.999996704102,0|8,0:0|0:0,0:0:0:0:
100,192,60250,5,0,0:0:0:0:
128,224,60366,1,0,0:0:0:0:
164,248,60481,1,4,0:0:0:0:
204,256,60596,1,4,0:0:0:0:
244,248,60712,1,4,0:0:0:0:
276,224,60827,1,4,0:0:0:0:
308,192,60943,1,4,0:0:0:0:
256,188,68327,6,0,P|216:160|216:104,2,107.999996704102,0|0|8,0:0|0:0|0:0,0:0:0:0:
360,224,69020,1,0,0:0:0:0:
240,332,69250,2,0,P|180:296|132:312,1,107.999996704102,0|0,0:0|0:0,0:0:0:0:
100,328,69596,1,0,0:0:0:0:
52,348,69712,1,8,0:0:0:0:
48,216,69943,1,0,0:0:0:0:
52,88,70173,5,0,0:0:0:0:
308,40,70635,1,8,0:0:0:0:
464,248,71096,2,0,B|432:304|360:280,1,107.999996704102,0|0,0:0|0:0,0:0:0:0:
320,264,71443,1,0,0:0:0:0:
272,236,71558,1,8,0:0:0:0:
188,172,71789,2,0,P|156:136|152:68,2,107.999996704102,0|0|0,0:0|0:0|0:0,0:0:0:0:
256,88,72481,5,8,0:0:0:0:
256,88,72596,1,0,0:0:0:0:
256,88,72712,1,0,0:0:0:0:
256,192,72943,12,0,74789,0:0:0:0:
420,80,75020,5,0,0:0:0:0:
420,136,75136,1,4,0:0:0:0:
380,172,75251,1,4,0:0:0:0:
340,208,75366,1,0,0:0:0:0:
296,240,75482,1,4,0:0:0:0:
256,276,75597,1,4,0:0:0:0:
256,328,75712,1,0,0:0:0:0:
152,296,75943,5,0,0:0:0:0:
56,244,76173,2,0,P|108:212|124:164,1,107.999996704102,8|0,0:0|0:0,0:0:0:0:
136,128,76520,1,0,0:0:0:0:
148,88,76635,1,0,0:0:0:0:
256,88,76866,1,0,0:0:0:0:
256,140,76981,1,0,0:0:0:0:
256,192,77096,2,0,L|256:304,1,107.999996704102,8|0,0:0|0:0,0:0:0:0:
460,244,77558,6,0,P|408:212|392:164,1,107.999996704102,0|0,0:0|0:0,0:0:0:0:
376,128,77904,1,0,0:0:0:0:
364,88,78020,1,8,0:0:0:0:
484,140,78250,1,0,0:0:0:0:
460,244,78481,1,0,0:0:0:0:
380,344,78712,1,0,0:0:0:0:
318,331,78827,1,0,0:0:0:0:
256,316,78943,1,8,0:0:0:0:
136,344,79173,1,0,0:0:0:0:
56,244,79404,5,0,0:0:0:0:
88,140,79635,2,0,P|140:104|156:60,1,107.999996704102,0|8,0:0|0:0,0:0:0:0:
220,176,80096,2,0,P|168:212|152:256,1,107.999996704102,0|0,0:0|0:0,0:0:0:0:
256,304,80558,1,0,0:0:0:0:
256,304,80673,1,0,0:0:0:0:
256,304,80789,1,8,0:0:0:0:
292,176,81020,2,0,P|344:212|359:252,1,107.999996704102,0|0,0:0|0:0,0:0:0:0:
424,140,81481,6,0,P|372:104|356:60,1,107.999996704102,0|8,0:0|0:0,0:0:0:0:
256,212,81943,2,0,L|256:104,1,107.999996704102,0|0,0:0|0:0,0:0:0:0:
88,140,82404,2,0,P|140:104|156:60,1,107.999996704102,0|8,0:0|0:0,0:0:0:0:
256,104,82866,1,0,0:0:0:0:
256,104,82981,1,0,0:0:0:0:
256,104,83096,1,0,0:0:0:0:
172,176,83327,6,0,L|88:244,1,107.999996704102,0|8,0:0|0:0,0:0:0:0:
196,252,83789,2,0,L|152:356,1,107.999996704102,0|0,0:0|0:0,0:0:0:0:
256,192,84250,1,0,0:0:0:0:
256,192,84366,1,0,0:0:0:0:
256,192,84481,1,8,0:0:0:0:
316,252,84712,2,0,L|360:356,1,107.999996704102,0|0,0:0|0:0,0:0:0:0:
340,176,85173,6,0,L|424:244,1,107.999996704102,0|8,0:0|0:0,0:0:0:0:
420,136,85635,2,0,P|372:92|312:92,1,107.999996704102,0|0,0:0|0:0,0:0:0:0:
256,164,86096,1,0,0:0:0:0:
256,164,86212,1,0,0:0:0:0:
256,164,86327,1,8,0:0:0:0:
180,87,86558,2,0,P|140:92|92:136,1,107.999996704102,0|0,0:0|0:0,0:0:0:0:
180,196,87020,6,0,P|132:240|92:245,1,107.999996704102,0|8,0:0|0:0,0:0:0:0:
256,236,87481,2,0,L|176:336,1,107.999996704102,0|0,0:0|0:0,0:0:0:0:
84,348,87943,1,0,0:0:0:0:
84,348,88058,1,0,0:0:0:0:
84,348,88173,1,8,0:0:0:0:
92,136,88404,2,0,P|52:141|4:185,1,107.999996704102,0|0,0:0|0:0,0:0:0:0:
100,236,88866,6,0,P|140:231|188:187,1,107.999996704102,0|8,0:0|0:0,0:0:0:0:
412,236,89327,2,0,P|372:231|324:187,1,107.999996704102,0|0,0:0|0:0,0:0:0:0:
256,16,89789,1,0,0:0:0:0:
256,60,89904,1,0,0:0:0:0:
256,104,90020,1,8,0:0:0:0:
256,148,90135,1,0,0:0:0:0:
256,192,90250,1,0,0:0:0:0:
256,236,90366,1,0,0:0:0:0:
256,280,90481,1,0,0:0:0:0:
332,356,90712,6,0,P|372:351|420:307,1,107.999996704102,0|8,0:0|0:0,0:0:0:0:
452,260,91058,1,0,0:0:0:0:
480,216,91173,1,0,0:0:0:0:
484,160,91289,1,0,0:0:0:0:
456,112,91404,1,0,0:0:0:0:
372,44,91635,2,0,L|324:4,2,53.9999983520508,0|0|8,0:0|0:0|0:0,0:0:0:0:
388,184,92096,2,0,L|300:104,1,107.999996704102,0|0,0:0|0:0,0:0:0:0:
260,324,92558,6,0,L|340:236,1,107.999996704102,0|8,0:0|0:0,0:0:0:0:
120,208,93020,2,0,L|199:280,1,107.999996704102,0|0,0:0|0:0,0:0:0:0:
244,68,93481,2,0,L|171:147,1,107.999996704102,0|8,0:0|0:0,0:0:0:0:
256,192,93943,1,0,0:0:0:0:
256,192,94058,1,0,0:0:0:0:
256,192,94173,1,0,0:0:0:0:
168,256,94404,6,0,P|120:228|64:236,2,107.999996704102,0|8|0,0:0|0:0|0:0,0:0:0:0:
256,192,95096,1,0,0:0:0:0:
344,256,95327,2,0,P|392:228|448:236,2,107.999996704102,0|8|0,0:0|0:0|0:0,0:0:0:0:
416,336,96020,1,0,0:0:0:0:
464,128,96250,6,0,P|352:120|260:184,1,215.999993408203
188,248,96943,1,0,0:0:0:0:
100,184,97173,1,0,0:0:0:0:
64,144,97289,1,0,0:0:0:0:
28,104,97404,1,8,0:0:0:0:
72,72,97520,1,0,0:0:0:0:
124,72,97635,1,0,0:0:0:0:
168,104,97750,1,0,0:0:0:0:
132,144,97866,1,0,0:0:0:0:
236,172,98096,6,0,P|280:128|348:124,1,107.999996704102,0|8,0:0|0:0,0:0:0:0:
376,24,98558,2,0,P|420:68|424:136,1,107.999996704102,0|0,0:0|0:0,0:0:0:0:
384,192,99020,1,0,0:0:0:0:
384,192,99135,1,0,0:0:0:0:
384,192,99250,1,8,0:0:0:0:
376,360,99481,2,0,P|420:316|424:248,1,107.999996704102,0|0,0:0|0:0,0:0:0:0:
236,212,99943,6,0,P|280:256|348:260,1,107.999996704102,0|8,0:0|0:0,0:0:0:0:
196,292,100404,2,0,P|152:336|108:344,1,107.999996704102,0|0,0:0|0:0,0:0:0:0:
100,236,100866,1,0,0:0:0:0:
100,236,100981,1,0,0:0:0:0:
100,236,101096,1,8,0:0:0:0:
4,184,101327,2,0,P|48:140|91:131,1,107.999996704102,0|0,0:0|0:0,0:0:0:0:
168,56,101789,6,0,L|236:140,1,107.999996704102,0|8,0:0|0:0,0:0:0:0:
264,172,102135,1,0,0:0:0:0:
292,204,102250,1,0,0:0:0:0:
320,236,102366,1,0,0:0:0:0:
348,268,102481,1,0,0:0:0:0:
456,280,102712,2,0,L|388:196,1,107.999996704102,0|8,0:0|0:0,0:0:0:0:
360,164,103058,1,0,0:0:0:0:
332,132,103173,1,0,0:0:0:0:
304,100,103289,1,0,0:0:0:0:
276,68,103404,1,0,0:0:0:0:
168,68,103635,6,0,P|88:56|56:76,1,107.999996704102,0|8,0:0|0:0,0:0:0:0:
116,164,104096,2,0,P|50:212|42:248,2,107.999996704102,0|0|0,0:0|0:0|0:0,0:0:0:0:
156,280,104789,1,8,0:0:0:0:
204,308,104904,1,0,0:0:0:0:
256,320,105020,1,0,0:0:0:0:
308,308,105135,1,0,0:0:0:0:
356,280,105250,1,0,0:0:0:0:
132,260,115404,6,0,P|180:224|196:168,2,90
208,312,116096,1,0,0:0:0:0:
300,312,116327,1,0,0:0:0:0:
376,260,116558,2,0,P|328:224|312:168,2,90
404,172,117250,6,0,P|336:112|236:156,1,180
256,224,117943,1,0,0:0:0:0:
108,172,118173,2,0,P|176:112|276:156,1,180
256,224,118866,1,0,0:0:0:0:
168,232,119096,6,0,P|112:256|72:244,1,90
24,184,119558,2,0,P|24:136|60:100,1,90
108,172,120020,1,4,0:0:0:0:
136,88,120250,2,0,P|180:112|200:168,1,90,0|2,0:0|0:0,0:0:0:0:
216,188,120596,1,2,0:0:0:0:
236,228,120712,1,2,0:0:0:0:
292,300,120943,6,0,P|348:324|388:312,1,90,2|0,0:0|0:0,0:0:0:0:
432,248,121404,2,0,P|432:200|396:164,1,90
340,228,121866,1,0,0:0:0:0:
316,140,122096,2,0,P|272:164|254:198,1,90,0|2,0:0|0:0,0:0:0:0:
244,244,122443,1,2,0:0:0:0:
232,288,122558,1,2,0:0:0:0:
156,336,122789,6,0,L|72:288,2,90,2|0|0,0:0|0:0|0:0,0:0:0:0:
232,288,123481,1,0,0:0:0:0:
386,291,123712,2,0,L|308:336,1,90
264,324,124058,1,2,0:0:0:0:
232,288,124173,1,2,0:0:0:0:
232,244,124289,1,2,0:0:0:0:
268,216,124404,1,2,0:0:0:0:
392,196,124635,6,0,P|444:120|416:36,1,180,2|0,0:0|0:0,0:0:0:0:
360,108,125327,1,0,0:0:0:0:
296,44,125558,2,0,P|272:92|272:128,1,90,0|2,0:0|0:0,0:0:0:0:
296,168,125904,1,2,0:0:0:0:
324,198,126020,1,2,0:0:0:0:
436,280,126250,1,2,0:0:0:0:
308,324,126481,6,0,P|248:292|196:308,1,90,2|0,0:0|0:0,0:0:0:0:
136,296,126943,2,0,P|80:280|48:240,1,90
56,168,127404,2,0,P|74:168|130:208,1,90
220,208,127866,2,0,P|239:209|299:177,1,90,10|2,0:0|0:0,0:0:0:0:
232,120,128327,5,2,0:0:0:0:
168,288,128558,1,0,0:0:0:0:
320,192,128789,1,8,0:0:0:0:
140,192,129020,1,0,0:0:0:0:
292,288,129250,1,0,0:0:0:0:
352,356,129481,2,0,P|380:316|380:264,1,90,0|10,0:0|0:0,0:0:0:0:
384,276,129827,1,2,0:0:0:0:
384,276,129943,1,2,0:0:0:0:
400,188,130173,6,0,L|452:112,1,90,2|0,0:0|0:0,0:0:0:0:
360,100,130635,2,0,P|312:84|264:108,1,90,8|0,0:0|0:0,0:0:0:0:
240,188,131096,2,0,L|188:112,1,90
156,84,131443,1,2,0:0:0:0:
116,64,131558,1,10,0:0:0:0:
72,68,131673,1,2,0:0:0:0:
36,96,131789,2,0,P|4:136|12:188,2,90,2|2|0,0:0|0:0|0:0,0:0:0:0:
92,168,132481,2,0,L|176:208,1,90,8|0,0:0|0:0,0:0:0:0:
256,192,132943,12,8,134327,0:0:0:0:
256,104,134789,5,4,0:0:0:0:
147,175,135020,2,0,P|125:224|80:252,1,107.999996704102,0|8,0:0|0:0,0:0:0:0:
208,304,135481,2,0,P|256:288|312:308,1,107.999996704102,0|0,0:0|0:0,0:0:0:0:
364,175,135943,2,0,P|386:224|432:252,1,107.999996704102,0|8,0:0|0:0,0:0:0:0:
256,192,136635,5,0,0:0:0:0:
156,152,136866,2,0,P|188:108|248:84,1,107.999996704102,0|8,0:0|0:0,0:0:0:0:
271,298,137327,2,0,P|217:292|166:252,1,107.999996704102,0|0,0:0|0:0,0:0:0:0:
340,125,137789,2,0,P|362:175|353:239,1,107.999996704102,0|8,0:0|0:0,0:0:0:0:
256,72,138481,5,0,0:0:0:0:
108,144,138712,2,0,P|160:176|212:184,1,107.999996704102,0|8,0:0|0:0,0:0:0:0:
420,224,139173,2,0,P|368:256|316:264,1,107.999996704102,0|0,0:0|0:0,0:0:0:0:
108,296,139635,2,0,P|160:328|212:336,1,107.999996704102,0|8,0:0|0:0,0:0:0:0:
256,192,140327,5,0,0:0:0:0:
156,236,140558,2,0,B|156:180|156:180|116:140,1,107.999996704102,0|8,0:0|0:0,0:0:0:0:
344,256,141020,2,0,B|295:284|295:284|280:339,1,107.999996704102,0|0,0:0|0:0,0:0:0:0:
256,84,141481,2,0,B|304:111|304:111|359:97,1,107.999996704102,0|8,0:0|0:0,0:0:0:0:
256,192,142173,5,0,0:0:0:0:
256,84,142404,1,0,0:0:0:0:
192,292,142635,1,8,0:0:0:0:
368,164,142866,1,0,0:0:0:0:
152,164,143096,1,0,0:0:0:0:
324,292,143327,1,0,0:0:0:0:
256,192,143558,1,8,0:0:0:0:
256,192,144020,5,0,0:0:0:0:
196,112,144250,2,0,L|132:24,1,107.999996704102,0|8,0:0|0:0,0:0:0:0:
192,272,144712,2,0,L|119:351,1,107.999996704102,0|0,0:0|0:0,0:0:0:0:
360,192,145173,2,0,L|468:192,1,107.999996704102,0|8,0:0|0:0,0:0:0:0:
256,192,145866,5,0,0:0:0:0:
112,116,146096,2,0,P|168:92|204:40,1,107.999996704102,0|8,0:0|0:0,0:0:0:0:
262,354,146558,2,0,P|213:318|150:313,1,107.999996704102,0|0,0:0|0:0,0:0:0:0:
393,105,147020,2,0,P|386:165|413:222,1,107.999996704102,0|8,0:0|0:0,0:0:0:0:
256,192,147712,5,0,0:0:0:0:
156,152,147943,2,0,P|188:108|248:84,1,107.999996704102,0|8,0:0|0:0,0:2:0:0:
340,125,148404,2,0,P|362:175|353:239,1,107.999996704102,0|0,0:0|0:0,0:0:0:0:
271,298,148866,2,0,P|217:292|166:252,1,107.999996704102,0|8,0:0|0:0,0:0:0:0:
256,192,149558,12,0,156481,0:0:0:0:
172,152,156943,5,0,0:0:0:0:
172,152,157173,2,0,P|136:208|92:228,1,107.999996704102,0|8,0:0|0:0,0:0:0:0:
68,124,157635,2,0,P|104:68|148:48,2,107.999996704102,0|0|0,0:0|0:0|0:0,0:0:0:0:
52,176,158212,1,0,0:0:0:0:
36,228,158327,1,8,0:0:0:0:
136,272,158558,2,0,L|248:328,1,107.999996704102,0|0,0:0|0:0,0:0:0:0:
296,232,159020,6,0,P|360:232|404:192,2,107.999996704102,0|8|0,0:0|0:0|0:0,0:0:0:0:
316,124,159712,1,0,0:0:0:0:
220,72,159943,1,0,0:0:0:0:
220,72,160058,1,0,0:0:0:0:
220,72,160173,1,8,0:0:0:0:
124,124,160404,2,0,P|164:168|224:180,1,107.999996704102,0|0,0:0|0:0,0:0:0:0:
368,212,160866,6,0,P|328:256|268:268,1,107.999996704102,0|8,0:0|0:0,0:0:0:0:
124,296,161327,2,0,P|164:340|224:352,1,107.999996704102,0|0,0:0|0:0,0:0:0:0:
372,336,161789,1,0,0:0:0:0:
416,304,161904,1,0,0:0:0:0:
460,268,162020,1,8,0:0:0:0:
444,160,162250,2,0,P|384:152|348:100,1,107.999996704102,0|0,0:0|0:0,0:0:0:0:
256,68,162712,5,0,0:0:0:0:
80,192,162943,1,8,0:0:0:0:
256,320,163173,1,0,0:0:0:0:
428,192,163404,1,0,0:0:0:0:
340,128,163635,1,0,0:0:0:0:
296,160,163750,1,0,0:0:0:0:
256,192,163866,1,8,0:0:0:0:
168,256,164096,1,0,0:0:0:0:
212,224,164212,1,0,0:0:0:0:
256,192,164327,1,0,0:0:0:0:
220,92,164558,6,0,P|160:96|108:48,1,107.999996704102,0|8,0:0|0:0,0:0:0:0:
40,140,165020,2,0,P|76:184|64:240,1,107.999996704102,0|0,0:0|0:0,0:0:0:0:
152,300,165481,1,0,0:0:0:0:
200,324,165596,1,0,0:0:0:0:
248,348,165712,1,8,0:0:0:0:
356,340,165943,2,0,P|336:284|292:252,1,107.999996704102,0|0,0:0|0:0,0:0:0:0:
400,216,166404,6,0,P|444:172|448:104,1,107.999996704102,0|8,0:0|0:0,0:0:0:0:
324,28,166866,2,0,P|280:71|276:140,1,107.999996704102,0|0,0:0|0:0,0:0:0:0:
368,124,167327,1,0,0:0:0:0:
368,124,167443,1,0,0:0:0:0:
368,124,167558,1,8,0:0:0:0:
296,204,167789,2,0,P|236:200|192:160,1,107.999996704102,0|0,0:0|0:0,0:0:0:0:
204,64,168250,6,0,P|156:92|84:60,1,107.999996704102,0|8,0:0|0:0,0:0:0:0:
76,184,168712,2,0,P|120:220|128:272,1,107.999996704102,0|0,0:0|0:0,0:0:0:0:
16,272,169173,1,0,0:0:0:0:
16,272,169289,1,0,0:0:0:0:
16,272,169404,1,8,0:0:0:0:
104,336,169635,1,0,0:0:0:0:
208,308,169866,1,0,0:0:0:0:
312,280,170096,6,0,P|280:224|236:204,1,107.999996704102,0|8,0:0|0:0,0:0:0:0:
372,32,170558,2,0,P|404:88|448:107,1,107.999996704102,0|0,0:0|0:0,0:3:0:0:
468,268,171020,1,0,0:0:0:0:
436,240,171135,1,0,0:0:0:0:
404,212,171250,1,0,0:0:0:0:
372,184,171366,1,0,0:0:0:0:
340,156,171481,1,0,0:0:0:0:
308,128,171596,1,0,0:0:0:0:
276,99,171712,1,12,0:0:0:0:
92,244,179096,5,0,0:0:0:0:
132,168,179327,1,0,0:0:0:0:
176,244,179558,1,8,0:0:0:0:
224,316,179789,2,0,P|260:268|256:212,1,107.999996704102,0|0,0:0|0:0,0:0:0:0:
316,156,180250,2,0,L|356:116,2,53.9999983520508,0|0|8,0:0|0:0|0:0,0:0:0:0:
252,96,180712,2,0,P|228:152|240:200,1,107.999996704102,0|0,0:0|0:0,0:0:0:0:
200,44,181173,6,0,P|152:140|176:244,1,215.999993408203
174,241,181866,1,0,0:0:0:0:
240,300,182096,1,0,0:0:0:0:
280,320,182212,1,0,0:0:0:0:
324,324,182327,1,8,0:0:0:0:
384,232,182558,2,0,P|424:268|432:320,2,107.999996704102,0|0|0,0:0|0:0|0:0,0:0:0:0:
424,76,183250,5,8,0:0:0:0:
268,120,183481,2,0,P|232:140|168:120,1,107.999996704102,0|0,0:0|0:0,0:0:0:0:
80,60,183943,1,0,0:0:0:0:
56,108,184058,1,0,0:0:0:0:
28,156,184173,1,8,0:0:0:0:
60,260,184404,2,0,P|104:228|128:176,1,107.999996704102,0|0,0:0|0:0,0:0:0:0:
192,292,184866,6,0,L|288:352,1,107.999996704102,0|8,0:0|0:0,0:0:0:0:
304,88,185327,2,0,L|212:30,1,107.999996704102,0|0,0:0|0:0,0:0:0:0:
294,240,185789,1,0,0:0:0:0:
242,252,185904,1,0,0:0:0:0:
199,219,186020,1,8,0:0:0:0:
199,165,186135,1,0,0:0:0:0:
242,131,186250,1,0,0:0:0:0:
294,143,186366,1,0,0:0:0:0:
318,192,186481,1,4,0:0:0:0:
416,116,186712,6,0,P|368:88|348:36,1,107.999996704102,0|8,0:0|0:0,0:0:0:0:
340,344,187173,2,0,P|368:296|420:276,1,107.999996704102,0|0,0:0|0:0,0:0:0:0:
112,268,187635,2,0,P|160:296|180:348,1,107.999996704102,0|8,0:0|0:0,0:0:0:0:
180,40,188096,2,0,P|152:88|100:108,2,107.999996704102,0|0|0,0:0|0:0|0:0,0:0:0:0:
96,32,188789,5,8,0:0:0:0:
204,192,189020,1,0,0:0:0:0:
96,352,189250,1,0,0:0:0:0:
256,244,189481,1,0,0:0:0:0:
416,352,189712,1,8,0:0:0:0:
308,192,189943,1,0,0:0:0:0:
428,40,190173,1,0,0:0:0:0:
340,80,190404,6,0,P|384:124|448:136,1,107.999996704102,0|8,0:0|0:0,0:0:0:0:
408,244,190866,2,0,L|336:336,1,107.999996704102,0|0,0:0|0:0,0:0:0:0:
256,260,191327,1,0,0:0:0:0:
256,260,191443,1,0,0:0:0:0:
256,260,191558,1,8,0:0:0:0:
104,244,191789,2,0,L|176:336,1,107.999996704102,0|0,0:0|0:0,0:0:0:0:
172,80,192250,6,0,P|128:124|64:136,2,107.999996704102,0|8|0,0:0|0:0|0:0,0:0:0:0:
224,176,192943,2,8,P|284:88|396:92,1,215.999993408203,0|8,0:0|0:0,0:0:0:0:
336,192,193635,1,0,0:0:0:0:
336,192,193750,1,0,0:0:0:0:
336,192,193866,1,0,0:0:0:0:
444,208,194096,6,0,L|408:324,1,107.999996704102,0|8,0:0|0:0,0:0:0:0:
304,300,194558,2,0,P|256:280|204:300,1,107.999996704102,0|0,0:0|0:0,0:0:0:0:
68,208,195020,2,0,L|104:324,1,107.999996704102,0|8,0:0|0:0,0:0:0:0:
256,192,195481,1,0,0:0:0:0:
256,192,195712,1,0,0:0:0:0:
152,156,195943,6,8,P|104:112|48:112,1,107.999996704102,0|8,0:0|0:0,0:0:0:0:
167,28,196404,2,0,P|204:65|257:72,1,107.999996704102,0|0,0:0|0:0,0:0:0:0:
348,28,196866,2,0,P|310:65|257:72,1,107.999996704102,0|8,0:0|0:0,0:0:0:0:
360,156,197327,2,8,P|408:112|464:112,1,107.999996704102,0|0,0:0|0:0,0:0:0:0:
448,216,197789,5,0,0:0:0:0:
348,252,198020,1,8,0:0:0:0:
448,296,198250,1,0,0:0:0:0:
348,332,198481,2,8,P|256:352|136:332,2,215.999993408203,0|8|0,0:0|0:0|0:0,0:0:0:0:
288,240,199635,6,0,P|240:252|176:236,1,107.999996704102,0|8,0:0|0:0,0:0:0:0:
236,144,200096,1,0,0:0:0:0:
184,48,200327,2,0,P|232:36|296:52,1,107.999996704102,0|0,0:0|0:0,0:0:0:0:
376,112,200789,1,8,0:0:0:0:
408,156,200904,1,0,0:0:0:0:
412,212,201020,1,0,0:0:0:0:
408,264,201135,1,0,0:0:0:0:
376,308,201250,1,4,0:0:0:0:
268,324,201481,6,0,L|152:280,1,107.999996704102,0|8,0:0|0:0,0:0:0:0:
60,304,201943,2,0,P|64:248|104:196,1,107.999996704102,0|0,0:0|0:0,0:0:0:0:
452,80,202404,2,0,P|448:136|408:188,1,107.999996704102,0|8,0:0|0:0,0:0:0:0:
344,98,202866,2,0,L|244:60,1,107.999996704102,0|0,0:0|0:0,0:0:0:0:
112,88,203327,5,0,0:0:0:0:
208,140,203558,1,8,0:0:0:0:
112,188,203789,1,0,0:0:0:0:
208,240,204020,2,0,P|256:264|304:240,1,107.999996704102,0|0,0:0|0:0,0:0:0:0:
400,188,204481,1,8,0:0:0:0:
304,140,204712,1,0,0:0:0:0:
400,92,204943,1,0,0:0:0:0:
304,50,205173,6,0,P|256:29|208:50,1,107.999996704102,0|8,0:0|0:0,0:0:0:0:
96,72,205635,2,0,P|63:114|2:125,1,107.999996704102,0|0,0:0|0:0,0:0:0:0:
76,212,206096,2,0,L|160:283,1,107.999996704102,0|8,0:0|0:0,0:0:0:0:
204,312,206443,1,0,0:0:0:0:
256,324,206558,1,0,0:0:0:0:
308,312,206673,1,0,0:0:0:0:
353,282,206789,2,0,L|435:212,1,107.999996704102,0|0,0:0|0:0,0:0:0:0:
500,126,207250,6,0,P|449:114|416:72,1,107.999996704102,8|0,0:0|0:0,0:0:0:0:
350,158,207712,2,0,P|285:116|239:111,2,107.999996704102,0|0|8,0:0|0:0|0:0,0:0:0:0:
382,201,208289,1,0,0:0:0:0:
390,254,208404,1,0,0:0:0:0:
371,305,208520,1,0,0:0:0:0:
330,340,208635,1,0,0:0:0:0:
278,244,208866,6,0,P|236:278|221:344,1,107.999996704102,0|8,0:0|0:0,0:0:0:0:
127,271,209327,2,0,P|118:217|68:171,1,107.999996704102,0|0,0:0|0:0,0:0:0:0:
181,133,209789,2,0,P|231:152|296:132,1,107.999996704102,0|8,0:0|0:0,0:0:0:0:
332,119,210135,1,0,0:0:0:0:
380,92,210250,1,0,0:0:0:0:
436,88,210366,1,0,0:0:0:0:
484,116,210481,1,0,0:0:0:0:
408,196,210712,6,0,P|380:252|332:276,1,107.999996704102,0|8,0:0|0:0,0:0:0:0:
304,172,211173,2,0,P|252:152|204:168,1,107.999996704102,0|0,0:0|0:0,0:0:0:0:
100,192,211635,2,0,P|128:248|176:272,1,107.999996704102,0|8,0:0|0:0,0:0:0:0:
216,296,211981,1,0,0:0:0:0:
268,312,212096,1,0,0:0:0:0:
324,308,212212,1,0,0:0:0:0:
372,284,212327,1,0,0:0:0:0:
468,232,212558,6,0,P|420:188|368:176,1,107.999996704102,0|8,0:0|0:0,0:0:0:0:
256,72,213020,1,0,0:0:0:0:
192,276,213250,1,0,0:0:0:0:
364,144,213481,1,0,0:0:0:0:
148,144,213712,1,8,0:0:0:0:
320,276,213943,1,0,0:0:0:0:
256,192,214173,12,4,216020,0:0:0:0:
184,304,216250,6,0,L|104:224,1,107.999996704102,0|8,0:0|0:0,0:0:0:0:
52,136,216712,1,0,0:0:0:0:
156,116,216943,1,0,0:0:0:0:
216,204,217173,2,0,P|252:156|256:104,1,107.999996704102,0|8,0:0|0:0,0:0:0:0:
328,304,217866,6,0,L|408:224,1,107.999996704102,0|0,0:0|0:0,0:0:0:0:
460,136,218328,1,8,0:0:0:0:
356,116,218559,1,0,0:0:0:0:
296,204,218789,2,0,P|260:156|256:104,2,107.999996704102,0|0|8,0:0|0:0|0:0,0:0:0:0:
472,332,219712,5,0,0:0:0:0:
416,56,220173,1,8,0:0:0:0:
136,56,220635,1,0,0:0:0:0:
80,332,221096,1,8,0:0:0:0:
184,308,221327,2,0,P|152:260|100:240,1,107.999996704102,0|0,0:0|0:0,0:0:0:0:
124,132,221789,5,0,0:0:0:0:
156,88,221904,1,0,0:0:0:0:
208,72,222020,1,8,0:0:0:0:
256,168,222250,1,0,0:0:0:0:
256,168,222481,1,0,0:0:0:0:
304,72,222712,1,0,0:0:0:0:
356,88,222828,1,0,0:0:0:0:
388,132,222943,1,8,0:0:0:0:
400,184,223058,1,0,0:0:0:0:
384,236,223173,1,0,0:0:0:0:
348,276,223289,1,0,0:0:0:0:
300,296,223404,1,0,0:0:0:0:
296,192,223635,6,0,P|236:204|200:260,1,107.999996704102,0|8,0:0|0:0,0:0:0:0:
184,344,224096,2,0,L|76:296,1,107.999996704102,0|0,0:0|0:0,0:0:0:0:
184,40,224558,2,0,L|76:88,1,107.999996704102,0|8,0:0|0:0,0:0:0:0:
296,192,225020,2,0,P|236:180|200:124,1,107.999996704102,0|0,0:0|0:0,0:0:0:0:
296,88,225481,6,0,P|368:116|392:156,1,107.999996704102,0|8,0:0|0:0,0:0:0:0:
384,245,225943,2,0,P|368:268|296:296,1,107.999996704102,0|0,0:0|0:0,0:0:0:0:
196,340,226404,2,0,L|100:272,1,107.999996704102,0|8,0:0|0:0,0:0:0:0:
72,236,226750,1,0,0:0:0:0:
44,192,226866,1,0,0:0:0:0:
72,148,226981,1,0,0:0:0:0:
107,106,227096,2,0,L|196:44,1,107.999996704102,0|0,0:0|0:0,0:0:0:0:
304,56,227558,6,0,P|288:108|228:144,1,107.999996704102,8|0,0:0|0:0,0:0:0:0:
372,316,228020,2,0,P|334:276|333:206,1,107.999996704102,0|0,0:0|0:0,0:0:0:0:
112,252,228481,2,0,P|165:239|226:273,1,107.999996704102,8|0,0:0|0:0,0:0:0:0:
256,192,228943,12,0,230789,0:0:0:0:
