osu file format v9

[General]
AudioFilename: 105753_Heaven_remix.mp3
AudioLeadIn: 0
PreviewTime: 57541
Countdown: 0
SampleSet: Normal
StackLeniency: 0.7
Mode: 0
LetterboxInBreaks: 0

[Editor]
Bookmarks: 14441,27241,30441,43241,56041,57641,83241,94441,108841,134441,137641,163241
DistanceSpacing: 1.1
BeatDivisor: 4
GridSize: 8

[Metadata]
Title:Heaven
Artist:Envy
Creator:Charles445
Version:Snickerz Hard
Source:Newgrounds
Tags:remix dance cautious snickerz mmzz

[Difficulty]
HPDrainRate:6
CircleSize:4
OverallDifficulty:6
ApproachRate:7
SliderMultiplier:1.5
SliderTickRate:1

[Events]
//Background and Video events
0,0,"bigplanetyeahhh.jpg"
//Break Periods
2,83438,93538
//Storyboard Layer 0 (Background)
//Storyboard Layer 1 (Fail)
//Storyboard Layer 2 (Pass)
//Storyboard Layer 3 (Foreground)
//Storyboard Sound Samples
//Background Colour Transformations
3,100,163,162,255

[TimingPoints]
1638.45166792888,400,4,1,1,30,1,0
14038,-133.333333333333,4,1,1,40,0,0
14538,-133.333333333333,4,2,1,50,0,0
20738,-117.647058823529,4,1,1,30,0,0
20938,-117.647058823529,4,2,1,75,0,0
23938,-117.647058823529,4,2,1,85,0,0
25538,-117.647058823529,4,2,1,95,0,0
27138,-117.647058823529,4,2,1,20,0,0
28838,-117.647058823529,4,2,1,40,0,0
29538,-117.647058823529,4,2,1,90,0,0
30038,-100,4,1,1,75,0,0
30438,-100,4,1,1,75,0,1
30538,-100,4,2,1,80,0,0
43138,-86.9565217391304,4,2,1,90,0,0
57138,-86.9565217391304,4,1,1,90,0,0
57438,-86.9565217391304,4,2,1,90,0,0
57638,-86.9565217391304,4,2,1,90,0,1
57738,-86.9565217391304,4,2,1,90,0,0
83138,-86.9565217391304,4,1,1,75,0,0
94238,-117.647058823529,4,2,1,90,0,0
95338,-117.647058823529,4,2,0,50,0,0
95538,-117.647058823529,4,2,1,90,0,0
95938,-133.333333333333,4,1,1,75,0,0
96138,-133.333333333333,4,2,1,95,0,0
96738,-133.333333333333,4,2,1,85,0,0
97138,-133.333333333333,4,2,1,75,0,0
97538,-133.333333333333,4,2,1,65,0,0
107938,-133.333333333333,4,1,1,50,0,0
108138,-133.333333333333,4,2,1,65,0,0
108788,-117.647058823529,4,2,1,75,0,0
121638,-100,4,2,1,85,0,0
127938,-100,4,2,1,90,0,0
131138,-100,4,2,1,95,0,0
132738,-100,4,2,1,100,0,0
133738,-100,4,2,0,50,0,0
133938,-100,4,2,1,100,0,0
134338,-100,4,2,1,20,0,0
135438,-100,4,2,1,15,0,0
136338,-100,4,2,1,40,0,0
137138,-100,4,1,1,90,0,0
137338,-100,4,2,1,40,0,0
137638,-86.9565217391304,4,2,1,100,0,1
163188,-86.9565217391304,4,1,1,80,0,1
163238,-86.9565217391304,4,1,1,80,0,0

[Colours]
Combo1 : 253,203,2
Combo2 : 5,240,5
Combo3 : 0,126,253
Combo4 : 249,124,0

[HitObjects]
208,88,14438,2,0,B|240:88|256:64|256:64|272:88|304:88,1,112.499996647239,4|0
344,128,15038,1,0
392,160,15238,1,2
304,296,16038,6,0,B|272:296|256:320|256:320|240:296|208:296,1,112.499996647239,2|0
168,256,16638,1,0
120,224,16838,1,2
320,120,17638,5,2
352,168,17838,1,0
304,200,18038,1,0
336,248,18238,1,0
288,272,18438,1,2
144,96,19238,6,0,B|112:104|96:128|88:160|112:192,1,112.499996647239,2|0
216,160,20038,2,0,B|264:192,1,56.2499983236194,2|2
232,240,20438,2,0,B|280:272,1,56.2499983236194,2|2
337,311,20838,5,4
407,313,21038,1,0
465,274,21238,1,0
465,203,21438,1,0
432,140,21638,1,2
240,96,22238,6,0,B|304:144,1,63.7499973401428,0|2
291,134,22638,1,0
306,202,22838,2,0,B|362:242,2,63.7499973401428,0|0|2
264,304,24038,5,2
203,339,24238,2,0,B|163:347|131:315,1,63.7499973401428
184,268,24638,2,0,B|184:204,1,63.7499973401428,0|2
120,96,25238,2,0,B|80:152,1,63.7499973401428,2|2
113,211,25638,5,2
48,237,25838,1,0
64,304,26038,2,0,B|88:328|128:320,1,63.7499973401428,2|0
193,320,26438,1,2
262,313,26638,1,0
331,301,26838,1,2
393,269,27038,1,0
256,192,27238,12,0,28838
256,64,29638,5,4
192,200,30038,2,0,B|216:232|256:232|296:232|328:200,1,150,0|4
326,201,30638,5,0
392,240,30838,2,0,B|472:288|400:312|496:352,2,150,8|8|8
432,176,31838,2,0,B|464:160|464:112,1,75,2|8
392,112,32238,6,0,B|408:32,1,75,0|10
336,48,32638,1,0
288,104,32838,1,10
232,56,33038,1,0
160,88,33238,1,8
152,160,33438,1,0
224,152,33638,6,0,B|272:176|240:240|312:272,1,150,8|8
160,312,34438,2,0,B|128:328|72:304,1,75,8|0
128,248,34838,2,0,B|88:232|48:248,2,75,8|2|8
200,248,35438,6,0,B|240:232|272:248,1,75,0|10
240,320,35838,2,0,B|221:356,2,37.5,0|0|8
312,328,36238,1,2
384,336,36438,1,8
440,288,36638,1,0
432,216,36838,5,8
328,104,37238,2,0,B|288:88|256:120|240:168|168:112,1,150,8|8
144,184,37838,2,0,B|120:232,2,37.5,0|0|8
80,144,38238,1,2
80,144,38438,5,8
64,72,38638,1,0
64,72,38838,1,10
136,64,39038,2,0,B|176:64|200:24,1,75,2|8
256,72,39438,2,0,B|296:64|320:104,1,75,0|8
256,144,39838,1,0
304,208,40038,6,0,B|376:208|352:288|424:296,2,150,8|8|8
296,280,41038,2,0,B|312:320|352:344,2,75,0|8|2
240,328,41638,6,0,B|208:296|232:248,1,75,8|0
168,216,42038,1,10
96,224,42238,2,0,B|80:264,2,37.5,0|0|8
56,160,42638,1,0
80,88,42838,1,8
152,88,43038,1,0
272,128,43238,6,0,B|320:120|336:72,1,86.2500028274954,8|0
400,128,43638,2,0,B|440:152|424:208,1,86.2500028274954,12|0
336,192,44038,2,0,B|312:280,1,86.2500028274954,8|0
256,336,44438,2,0,B|288:376|344:360,1,86.2500028274954,12|2
256,336,44838,5,8
168,320,45038,1,0
128,240,45238,1,14
48,280,45438,1,0
32,192,45638,2,0,B|48:144|96:136|144:128|176:168,1,172.500005654991,8|12
174,166,46238,1,0
174,166,46438,6,0,B|256:168|240:64|328:96,1,172.500005654991,8|12
408,240,47238,2,0,B|400:288|344:296,1,86.2500028274954,10|0
320,216,47638,2,0,B|248:272,1,86.2500028274954,12|2
251,268,48038,5,8
168,288,48238,2,0,B|120:288|104:240,1,86.2500028274954,0|14
176,200,48638,2,0,B|192:160,2,43.1250014137477,0|0|8
96,168,49038,1,0
72,88,49238,1,12
144,40,49438,1,0
224,72,49638,5,8
376,152,50038,2,0,B|416:176|416:232|384:264|320:248,1,172.500005654991,12|8
288,168,50638,2,0,B|225:142,2,43.1250014137477,0|0|12
240,240,51038,2,0,B|216:280|232:328,1,86.2500028274954,2|8
144,328,51438,6,0,B|56:312,1,86.2500028274954,0|12
59,312,51838,1,0
40,232,52038,1,10
88,160,52238,2,0,B|48:104,2,43.1250014137477,0|0|12
152,216,52638,1,0
232,184,52838,6,0,B|240:96|320:128|320:40,2,172.500005654991,8|12|10
320,176,53838,2,0,B|368:152|384:104,1,86.2500028274954,0|12
432,184,54238,2,0,B|408:224|368:240,1,86.2500028274954,2|8
424,304,54638,6,0,B|472:280|496:232,2,86.2500028274954,0|14|0
400,312,55138,1,0
376,320,55238,1,2
296,296,55438,2,0,B|256:280|208:296,1,86.2500028274954,2|2
256,128,56038,1,8
24,192,57038,5,8
64,272,57238,1,4
136,320,57438,1,0
224,336,57638,5,8
200,256,57838,2,0,B|160:232|152:184,1,86.2500028274954,0|12
152,187,58238,1,0
224,144,58438,2,0,B|272:72|328:168|384:56,1,172.500005654991,8|12
371,77,59038,2,0,B|416:48|456:64,1,86.2500028274954,0|8
432,144,59438,5,0
368,208,59638,1,12
416,280,59838,1,0
344,320,60038,1,8
344,320,60238,1,0
264,296,60438,1,12
128,192,60838,5,8
88,112,61038,2,0,B|48:128|40:184,1,86.2500028274954,0|14
200,120,61638,2,0,B|248:112|264:64,1,86.2500028274954,8|2
344,48,62038,1,12
424,88,62238,2,0,B|440:192,1,86.2500028274954,0|8
384,240,62638,6,0,B|424:256|480:256,2,86.2500028274954,0|12|0
320,296,63238,1,8
280,224,63438,2,0,B|240:248|200:216,1,86.2500028274954,0|12
88,80,64038,5,8
40,152,64238,1,0
88,224,64438,1,12
136,152,64638,1,0
136,152,64838,2,0,B|176:136|224:156,1,86.2500028274954,8|0
220,154,65238,1,12
264,80,65438,1,0
304,152,65638,5,8
264,224,65838,1,0
264,224,66038,1,12
96,280,66438,2,0,B|112:320|176:320,2,86.2500028274954,8|0|12
104,104,67238,6,0,B|64:128|8:120,2,86.2500028274954,8|0|14
144,32,67838,1,0
144,32,68038,1,8
200,96,68238,2,0,B|208:152|168:176,1,86.2500028274954,2|12
172,172,68638,2,0,B|168:272,1,86.2500028274954,0|8
88,296,69038,6,0,B|112:336|160:344,1,86.2500028274954,0|12
312,264,69638,1,8
244,328,69838,1,0
156,344,70038,1,12
136,168,70438,6,0,B|184:168|200:216,2,86.2500028274954,8|0|12
56,136,71038,2,0,B|8:120|0:72,2,86.2500028274954,0|8|0
128,88,71638,2,0,B|152:40|208:48,1,86.2500028274954,12|0
208,136,72038,6,0,B|256:120|288:72,1,86.2500028274954,8|0
352,40,72438,1,12
352,216,72838,1,8
376,296,73038,1,0
304,336,73238,1,12
136,288,73638,6,0,B|104:320|56:320,2,86.2500028274954,8|0|14
64,232,74238,2,0,B|104:208,2,43.1250014137477,2|0|8
168,160,74638,2,0,B|241:115,1,86.2500028274954,2|12
288,176,75038,2,0,B|328:144|312:96,1,86.2500028274954,0|8
313,99,75438,6,0,B|344:56|392:72,1,86.2500028274954,0|12
416,240,76038,2,0,B|464:232|480:184,2,86.2500028274954,8|0|12
248,264,76838,6,0,B|168:296|168:232|80:272,2,172.500005654991,8|12|8
200,192,77838,2,0,B|160:176|112:184,1,86.2500028274954,0|12
115,183,78238,1,0
80,104,78438,6,0,B|32:128|32:176,2,86.2500028274954,8|0|12
240,48,79238,1,8
240,48,79438,1,0
240,48,79638,1,12
336,192,80038,5,8
384,264,80238,1,0
312,312,80438,1,14
264,240,80638,2,0,B|224:264|176:240,1,86.2500028274954,0|8
224,168,81038,1,0
136,168,81238,2,0,B|88:168|64:128,2,86.2500028274954,14|0|8
136,80,81838,6,0,B|64:24,1,86.2500028274954,0|12
240,32,82438,1,8
320,64,82638,1,0
296,144,82838,2,0,B|352:184|280:256|352:304,1,172.500005654991,12|4
256,240,94438,6,0,B|288:288|232:288|256:344,2,95.6249960102143,0|2|0
221,179,95238,1,2
237,110,95438,1,4
189,58,95638,1,2
96,128,96038,5,4
96,128,96238,1,0
64,176,96438,1,0
64,176,96638,1,0
80,232,96838,1,0
80,232,97038,1,0
120,272,97238,2,0,B|152:288|160:328,1,56.2499983236194
155,313,97638,6,0,B|200:344|224:312|272:336,1,112.499996647239
320,320,98238,1,0
376,304,98438,2,0,B|416:296|448:256,2,84.3749974854291
368,248,99238,6,0,B|344:224|344:184,1,56.2499983236194
345,138,99638,2,0,B|337:106|313:82,1,56.2499983236194
272,56,100038,1,0
216,72,100238,1,0
184,120,100438,1,0
256,208,100838,6,0,B|272:224|320:216|344:184|336:160,1,112.499996647239
336,162,101438,2,0,B|392:144,1,56.2499983236194
448,144,101838,1,0
480,192,102038,1,0
408,280,102438,6,0,B|384:344,1,56.2499983236194
336,328,102838,2,0,B|264:352,1,56.2499983236194
224,352,103238,1,0
192,304,103438,1,0
144,280,103638,2,0,B|112:272|80:288,2,56.2499983236194
136,168,104438,5,0
192,160,104638,1,0
236,124,104838,1,0
320,240,105438,5,0
328,184,105638,1,0
384,192,105838,1,0
408,304,106238,1,0
464,304,106438,1,0
472,248,106638,1,0
480,192,106838,1,0
360,56,107238,6,0,B|336:40|304:40|280:56,2,84.3749974854291
320,96,108038,2,0,B|320:160,1,56.2499983236194,4|0
264,168,108438,1,0
232,222,108638,1,0
224,288,108838,5,0
158,312,109038,2,0,B|131:328|91:320,1,63.7499973401428,2|0
56,264,109438,1,0
72,195,109638,1,2
49,128,109838,1,0
103,83,110038,1,0
104,83,110238,1,0
168,120,110438,6,0,B|184:88|224:80|264:88|280:128,1,127.499994680286
223,162,111038,2,0,B|233:191|273:199|313:191|329:159,1,127.499994680286
384,116,111638,1,0
424,173,111838,1,0
439,241,112038,5,0
408,304,112238,2,0,B|424:336|464:336,2,63.7499973401428,2|0|0
339,321,112838,2,0,B|267:361,1,63.7499973401428,2|0
282,352,113238,1,0
256,224,113638,5,0
184,120,114038,1,0
122,87,114238,2,0,B|90:95|82:135,1,63.7499973401428,0|2
113,195,114638,1,0
84,259,114838,1,0
192,336,115238,6,0,B|216:312|256:312|288:312|312:336,1,127.499994680286
309,333,115838,2,0,B|352:328|368:296,1,63.7499973401428,0|2
401,244,116238,2,0,B|433:204|473:196,1,63.7499973401428
487,144,116638,1,0
430,102,116838,5,0
312,64,117238,1,0
280,126,117438,1,0
215,153,117638,1,2
368,256,118238,5,0
344,320,118438,1,0
274,309,118638,1,2
176,240,119038,1,0
105,238,119238,1,2
103,308,119438,1,0
103,308,119638,1,0
104,141,120038,6,0,B|66:137|70:188|28:194,2,95.6249960102143,0|2|0
170,117,120838,1,2
240,128,121038,2,0,B|240:168,2,31.8749986700714
296,88,121438,1,0
296,88,121638,5,0
368,224,122038,2,0,B|400:240|400:296,1,75
328,280,122438,2,0,B|320:360,2,75,2|0|0
256,304,123038,1,0
192,264,123238,5,0
160,120,123638,2,0,B|128:136|80:120,1,75
122,55,124038,2,0,B|98:31|42:31|18:55,2,112.5,2|2|0
160,121,124838,5,0
220,177,125038,2,0,B|236:217|284:193|284:193|332:217|356:177,1,150,2|0
350,184,125638,1,2
404,129,125838,1,0
451,70,126038,1,0
432,217,126438,6,0,B|360:241|416:305|312:329,1,150
312,249,127038,2,0,B|328:209|360:169,2,75,0|2|0
248,281,127638,1,0
184,128,128038,5,0
112,144,128238,1,2
96,216,128438,1,0
96,288,128638,2,0,B|72:312|24:312,2,75,0|2|0
168,264,129238,1,0
224,216,129438,1,2
280,264,129638,5,0
384,152,130038,2,0,B|408:120|448:120,2,75,2|0|2
168,88,131038,6,0,B|128:88|104:56,2,75,2|2|0
344,296,131838,2,0,B|384:296|408:328,2,75,0|2|0
288,248,132438,1,0
192,136,132838,6,0,B|144:128|160:72|104:64,2,112.5,2|2|0
240,80,133638,1,2
344,192,134038,1,2
256,192,134438,12,0,135638
368,96,136438,6,0,B|416:96|432:56,2,75,2|2|2
320,152,137038,1,2
344,224,137238,2,0,B|360:264|328:296,1,75,0|2
200,256,137638,6,0,B|128:304,1,86.2500028274954,8|0
53,262,138038,1,4
48,176,138238,2,0,B|96:176|120:136,1,86.2500028274954,0|8
119,136,138638,2,0,B|160:104|200:136|200:136|240:104|280:128,1,172.500005654991,0|2
240,204,139238,6,0,B|200:228|152:204,1,86.2500028274954,8|0
160,296,139638,2,0,B|208:312|248:296,1,86.2500028274954,14|0
328,296,140038,2,0,B|376:280|416:296,1,86.2500028274954,8|0
464,224,140438,1,14
440,144,140638,1,0
360,176,140838,6,0,B|272:152|336:72|248:56,1,172.500005654991,8|14
232,136,141438,2,0,B|240:184|280:216,2,86.2500028274954,0|8|2
144,152,142038,2,0,B|120:192|64:184,2,86.2500028274954,12|0|8
200,216,142638,6,0,B|232:248|216:296,1,86.2500028274954,0|12
384,248,143238,1,8
456,296,143438,1,0
384,344,143638,1,12
312,296,143838,6,0,B|272:280|224:296,1,86.2500028274954,0|8
224,208,144238,2,0,B|264:224|312:208,1,86.2500028274954,0|12
264,136,144638,2,0,B|224:120|176:136,1,86.2500028274954,0|8
104,168,145038,1,0
64,248,145238,1,12
104,320,145438,1,2
104,320,145638,6,0,B|152:304|192:320,1,86.2500028274954,8|0
272,320,146038,2,0,B|312:336|360:320,1,86.2500028274954,14|0
312,248,146438,1,8
392,224,146638,1,0
312,168,146838,1,12
392,136,147038,1,0
320,80,147238,6,0,B|288:40|256:96|256:96|224:40|184:80,1,172.500005654991,8|14
56,192,148038,2,0,B|152:192,1,86.2500028274954,8|2
112,272,148438,2,0,B|152:304|192:272,1,86.2500028274954,12|0
240,200,148838,5,8
296,264,149038,1,0
256,336,149238,1,12
424,320,149638,2,0,B|448:360|496:368,2,86.2500028274954,8|0|12
496,272,150238,2,0,B|416:208,1,86.2500028274954,0|8
344,224,150638,6,0,B|304:240|256:216,1,86.2500028274954,0|12
312,144,151038,2,0,B|400:144,2,86.2500028274954,0|8|0
248,88,151638,1,12
168,128,151838,1,2
96,88,152038,5,8
168,248,152438,1,14
88,280,152638,2,0,B|104:320|160:336,1,86.2500028274954,0|8
152,333,153038,1,0
232,296,153238,2,0,B|272:280|320:296,1,86.2500028274954,12|0
392,256,153638,6,0,B|376:176|464:192|432:88,1,172.500005654991,8|14
352,120,154238,2,0,B|312:152|304:200,1,86.2500028274954,0|8
256,120,154638,1,2
256,120,154838,2,0,B|216:144|168:120,1,86.2500028274954,12|0
216,48,155238,5,8
128,32,155438,1,0
96,112,155638,1,12
208,240,156038,2,0,B|256:224|296:240,2,86.2500028274954,8|0|12
256,312,156638,6,0,B|304:328|352:304,1,86.2500028274954,0|8
408,248,157038,1,0
360,176,157238,1,12
416,112,157438,1,0
352,48,157638,2,0,B|312:16|216:48|224:112,1,172.500005654991,8|12
223,110,158238,6,0,B|224:160|168:168,1,86.2500028274954,2|8
224,232,158638,2,0,B|176:256|136:232,2,86.2500028274954,0|14|0
256,312,159238,1,8
288,232,159438,2,0,B|336:256|376:232,2,86.2500028274954,0|12|0
336,160,160038,6,0,B|328:88|432:120|432:32,2,172.500005654991,8|14|8
272,104,161038,2,0,B|256:152|272:192,2,86.2500028274954,2|12|0
200,56,161638,6,0,B|160:40|112:56,1,86.2500028274954,8|0
160,128,162038,1,12
136,296,162438,2,0,B|144:344|200:344,1,86.2500028274954,10|2
216,264,162838,2,0,B|256:240|256:240|296:264,1,86.2500028274954,14|0
376,240,163238,5,4
