osu file format v9

[General]
AudioFilename: 105753_Heaven_remix.mp3
AudioLeadIn: 0
PreviewTime: 57541
Countdown: 0
SampleSet: Normal
StackLeniency: 0.7
Mode: 0
LetterboxInBreaks: 0

[Editor]
Bookmarks: 14441,27241,30441,43241,56041,57641,83241,94441,108841,134441,137641,163241
DistanceSpacing: 0.9
BeatDivisor: 4
GridSize: 4

[Metadata]
Title:Heaven
Artist:Envy
Creator:Charles445
Version:Normal
Source:Newgrounds
Tags:remix dance cautious snickerz mmzz

[Difficulty]
HPDrainRate:4
CircleSize:4
OverallDifficulty:4
ApproachRate:6
SliderMultiplier:1.2
SliderTickRate:1

[Events]
//Background and Video events
0,0,"bigplanetyeahhh.jpg"
//Break Periods
2,83438,93388
//Storyboard Layer 0 (Background)
//Storyboard Layer 1 (Fail)
//Storyboard Layer 2 (Pass)
//Storyboard Layer 3 (Foreground)
//Storyboard Sound Samples
//Background Colour Transformations
3,100,163,162,255

[TimingPoints]
1638.45166792888,400,4,1,1,30,1,0
14038,-133.333333333333,4,1,1,40,0,0
14538,-133.333333333333,4,2,1,50,0,0
20738,-117.647058823529,4,1,1,30,0,0
20938,-117.647058823529,4,2,1,75,0,0
23938,-117.647058823529,4,2,1,85,0,0
25538,-117.647058823529,4,2,1,95,0,0
27138,-117.647058823529,4,2,1,20,0,0
28838,-117.647058823529,4,2,1,40,0,0
29238,-117.647058823529,4,2,1,60,0,0
29538,-117.647058823529,4,2,1,90,0,0
30038,-100,4,1,1,75,0,0
30438,-100,4,1,1,75,0,1
30538,-100,4,2,1,80,0,0
43038,-86.9565217391304,4,2,1,90,0,0
55838,-86.9565217391304,4,1,1,90,0,0
57438,-86.9565217391304,4,2,1,90,0,0
57638,-86.9565217391304,4,2,1,90,0,1
57738,-86.9565217391304,4,2,1,90,0,0
83038,-86.9565217391304,4,1,1,75,0,0
94238,-117.647058823529,4,2,1,90,0,0
95938,-133.333333333333,4,1,1,75,0,0
96738,-133.333333333333,4,2,1,85,0,0
97138,-133.333333333333,4,2,1,75,0,0
97538,-133.333333333333,4,2,1,65,0,0
107938,-133.333333333333,4,1,1,50,0,0
108788,-117.647058823529,4,2,1,75,0,0
121638,-100,4,2,1,85,0,0
127938,-100,4,2,1,90,0,0
131138,-100,4,2,1,95,0,0
132738,-100,4,2,1,100,0,0
134338,-100,4,2,1,20,0,0
135438,-100,4,2,1,15,0,0
136338,-100,4,2,1,10,0,0
137638,-86.9565217391304,4,2,1,100,0,1
163188,-86.9565217391304,4,1,1,80,0,1
163238,-86.9565217391304,4,1,1,80,0,0

[Colours]
Combo1 : 253,203,2
Combo2 : 5,240,5
Combo3 : 0,126,253
Combo4 : 249,124,0

[HitObjects]
136,136,14438,6,0,B|160:88|208:88,1,89.9999973177911,4|0
304,88,15238,2,0,B|350:87|374:135,1,89.9999973177911,2|0
340,228,16038,6,0,B|300:320,1,89.9999973177911,2|0
208,312,16838,2,0,B|172:229,1,89.9999973177911,2|0
216,140,17638,6,0,B|256:104|296:140,2,89.9999973177911,2|0|2
256,232,18838,1,0
324,304,19238,6,0,B|408:368|488:304,1,179.999994635582,2|2
372,112,20838,6,0,B|296:32,2,101.999995744229,4|0|2
444,192,22038,1,0
372,272,22438,2,0,B|296:352,2,101.999995744229,2|0|2
444,192,23638,1,2
344,136,24038,5,2
256,68,24438,1,0
168,136,24838,1,2
256,204,25238,1,2
344,272,25638,6,0,B|296:332|216:332|168:272,1,203.999991488457,2|2
256,192,27238,12,4,29638
256,136,30438,6,0,B|256:12,2,120,4|8|8
256,244,31638,1,10
164,296,32038,2,0,B|184:356|256:360,1,120,8|10
348,296,32838,2,8,B|328:356|256:360,1,120,10|8
164,296,33638,6,8,B|140:252|192:220|160:180,2,120
256,244,34838,1,10
348,296,35238,2,8,B|372:252|320:220|352:180,2,120,8|10|8
256,244,36438,1,8
204,148,36838,6,8,B|148:112|92:148,2,120
148,240,38038,1,10
204,148,38438,2,8,B|256:40,1,120,8|10
308,148,39238,2,8,B|256:40,1,120,10|8
364,44,40038,6,8,B|432:48|464:116,2,120
256,40,41238,1,10
148,44,41638,2,8,B|80:48|48:116,2,120,8|10|8
256,40,42838,1,8
344,128,43238,6,0,B|388:192|344:256,1,138.000004523993,8|12
236,192,44038,1,8
188,192,44238,1,0
140,192,44438,1,14
192,304,44838,6,0,B|256:348|320:304,2,138.000004523993,8|14|8
100,220,46038,1,14
192,136,46438,6,8,B|256:92|320:136,1,138.000004523993,8|12
256,244,47238,1,10
256,292,47438,1,0
256,340,47638,1,12
376,300,48038,6,8,B|448:252|452:184,1,138.000004523993,8|14
364,108,48838,2,8,B|316:36|248:32,1,138.000004523993,8|12
180,132,49638,6,8,B|140:164|140:220|180:252,1,138.000004523993,8|12
288,192,50438,2,0,B|360:192,2,69.0000022619963,8|0|14
180,132,51238,6,8,B|36:132,1,138.000004523993,8|14
0,248,52038,2,8,B|138:248,1,138.000004523993,10|12
256,276,52838,6,8,B|332:308|392:248,1,138.000004523993,8|12
384,128,53638,2,8,B|331:75|255:107,1,138.000004523993,10|12
256,192,54438,12,4,56038
136,236,57638,6,0,B|184:300|256:288,1,138.000004523993,8|12
376,236,58438,2,8,B|328:300|256:288,1,138.000004523993,8|12
216,168,59238,6,8,B|232:96|192:32,1,138.000004523993,8|12
317,35,60038,2,8,B|280:96|296:168,1,138.000004523993,8|12
276,292,60838,6,8,B|320:364|396:360,2,138.000004523993,8|14|8
236,292,61838,2,0,B|192:364|116:360,1,138.000004523993,2|2
76,364,62438,5,8
133,254,62838,1,12
133,130,63238,1,8
76,20,63638,1,12
132,132,64038,6,8,B|172:200|248:200,1,138.000004523993,8|12
368,200,64838,2,8,B|440:199|480:267,1,138.000004523993,8|12
368,200,65638,6,8,B|328:132|252:132,1,138.000004523993,8|12
132,132,66438,2,8,B|59:132|19:64,2,138.000004523993,8|12|8
256,68,67638,5,14
256,68,67838,1,2
256,192,68238,1,2
256,192,68438,1,14
320,299,68838,6,8,B|256:344|192:300,2,138.000004523993,8|12|8
408,212,70038,1,12
328,116,70438,6,8,B|328:203|256:219,2,138.000004523993,8|12|8
256,20,71638,1,12
184,116,72038,6,8,B|184:203|256:219,2,138.000004523993,8|12|8
256,20,73238,1,12
364,80,73638,6,8,B|412:144|492:132,1,138.000004523993,8|14
512,260,74438,1,8
484,250,74638,2,0,B|412:240|364:304,1,138.000004523993,2|2
332,332,75238,5,8
212,300,75638,1,12
300,212,76038,1,8
180,180,76438,1,12
256,84,76838,6,8,B|296:12|372:36,1,138.000004523993,8|12
256,84,77638,2,8,B|216:12|140:36,1,138.000004523993,8|12
156,160,78438,5,8
196,276,78838,1,12
316,276,79238,1,8
356,160,79638,1,12
235,131,80038,6,8,B|160:128|130:54,2,138.000004523993,8|14|8
276,131,81038,2,0,B|352:128|381:54,1,138.000004523993,2|2
396,24,81638,5,8
464,128,82038,1,12
464,256,82438,1,8
396,360,82838,1,12
328,256,83238,5,4
256,192,94438,12,4,96038
256,40,96838,6,0,B|256:136,1,89.9999973177911
296,200,97638,6,0,B|364:256,2,89.9999973177911
216,200,98838,2,0,B|148:256,2,89.9999973177911
256,128,100038,5,0
256,96,100238,1,0
256,64,100438,1,0
328,28,100838,6,0,B|398:51|406:131|356:170,1,179.999994635582
188,104,102438,6,0,B|108:152,1,89.9999973177911
110,233,103238,2,0,B|188:280,1,89.9999973177911
260,316,104038,2,0,B|304:344|344:316,2,89.9999973177911
256,192,105638,12,4,108038
256,296,108838,6,0,B|288:344|336:360,2,101.999995744229,0|0|2
232,268,109838,1,0
216,236,110038,1,0
188,148,110438,6,0,B|144:104|80:120,2,101.999995744229,0|0|2
256,84,111638,1,0
324,148,112038,6,0,B|368:104|432:120,2,101.999995744229,0|0|2
256,84,113238,1,0
256,176,113638,6,0,B|256:384,2,203.999991488457,0|2|0
256,84,115638,5,0
340,44,116038,1,2
376,32,116238,1,0
412,44,116438,1,0
372,128,116838,2,0,B|372:236,2,101.999995744229,0|0|2
188,144,118438,6,0,B|144:160|84:144,1,101.999995744229
87,239,119238,2,0,B|144:224|188:240,1,101.999995744229,2|0
268,192,120038,6,0,B|392:192,2,101.999995744229,0|0|2
176,192,121238,1,0
80,244,121638,6,0,B|44:216|44:168|80:140,2,120,0|0|2
112,268,122638,1,0
148,284,122838,1,0
256,264,123238,6,0,B|304:244|340:276|392:252,2,120,0|0|2
148,284,124438,1,0
160,176,124838,6,0,B|192:116|256:116,1,120
352,176,125638,2,0,B|320:116|256:116,1,120,2|0
256,224,126438,5,0
256,332,126838,1,0
322,245,127238,1,2
213,278,127638,1,2
324,316,128038,6,0,B|400:364|496:308|468:200,1,240,2|2
404,120,129238,1,0
404,120,129438,1,2
310,65,129838,5,0
310,65,130038,1,2
202,65,130438,1,2
256,160,130838,5,2
256,268,131238,1,2
256,376,131638,1,2
156,312,132038,6,0,B|48:244,1,120,2|0
54,135,132838,2,0,B|156:72,1,120,2|0
256,28,133638,5,2
348,88,134038,1,2
256,192,134438,12,0,136438
192,72,137638,6,0,B|256:24|320:76,2,138.000004523993,8|12|8
160,104,138638,1,0
136,144,138838,1,14
256,184,139238,6,8,B|256:324,2,138.000004523993,8|14|8
256,60,140438,1,14
368,48,140838,6,8,B|452:36|480:108,1,138.000004523993,8|14
488,232,141638,1,8
479,277,141838,2,0,B|452:348|368:336,1,138.000004523993,2|2
324,320,142438,5,8
404,224,142838,1,12
324,128,143238,1,8
404,32,143638,1,12
324,128,144038,6,8,B|280:192|324:256,1,138.000004523993,8|12
428,192,144838,1,8
468,192,145038,1,0
508,192,145238,1,14
424,100,145638,6,8,B|392:32|316:24,1,138.000004523993,8|14
195,24,146438,2,8,B|120:32|88:100,1,138.000004523993,10|12
192,168,147238,6,8,B|256:212|320:168,1,138.000004523993,8|14
428,108,148038,1,8
468,128,148238,2,0,B|512:192|468:256,1,138.000004523993,2|2
432,288,148838,5,8
316,340,149238,1,12
196,340,149638,1,8
80,288,150038,1,12
188,228,150438,6,8,B|328:228,1,138.000004523993,8|12
256,124,151238,1,8
256,80,151438,1,0
256,36,151638,1,14
364,96,152038,6,8,B|432:136|496:96,2,138.000004523993,8|14|8
256,36,153238,1,14
148,96,153638,5,8
68,192,154038,1,14
68,192,154238,1,2
148,288,154638,1,2
148,288,154838,1,14
256,348,155238,5,8
368,292,155638,1,12
248,264,156038,1,8
360,208,156438,1,12
239,176,156838,6,8,B|103:107,1,138.000004523993,8|12
240,92,157638,1,8
276,112,157838,1,0
308,128,158038,1,14
408,192,158438,6,8,B|471:240|443:315,1,138.000004523993,8|14
320,288,159238,2,0,B|256:336|192:288,1,138.000004523993,10|12
276,196,160038,6,8,B|316:128|392:132,2,138.000004523993,8|14|8
236,196,161038,2,0,B|196:128|120:132,1,138.000004523993,2|2
256,192,161638,12,4,163238
