osu file format v9

[General]
AudioFilename: enrique iglesias ft usher, lil wayne & nayer - dirty dancer (remix) im1.mp3
AudioLeadIn: 0
PreviewTime: -1
Countdown: 1
SampleSet: Soft
StackLeniency: 0.7
Mode: 0
LetterboxInBreaks: 1

[Editor]
DistanceSpacing: 0.8
BeatDivisor: 4
GridSize: 16

[Metadata]
Title:Dirty Dancer (Remix)
Artist:Enrique Iglesias Ft. Usher, Lil Wayne & Nayer
Creator:DIODO
Version:Hard
Source:
Tags:

[Difficulty]
HPDrainRate:7
CircleSize:5
OverallDifficulty:7
ApproachRate:7
SliderMultiplier:1.6
SliderTickRate:2

[Events]
//Background and Video events
0,0,"butter-dance-rays-light.jpg"
//Break Periods
2,79166,93856
//Storyboard Layer 0 (Background)
//Storyboard Layer 1 (Fail)
//Storyboard Layer 2 (Pass)
//Storyboard Layer 3 (Foreground)
//Storyboard Sound Samples
//Background Colour Transformations
3,100,0,0,0

[TimingPoints]
16260,451.127819548872,4,2,0,100,1,0
65940,-100,4,2,0,100,0,1
79474,-100,4,2,0,100,0,0
123008,-100,4,2,0,100,0,1
137218,-100,4,2,0,100,0,0

[Colours]
Combo1 : 0,236,171
Combo2 : 255,0,128
Combo3 : 0,255,255

[HitObjects]
128,288,16259,1,0
128,288,16485,1,0
96,224,16711,2,2,B|48:224|48:224|48:176,1,80
96,144,17162,2,0,B|144:144|144:144|144:112,1,80
208,112,17613,2,2,B|208:160|208:160|256:160,2,80
272,96,18290,6,0,B|320:96|320:96|320:48,1,80
384,64,18741,1,0
384,128,18966,2,2,B|384:176|384:176|432:176,1,80
416,240,19417,2,0,B|368:240|368:240|368:288,1,80
304,272,19869,2,2,B|304:320|304:320|256:320,2,80
240,240,20545,5,0
240,240,20771,1,0
192,288,20996,2,2,B|192:336|192:336|144:336,2,80
192,224,21673,1,0
128,224,21899,1,8
64,224,22124,1,0
96,160,22350,1,8
160,160,22575,1,0
272,96,23026,6,0,B|272:160|272:160|336:160|336:160|336:96|336:96|384:96|384:96,1,240
368,288,24380,6,2,B|368:192|368:192|304:192|304:192|304:272|304:272|272:272,1,240
176,288,25508,2,0,B|96:288,1,80
96,224,25959,2,0,B|48:224|48:224|48:160,1,80
96,80,26635,6,0,B|144:80|144:80|144:32|144:32|208:32,1,160
272,48,27312,1,0
272,48,27538,1,0
304,112,27763,2,10,B|352:112|352:112|352:160,2,80
240,112,28440,2,2,B|192:112|192:112|192:160,2,80
368,112,29342,6,0,B|368:192,1,80
432,192,29793,2,0,B|432:288,1,80
368,272,30244,2,2,B|368:224|368:224|352:240|352:240|352:224|352:224|336:240|336:240|336:224|336:224|272:224,1,160
240,224,30921,2,0,B|240:272|240:272|192:272,1,80
160,224,31372,2,2,B|128:224|112:224|112:224|112:256,1,80
432,48,32951,6,0,B|432:96|432:96|384:96,1,80
400,160,33402,2,0,B|448:160|448:160|448:224,1,80
448,256,33853,1,0
448,256,34079,1,0
400,304,34305,2,2,B|352:304|352:304|352:256,2,80
448,256,34981,1,0
448,256,35207,1,0
448,192,35432,2,0,B|448:144|448:144|400:144|400:144|400:192|400:192|336:192,1,200
80,96,37011,6,0,B|80:144|80:144|128:144,1,80
160,96,37462,2,0,B|208:96|208:96|208:144,1,80
272,128,37913,1,8
320,80,38139,2,2,B|368:80|368:80|368:32,2,80
384,192,39041,6,2,B|432:192|432:192|432:144,2,80
336,240,39718,1,0
336,240,39943,1,0
272,240,40169,2,0,B|208:240|208:240|208:272,1,80
144,272,40620,6,0,B|96:272|96:272|96:224,1,80
112,176,41072,1,0
112,112,41297,2,2,B|112:32,2,80
176,112,41974,1,0
176,112,42199,1,0
224,160,42425,2,0,B|272:160|272:160|272:112,1,80
416,224,43327,2,0,B|416:320,1,80
352,304,43778,2,0,B|352:224,1,80
256,240,44455,5,0
208,192,44681,1,0
160,240,44906,2,2,B|112:240|112:240|112:288,2,80
160,144,45583,1,4
272,96,46034,6,0,B|320:96|320:96|320:48,1,80
384,64,46485,2,0,B|384:112|384:112|432:112,1,80
416,176,46936,1,8
416,240,47162,2,2,B|464:240|464:240|464:288,2,80
368,288,47838,5,8
320,336,48064,1,0
272,288,48290,1,8
224,336,48515,2,0,B|176:336|176:336|176:304,2,80
272,288,49192,2,2,B|272:224|272:224|224:224,2,80
336,288,49869,1,8
400,288,50094,2,0,B|448:288|448:288|448:224,1,80
416,64,50996,6,0,B|320:64,1,80
272,64,51447,2,0,B|272:128|272:128|256:128,1,80
192,128,51899,2,2,B|144:128|144:128|144:176,1,80
144,224,52350,1,0
144,224,52575,1,0
208,224,52801,2,2,B|256:224|256:224|256:272,1,80
304,304,53252,1,0
304,304,53478,1,0
352,256,53703,6,2,B|400:256|400:256|400:208,1,80
448,176,54154,1,0
448,176,54380,1,0
448,112,54605,2,2,B|400:112|400:112|400:64,1,80
336,80,55056,1,0
336,80,55282,1,0
272,80,55508,6,0,B|272:128|272:128|208:128,1,80
176,128,55959,2,0,B|176:176|176:176|128:176,1,80
96,224,56410,2,2,B|48:224|48:224|48:192,2,80
96,288,57087,2,8,B|48:288|48:288|48:336,2,80
160,288,57763,6,0,B|240:288,1,80
240,224,58214,2,0,B|320:224,1,80
368,272,58666,1,0
368,272,58891,1,0
432,272,59117,2,2,B|480:272|480:272|480:224,2,80
432,208,59793,2,0,B|432:144|432:144|464:144,2,80
368,208,60470,1,8
320,160,60696,2,2,B|272:160|272:160|272:112,1,80
208,128,61147,5,0
208,128,61372,1,0
144,128,61598,2,0,B|144:192|144:192|96:192,1,80
112,256,62049,2,2,B|64:256|64:256|64:320,2,80
160,304,62726,1,8
224,320,62951,6,0,B|272:320|272:320|272:272,1,80
336,288,63402,1,8
400,288,63628,2,0,B|400:336|400:336|448:336,1,80
480,288,64079,2,2,B|480:208,2,80
400,192,64981,6,0,B|448:192|448:192|448:144,2,80
272,48,66109,2,8,B|224:48|224:48|224:96,1,80
192,144,66560,1,0
192,144,66786,1,0
128,144,67011,2,8,B|80:144|80:144|80:96,2,80
96,208,67688,1,0
96,208,67914,1,0
96,272,68139,6,8,B|96:320|96:320|64:320,2,80
160,272,68816,1,0
208,320,69041,1,8
272,320,69267,2,2,B|272:240,1,80
336,240,69718,1,0
352,176,69944,1,8
416,160,70169,6,0,B|416:80,1,80
352,80,70620,1,8
304,128,70846,1,0
256,80,71072,1,8
208,128,71297,2,2,B|160:128|160:128|160:80,2,80
96,64,72199,6,0,B|96:112|96:112|64:112,1,80
64,176,72650,2,0,B|112:176|112:176|112:224,1,80
112,272,73102,2,8,B|112:320|112:320|64:320,2,80
176,272,73778,1,0
240,272,74004,1,0
288,240,74229,2,4,B|336:240|336:240|336:288,2,80,8|4|8
288,160,74906,2,2,B|240:160|240:160|240:96,2,80
352,160,75583,5,0
352,96,75808,1,0
416,96,76034,2,8,B|464:96|464:96|464:48,2,80
448,160,76711,2,2,B|448:208|448:208|416:208,2,80
384,160,77387,5,8
352,224,77613,2,8,B|352:272|352:272|304:272,1,80
256,272,78064,2,0,B|256:208|256:208|224:208,1,80
192,256,78515,2,8,B|144:256|144:256|144:304,2,80
384,64,94756,6,0,B|384:112|384:112|352:112,1,80
288,112,95207,1,0
288,112,95432,1,0
224,112,95658,2,0,B|176:112|176:112|176:80,2,80
224,176,96335,6,0,B|176:176|176:176|176:224,2,80
224,240,97011,2,0,B|224:304|224:304|240:272|240:272|240:304|240:304|256:272|256:272|256:304|256:304|304:304,1,240
368,304,97914,1,0
432,304,98139,6,0,B|480:304|480:304|480:256,1,80
448,208,98590,1,0
448,208,98816,1,0
384,176,99041,2,0,B|384:112|384:112|352:112,2,80
320,144,99718,2,0,B|272:144|272:144|272:112,1,80
208,96,100169,2,0,B|208:32|208:32|160:32,2,80
96,144,101072,6,0,B|96:192|96:192|48:192,1,80
64,256,101523,2,0,B|112:256|112:256|112:304,1,80
176,288,101974,2,0,B|176:336|176:336|208:336,2,80
240,272,102650,2,0,B|240:192|240:192|256:224|256:224|256:192|256:192|272:224|272:224|272:192|272:192|304:192,1,240
368,192,103553,6,0,B|368:240|368:240|400:240,2,80
432,176,104229,2,0,B|496:176|496:176|496:160|496:160|464:160|464:160|496:144|496:144|464:144|464:144|496:128|496:128|496:96,1,240
448,64,105132,2,0,B|400:64|400:64|400:32,1,80
336,32,105583,6,0,B|336:80|336:80|272:80,1,80
240,80,106034,2,0,B|208:80|208:80|208:128,2,80
288,128,106711,1,0
240,176,106936,1,0
288,224,107162,2,0,B|336:224|336:224|336:288,2,80
288,288,107838,2,0,B|208:288,1,80
80,144,108741,6,0,B|80:48,1,80
144,64,109192,2,0,B|144:160,2,80
208,96,109869,1,0
272,64,110094,1,0
336,96,110320,2,0,B|384:96|384:96|384:48,2,80
368,160,110996,1,0
432,160,111222,1,0
448,224,111447,6,0,B|448:288|448:288|400:288,2,80
384,240,112124,1,0
384,304,112350,1,0
320,304,112575,2,0,B|320:224,2,80
256,304,113252,6,0,B|224:304|208:304|208:304|208:256,1,80
144,272,113703,2,0,B|144:192,2,80
80,272,114380,2,0,B|80:336|80:336|32:336,3,80
160,96,115508,6,0,B|160:48|160:48|208:48,1,80
224,96,115959,2,0,B|272:96|272:96|272:48,1,80
336,64,116410,2,0,B|384:64|384:64|384:112,1,80
384,160,116861,6,0,B|384:224|384:224|432:224,2,80
320,192,117538,1,0
320,192,117763,1,0
320,256,117989,2,0,B|256:256|256:256|256:304,2,80
384,256,118666,6,0,B|432:256|432:256|432:224,2,80
320,256,119342,1,0
256,256,119568,1,0
192,256,119793,2,0,B|192:176,2,80
112,112,120696,6,0,B|160:112|160:112|160:48,1,80
224,80,121148,2,0,B|224:128|224:128|272:128,1,80
320,128,121599,2,0,B|320:64|320:64|288:64,4,80
432,176,123177,6,0,B|432:256,1,80
368,256,123628,2,0,B|368:320|368:320|320:320,2,80
304,256,124305,2,0,B|304:192|304:192|256:192,2,80
272,320,124981,1,0
208,320,125207,1,0
144,320,125432,2,0,B|96:320|96:320|96:272,2,80
176,256,126109,6,0,B|224:256|224:256|224:224,2,80
112,256,126786,1,0
112,192,127011,1,0
112,128,127237,2,0,B|48:128|48:128|48:80,2,80
176,128,127914,6,0,B|224:128|224:128|224:80,1,80
288,96,128365,1,0
288,96,128590,1,0
336,144,128816,2,0,B|384:144|384:144|384:96,2,80
336,208,129493,2,0,B|416:208,1,80
96,64,131072,5,0
144,112,131297,1,0
192,64,131523,2,0,B|240:64|240:64|240:112,1,80
304,96,131974,2,0,B|304:48|304:48|336:48,1,80
400,80,132425,1,0
400,144,132650,2,0,B|448:144|448:144|448:192,1,80
448,240,133102,6,0,B|448:288|448:288|400:288,1,80
352,288,133553,2,0,B|352:224|352:224|304:224,2,80
288,288,134229,1,0
224,288,134455,2,0,B|176:288|176:288|176:224,2,80
224,160,135357,6,0,B|224:64,1,80
288,80,135808,2,0,B|288:176,1,80
352,160,136260,2,0,B|352:64,2,80
