osu file format v14

[General]
AudioFilename: Enrique Iglesias - Escape.mp3
AudioLeadIn: 0
PreviewTime: 37705
Countdown: 0
SampleSet: Normal
StackLeniency: 0.3
Mode: 1
LetterboxInBreaks: 0
WidescreenStoryboard: 1

[Editor]
Bookmarks: 310,11743,23176,38420,53664,68908,84152,99396,114641,129885,145129,160373,175617,190861,206105
DistanceSpacing: 1.2
BeatDivisor: 4
GridSize: 4
TimelineZoom: 1

[Metadata]
Title:Escapar
TitleUnicode:Escapar
Artist:Enrique Iglesias
ArtistUnicode:Enrique Iglesias
Creator:Gero
Version:#SpanishCollab Oni
Source:
Tags:
BeatmapID:559388
BeatmapSetID:232251

[Difficulty]
HPDrainRate:5
CircleSize:5
OverallDifficulty:5
ApproachRate:5
SliderMultiplier:1.4
SliderTickRate:2

[Events]
//Background and Video events
0,0,"BG.jpg",0,0
//Break Periods
//Storyboard Layer 0 (Background)
//Storyboard Layer 1 (Fail)
//Storyboard Layer 2 (Pass)
//Storyboard Layer 3 (Foreground)
//Storyboard Sound Samples

[TimingPoints]
310,476.379515680826,4,1,1,75,1,0
38420,-83.3333333333333,4,1,1,75,0,1
53664,-100,4,1,1,75,0,0
84152,-100,4,1,0,75,0,1
99396,-100,4,1,0,75,0,0
129885,-83.3333333333333,4,1,1,75,0,1
145010,-83.3333333333333,4,1,1,75,0,0
145129,-83.3333333333333,4,1,1,75,0,1
160254,-83.3333333333333,4,1,1,75,0,0
160373,-83.3333333333333,4,1,1,75,0,1
175498,-83.3333333333333,4,1,1,75,0,0
175617,-83.3333333333333,4,1,1,75,0,1
190861,-100,4,1,1,75,0,0

[Colours]
Combo1 : 162,162,162
Combo2 : 232,168,98
Combo3 : 228,221,133

[HitObjects]
256,192,310,5,2,0:0:0:0:
256,192,786,1,0,0:0:0:0:
256,192,1024,1,2,0:0:0:0:
256,192,1500,1,0,0:0:0:0:
256,192,1977,1,0,0:0:0:0:
256,192,2453,1,2,0:0:0:0:
256,192,2930,1,2,0:0:0:0:
256,192,3406,1,2,0:0:0:0:
256,192,3644,1,0,0:0:0:0:
256,192,3882,1,0,0:0:0:0:
256,192,4121,1,0,0:0:0:0:
256,192,4359,1,2,0:0:0:0:
256,192,4597,1,0,0:0:0:0:
256,192,4835,1,0,0:0:0:0:
256,192,5073,1,0,0:0:0:0:
256,192,5311,1,2,0:0:0:0:
256,192,5550,1,0,0:0:0:0:
256,192,5788,1,0,0:0:0:0:
256,192,6026,1,0,0:0:0:0:
256,192,6264,1,2,0:0:0:0:
256,192,6741,1,2,0:0:0:0:
256,192,7217,1,2,0:0:0:0:
256,192,7693,1,0,0:0:0:0:
256,192,7932,1,4,0:0:0:0:
256,192,8170,1,0,0:0:0:0:
256,192,8408,1,0,0:0:0:0:
256,192,8646,1,2,0:0:0:0:
256,192,9123,1,0,0:0:0:0:
256,192,9361,1,2,0:0:0:0:
256,192,9599,1,2,0:0:0:0:
256,192,9837,1,0,0:0:0:0:
256,192,10075,1,2,0:0:0:0:
256,192,10313,1,2,0:0:0:0:
256,192,10552,1,2,0:0:0:0:
256,192,11028,1,0,0:0:0:0:
256,192,11266,1,2,0:0:0:0:
256,192,11504,1,0,0:0:0:0:
256,192,11743,1,2,0:0:0:0:
256,192,11981,1,0,0:0:0:0:
256,192,12219,1,0,0:0:0:0:
256,192,12457,1,0,0:0:0:0:
256,192,12695,1,2,0:0:0:0:
256,192,12934,1,2,0:0:0:0:
256,192,13172,1,0,0:0:0:0:
256,192,13410,1,0,0:0:0:0:
256,192,13648,1,2,0:0:0:0:
256,192,13886,1,2,0:0:0:0:
256,192,14363,1,2,0:0:0:0:
256,192,14839,1,2,0:0:0:0:
256,192,15077,1,0,0:0:0:0:
256,192,15315,1,0,0:0:0:0:
256,192,15554,1,0,0:0:0:0:
256,192,16030,1,0,0:0:0:0:
256,192,16268,1,2,0:0:0:0:
256,192,16745,1,0,0:0:0:0:
256,192,16983,1,0,0:0:0:0:
256,192,17221,1,0,0:0:0:0:
256,192,17459,1,2,0:0:0:0:
256,192,17697,1,0,0:0:0:0:
256,192,17936,1,0,0:0:0:0:
256,192,18174,1,2,0:0:0:0:
256,192,18650,1,0,0:0:0:0:
256,192,18888,1,0,0:0:0:0:
256,192,19126,1,2,0:0:0:0:
256,192,19365,1,2,0:0:0:0:
256,192,19841,1,0,0:0:0:0:
256,192,20079,1,2,0:0:0:0:
256,192,20556,1,0,0:0:0:0:
256,192,20794,1,0,0:0:0:0:
256,192,21032,1,2,0:0:0:0:
256,192,21508,1,0,0:0:0:0:
256,192,21747,1,0,0:0:0:0:
256,192,21985,1,2,0:0:0:0:
256,192,22223,1,0,0:0:0:0:
256,192,22461,1,2,0:0:0:0:
256,192,22699,1,2,0:0:0:0:
256,192,22938,1,0,0:0:0:0:
256,192,23176,1,4,0:0:0:0:
256,192,23414,1,0,0:0:0:0:
256,192,23652,1,8,0:0:0:0:
256,192,23890,1,0,0:0:0:0:
256,192,24128,1,8,0:0:0:0:
256,192,24605,1,8,0:0:0:0:
256,192,24843,1,8,0:0:0:0:
256,192,25081,1,0,0:0:0:0:
256,192,25319,1,0,0:0:0:0:
256,192,25558,1,8,0:0:0:0:
256,192,25796,1,0,0:0:0:0:
256,192,26034,1,8,0:0:0:0:
256,192,26510,1,8,0:0:0:0:
256,192,26749,1,8,0:0:0:0:
256,192,26987,1,0,0:0:0:0:
256,192,27225,1,0,0:0:0:0:
256,192,27463,1,8,0:0:0:0:
256,192,27701,1,8,0:0:0:0:
256,192,28178,1,0,0:0:0:0:
256,192,28416,1,8,0:0:0:0:
256,192,28654,1,0,0:0:0:0:
256,192,29130,1,0,0:0:0:0:
256,192,29369,1,8,0:0:0:0:
256,192,29607,1,0,0:0:0:0:
256,192,29726,1,0,0:0:0:0:
256,192,29845,1,0,0:0:0:0:
256,192,30083,1,0,0:0:0:0:
256,192,30202,1,8,0:0:0:0:
256,192,30321,1,0,0:0:0:0:
256,192,30560,1,8,0:0:0:0:
256,192,30798,1,0,0:0:0:0:
256,192,31036,1,0,0:0:0:0:
256,192,31274,1,8,0:0:0:0:
256,192,31512,1,0,0:0:0:0:
256,192,31751,1,8,0:0:0:0:
256,192,32227,1,8,0:0:0:0:
256,192,32465,1,0,0:0:0:0:
256,192,32703,1,0,0:0:0:0:
256,192,32822,1,0,0:0:0:0:
256,192,32941,1,0,0:0:0:0:
256,192,33180,1,8,0:0:0:0:
256,192,33418,1,0,0:0:0:0:
256,192,33656,1,0,0:0:0:0:
256,192,33894,1,8,0:0:0:0:
256,192,34132,1,8,0:0:0:0:
256,192,34371,1,0,0:0:0:0:
256,192,34609,1,8,0:0:0:0:
256,192,35085,1,8,0:0:0:0:
256,192,35323,1,0,0:0:0:0:
256,192,35562,1,0,0:0:0:0:
256,192,35800,1,8,0:0:0:0:
256,192,36038,1,0,0:0:0:0:
256,192,36276,1,8,0:0:0:0:
256,192,36514,1,0,0:0:0:0:
256,192,36753,1,0,0:0:0:0:
256,192,36991,1,8,0:0:0:0:
256,192,37467,1,0,0:0:0:0:
256,192,37705,1,0,0:0:0:0:
256,192,37824,1,8,0:0:0:0:
256,192,37943,1,0,0:0:0:0:
256,192,38182,1,8,0:0:0:0:
256,192,38420,1,4,0:0:0:0:
256,192,38658,1,0,0:0:0:0:
256,192,38896,1,8,0:0:0:0:
256,192,39134,1,0,0:0:0:0:
256,192,39611,1,0,0:0:0:0:
256,192,39849,1,8,0:0:0:0:
256,192,40087,1,8,0:0:0:0:
256,192,40325,1,0,0:0:0:0:
256,192,40564,1,0,0:0:0:0:
256,192,40683,1,0,0:0:0:0:
256,192,40802,1,8,0:0:0:0:
256,192,41040,1,0,0:0:0:0:
256,192,41278,1,0,0:0:0:0:
256,192,41516,1,8,0:0:0:0:
256,192,41755,1,0,0:0:0:0:
256,192,42231,1,0,0:0:0:0:
256,192,42469,1,8,0:0:0:0:
256,192,42588,1,8,0:0:0:0:
256,192,42707,1,0,0:0:0:0:
256,192,42945,1,8,0:0:0:0:
256,192,43184,1,0,0:0:0:0:
256,192,43303,1,0,0:0:0:0:
256,192,43422,1,0,0:0:0:0:
256,192,43660,1,8,0:0:0:0:
256,192,43898,1,0,0:0:0:0:
256,192,44136,1,0,0:0:0:0:
256,192,44613,1,8,0:0:0:0:
256,192,44851,1,0,0:0:0:0:
256,192,45089,1,8,0:0:0:0:
256,192,45327,1,0,0:0:0:0:
256,192,45446,1,8,0:0:0:0:
256,192,45566,1,0,0:0:0:0:
256,192,45804,1,8,0:0:0:0:
256,192,46042,1,0,0:0:0:0:
256,192,46280,1,0,0:0:0:0:
256,192,46518,1,8,0:0:0:0:
256,192,46995,1,0,0:0:0:0:
256,192,47233,1,8,0:0:0:0:
256,192,47471,1,8,0:0:0:0:
256,192,47709,1,0,0:0:0:0:
256,192,48186,1,0,0:0:0:0:
256,192,48424,1,8,0:0:0:0:
256,192,48662,1,0,0:0:0:0:
256,192,48781,1,8,0:0:0:0:
256,192,48900,1,0,0:0:0:0:
256,192,49138,1,0,0:0:0:0:
256,192,49377,1,8,0:0:0:0:
256,192,49615,1,8,0:0:0:0:
256,192,49853,1,4,0:0:0:0:
256,192,50329,1,8,0:0:0:0:
256,192,50568,1,8,0:0:0:0:
256,192,50806,1,4,0:0:0:0:
256,192,51282,1,8,0:0:0:0:
256,192,51520,1,0,0:0:0:0:
256,192,51758,1,0,0:0:0:0:
256,192,51878,1,0,0:0:0:0:
256,192,51997,1,0,0:0:0:0:
256,192,52235,1,8,0:0:0:0:
256,192,52473,1,0,0:0:0:0:
256,192,52711,1,8,0:0:0:0:
256,192,52949,1,0,0:0:0:0:
256,192,53069,1,8,0:0:0:0:
256,192,53188,1,0,0:0:0:0:
256,192,53426,1,8,0:0:0:0:
256,192,53664,1,4,0:0:0:0:
120,120,54140,1,8,0:0:0:0:
120,120,54379,1,0,0:0:0:0:
120,120,54855,1,8,0:0:0:0:
120,120,55093,1,8,0:0:0:0:
120,120,55331,1,0,0:0:0:0:
120,120,55570,1,0,0:0:0:0:
120,120,55808,1,0,0:0:0:0:
120,120,55927,1,0,0:0:0:0:
120,120,56046,1,8,0:0:0:0:
120,120,56284,1,0,0:0:0:0:
120,120,56999,1,8,0:0:0:0:
120,120,57237,1,8,0:0:0:0:
120,120,57475,1,4,0:0:0:0:
120,120,57951,1,8,0:0:0:0:
120,120,58190,1,8,0:0:0:0:
120,120,58428,1,4,0:0:0:0:
120,120,58904,1,8,0:0:0:0:
120,120,59142,1,8,0:0:0:0:
120,120,59381,1,4,0:0:0:0:
120,120,59619,1,0,0:0:0:0:
120,120,59738,1,0,0:0:0:0:
120,120,59857,1,8,0:0:0:0:
120,120,60095,1,0,0:0:0:0:
120,120,60572,1,0,0:0:0:0:
120,120,60691,1,0,0:0:0:0:
120,120,60810,1,8,0:0:0:0:
120,120,61048,1,8,0:0:0:0:
120,120,61286,1,4,0:0:0:0:
120,120,62001,1,0,0:0:0:0:
120,120,62239,1,8,0:0:0:0:
120,120,62715,1,0,0:0:0:0:
120,120,62953,1,0,0:0:0:0:
120,120,63192,1,8,0:0:0:0:
120,120,63430,1,0,0:0:0:0:
120,120,63549,1,8,0:0:0:0:
120,120,63787,1,0,0:0:0:0:
120,120,63906,1,8,0:0:0:0:
120,120,64144,1,0,0:0:0:0:
120,120,64621,1,8,0:0:0:0:
120,120,64859,1,8,0:0:0:0:
120,120,65097,1,0,0:0:0:0:
120,120,65812,1,0,0:0:0:0:
120,120,66050,1,8,0:0:0:0:
120,120,66764,1,0,0:0:0:0:
120,120,67003,1,0,0:0:0:0:
120,120,67241,1,0,0:0:0:0:
120,120,67479,1,8,0:0:0:0:
120,120,67717,1,0,0:0:0:0:
120,120,67955,1,8,0:0:0:0:
120,120,68194,1,8,0:0:0:0:
120,120,68313,1,0,0:0:0:0:
120,120,68551,1,8,0:0:0:0:
120,120,68670,1,0,0:0:0:0:
120,120,68908,1,0,0:0:0:0:
120,120,69385,1,8,0:0:0:0:
120,120,69623,1,0,0:0:0:0:
120,120,69861,1,0,0:0:0:0:
120,120,70099,1,0,0:0:0:0:
120,120,70218,1,0,0:0:0:0:
120,120,70337,1,8,0:0:0:0:
120,120,70575,1,0,0:0:0:0:
120,120,70814,1,0,0:0:0:0:
120,120,71290,1,8,0:0:0:0:
120,120,71528,1,0,0:0:0:0:
120,120,71766,1,0,0:0:0:0:
120,120,72005,1,8,0:0:0:0:
120,120,72124,1,0,0:0:0:0:
120,120,72243,1,8,0:0:0:0:
120,120,72481,1,0,0:0:0:0:
120,120,72719,1,8,0:0:0:0:
120,120,73196,1,8,0:0:0:0:
120,120,73434,1,0,0:0:0:0:
120,120,73553,1,0,0:0:0:0:
120,120,73672,1,0,0:0:0:0:
120,120,74148,1,8,0:0:0:0:
120,120,74387,1,0,0:0:0:0:
120,120,74506,1,0,0:0:0:0:
120,120,74625,1,0,0:0:0:0:
120,120,74863,1,0,0:0:0:0:
120,120,75101,1,8,0:0:0:0:
120,120,75339,1,0,0:0:0:0:
120,120,75458,1,0,0:0:0:0:
120,120,75577,1,8,0:0:0:0:
120,120,75816,1,0,0:0:0:0:
120,120,75935,1,0,0:0:0:0:
120,120,76054,1,8,0:0:0:0:
120,120,76292,1,0,0:0:0:0:
120,120,76530,1,8,0:0:0:0:
120,120,77007,1,8,0:0:0:0:
120,120,77245,1,0,0:0:0:0:
120,120,77483,1,0,0:0:0:0:
120,120,77721,1,0,0:0:0:0:
120,120,77840,1,0,0:0:0:0:
120,120,77959,1,8,0:0:0:0:
120,120,78198,1,0,0:0:0:0:
120,120,78436,1,0,0:0:0:0:
120,120,78912,1,8,0:0:0:0:
120,120,79150,1,0,0:0:0:0:
120,120,79388,1,0,0:0:0:0:
120,120,79627,1,8,0:0:0:0:
120,120,79746,1,0,0:0:0:0:
120,120,79865,1,8,0:0:0:0:
120,120,80103,1,0,0:0:0:0:
120,120,80341,1,8,0:0:0:0:
120,120,80818,1,8,0:0:0:0:
120,120,81056,1,0,0:0:0:0:
120,120,81175,1,0,0:0:0:0:
120,120,81294,1,0,0:0:0:0:
120,120,81532,1,0,0:0:0:0:
120,120,81651,1,0,0:0:0:0:
120,120,81770,1,8,0:0:0:0:
120,120,82009,1,4,0:0:0:0:
120,120,82485,1,12,0:0:0:0:
120,120,83200,1,8,0:0:0:0:
120,120,83438,1,8,0:0:0:0:
120,120,83557,1,8,0:0:0:0:
120,120,83676,1,8,0:0:0:0:
120,120,83914,1,0,0:0:0:0:
224,160,84152,5,12,0:0:0:0:
224,192,84390,1,0,0:0:0:0:
224,192,84510,1,0,0:0:0:0:
224,192,84629,1,8,0:0:0:0:
256,160,84867,1,8,0:0:0:0:
256,160,85105,1,0,0:0:0:0:
256,160,85224,1,0,0:0:0:0:
256,160,85343,1,0,0:0:0:0:
256,160,85462,1,0,0:0:0:0:
256,160,85581,1,8,0:0:0:0:
288,160,85820,1,8,0:0:0:0:
288,160,85939,1,0,0:0:0:0:
288,160,86058,1,0,0:0:0:0:
288,160,86296,1,8,0:0:0:0:
288,160,86534,1,8,0:0:0:0:
288,160,86653,1,0,0:0:0:0:
288,160,86772,1,8,0:0:0:0:
288,160,87011,1,0,0:0:0:0:
288,160,87249,1,8,0:0:0:0:
352,192,87487,1,8,0:0:0:0:
192,128,87963,1,4,0:0:0:0:
224,128,88202,1,8,0:0:0:0:
224,160,88321,1,0,0:0:0:0:
224,160,88440,1,8,0:0:0:0:
224,160,88678,1,8,0:0:0:0:
224,160,88797,1,8,0:0:0:0:
224,160,88916,1,0,0:0:0:0:
160,160,89035,1,0,0:0:0:0:
160,160,89154,1,8,0:0:0:0:
224,192,89392,1,8,0:0:0:0:
224,192,89631,1,8,0:0:0:0:
224,192,89750,1,0,0:0:0:0:
224,192,89869,1,0,0:0:0:0:
384,224,90107,1,8,0:0:0:0:
288,192,90345,1,8,0:0:0:0:
320,160,90822,1,0,0:0:0:0:
288,192,91060,1,0,0:0:0:0:
288,192,91179,1,0,0:0:0:0:
224,160,91298,1,8,0:0:0:0:
160,160,91536,1,8,0:0:0:0:
320,160,91774,1,4,0:0:0:0:
256,192,92013,1,8,0:0:0:0:
256,192,92251,1,8,0:0:0:0:
256,192,92370,1,8,0:0:0:0:
256,192,92489,1,8,0:0:0:0:
256,192,92608,1,8,0:0:0:0:
256,192,92727,1,0,0:0:0:0:
352,224,92965,1,8,0:0:0:0:
352,224,93204,1,8,0:0:0:0:
352,224,93323,1,8,0:0:0:0:
352,224,93442,1,8,0:0:0:0:
352,224,93680,1,0,0:0:0:0:
352,224,93918,1,8,0:0:0:0:
352,224,94037,1,0,0:0:0:0:
224,192,94156,1,8,0:0:0:0:
224,192,94394,1,8,0:0:0:0:
224,192,94633,1,0,0:0:0:0:
224,192,95109,1,8,0:0:0:0:
224,160,95347,1,0,0:0:0:0:
192,192,95585,1,4,0:0:0:0:
192,192,95824,1,8,0:0:0:0:
192,192,96062,1,8,0:0:0:0:
192,192,96181,1,0,0:0:0:0:
192,192,96300,1,8,0:0:0:0:
224,160,96538,1,0,0:0:0:0:
224,160,96776,1,8,0:0:0:0:
224,160,97015,1,8,0:0:0:0:
224,160,97134,1,8,0:0:0:0:
224,160,97253,1,8,0:0:0:0:
224,160,97491,1,4,0:0:0:0:
224,160,97729,1,12,0:0:0:0:
192,160,98205,1,4,0:0:0:0:
256,128,98682,1,12,0:0:0:0:
256,128,99158,1,12,0:0:0:0:
256,160,99396,1,4,0:0:0:0:
288,192,99873,1,8,0:0:0:0:
288,192,100111,1,0,0:0:0:0:
256,160,100587,1,8,0:0:0:0:
256,160,100826,1,8,0:0:0:0:
256,160,101064,1,0,0:0:0:0:
256,160,101302,1,0,0:0:0:0:
224,192,101778,1,8,0:0:0:0:
224,192,102017,1,0,0:0:0:0:
288,128,102255,1,0,0:0:0:0:
288,192,102493,1,8,0:0:0:0:
288,192,102612,1,0,0:0:0:0:
288,192,102731,1,8,0:0:0:0:
256,192,102969,1,8,0:0:0:0:
256,192,103207,1,4,0:0:0:0:
256,160,103684,1,8,0:0:0:0:
256,160,103922,1,0,0:0:0:0:
288,160,104041,1,8,0:0:0:0:
256,160,104160,1,0,0:0:0:0:
288,160,104398,1,8,0:0:0:0:
288,160,104637,1,0,0:0:0:0:
352,160,104756,1,0,0:0:0:0:
288,160,104875,1,8,0:0:0:0:
256,160,105113,1,4,0:0:0:0:
224,128,105351,1,12,0:0:0:0:
256,128,105828,1,4,0:0:0:0:
256,128,106304,1,12,0:0:0:0:
256,160,106780,1,12,0:0:0:0:
256,160,107019,1,0,0:0:0:0:
256,160,107495,1,8,0:0:0:0:
256,160,107971,1,0,0:0:0:0:
224,160,108209,1,0,0:0:0:0:
224,160,108448,1,8,0:0:0:0:
224,160,108567,1,0,0:0:0:0:
224,160,108686,1,8,0:0:0:0:
224,128,108924,1,0,0:0:0:0:
224,192,109162,1,0,0:0:0:0:
224,192,109400,1,8,0:0:0:0:
224,160,109877,1,0,0:0:0:0:
224,160,110115,1,0,0:0:0:0:
224,160,110353,1,8,0:0:0:0:
224,160,110472,1,0,0:0:0:0:
224,160,110591,1,8,0:0:0:0:
224,160,110830,1,0,0:0:0:0:
224,96,111306,1,8,0:0:0:0:
224,96,111544,1,0,0:0:0:0:
192,128,112020,1,0,0:0:0:0:
192,128,112259,1,8,0:0:0:0:
192,128,112497,1,8,0:0:0:0:
192,128,112735,1,0,0:0:0:0:
256,160,113211,1,8,0:0:0:0:
256,160,113450,1,0,0:0:0:0:
224,160,113926,1,8,0:0:0:0:
224,160,114045,1,8,0:0:0:0:
224,160,114164,1,8,0:0:0:0:
224,160,114402,1,0,0:0:0:0:
224,160,114641,1,4,0:0:0:0:
224,160,115117,1,8,0:0:0:0:
224,160,115593,1,0,0:0:0:0:
224,160,115832,1,0,0:0:0:0:
224,160,116070,1,8,0:0:0:0:
256,160,116308,1,0,0:0:0:0:
256,160,116427,1,0,0:0:0:0:
256,160,116546,1,0,0:0:0:0:
256,160,116784,1,0,0:0:0:0:
256,160,117022,1,8,0:0:0:0:
256,160,117142,1,8,0:0:0:0:
256,160,117261,1,8,0:0:0:0:
256,160,117499,1,0,0:0:0:0:
256,160,117975,1,8,0:0:0:0:
256,160,118213,1,8,0:0:0:0:
256,160,118452,1,0,0:0:0:0:
256,160,118928,1,0,0:0:0:0:
256,160,119166,1,8,0:0:0:0:
256,160,119643,1,0,0:0:0:0:
256,192,119881,1,8,0:0:0:0:
320,192,120119,1,0,0:0:0:0:
256,192,120357,1,0,0:0:0:0:
256,192,120476,1,0,0:0:0:0:
256,192,120595,1,8,0:0:0:0:
256,192,120834,1,8,0:0:0:0:
256,192,121310,1,0,0:0:0:0:
256,192,121548,1,8,0:0:0:0:
256,192,121667,1,8,0:0:0:0:
256,192,121786,1,8,0:0:0:0:
256,192,122024,1,8,0:0:0:0:
160,192,122263,1,0,0:0:0:0:
256,192,122739,1,0,0:0:0:0:
256,192,122977,1,8,0:0:0:0:
352,224,123454,1,0,0:0:0:0:
352,256,123692,1,0,0:0:0:0:
352,256,123930,1,8,0:0:0:0:
416,256,124406,1,0,0:0:0:0:
416,256,124883,1,8,0:0:0:0:
320,256,125359,1,0,0:0:0:0:
320,256,125597,1,0,0:0:0:0:
320,256,125836,1,8,0:0:0:0:
320,256,126074,1,0,0:0:0:0:
288,192,126550,1,0,0:0:0:0:
288,224,126788,1,8,0:0:0:0:
288,192,127265,1,8,0:0:0:0:
288,192,127741,1,8,0:0:0:0:
288,192,127979,1,0,0:0:0:0:
256,192,128217,1,0,0:0:0:0:
256,192,128336,1,8,0:0:0:0:
256,192,128456,1,0,0:0:0:0:
256,192,128575,1,8,0:0:0:0:
256,192,128694,1,0,0:0:0:0:
256,192,128813,1,8,0:0:0:0:
256,192,128932,1,8,0:0:0:0:
256,192,129170,1,8,0:0:0:0:
256,160,129408,1,0,0:0:0:0:
256,160,129527,1,0,0:0:0:0:
256,160,129647,1,8,0:0:0:0:
436,56,129885,1,4,0:0:0:0:
436,56,130123,1,0,0:0:0:0:
436,56,130242,1,0,0:0:0:0:
436,56,130361,1,8,0:0:0:0:
436,56,130599,1,0,0:0:0:0:
436,56,130837,1,0,0:0:0:0:
436,56,131076,1,8,0:0:0:0:
436,56,131314,1,8,0:0:0:0:
436,56,131552,1,0,0:0:0:0:
436,56,131790,1,0,0:0:0:0:
436,56,131909,1,0,0:0:0:0:
436,56,132028,1,0,0:0:0:0:
436,56,132267,1,8,0:0:0:0:
436,56,132505,1,0,0:0:0:0:
436,56,132743,1,0,0:0:0:0:
436,56,132981,1,8,0:0:0:0:
436,56,133219,1,0,0:0:0:0:
436,56,133696,1,0,0:0:0:0:
436,56,133934,1,8,0:0:0:0:
436,56,134053,1,8,0:0:0:0:
436,56,134172,1,0,0:0:0:0:
436,56,134410,1,8,0:0:0:0:
436,56,134649,1,0,0:0:0:0:
436,56,134768,1,0,0:0:0:0:
436,56,134887,1,0,0:0:0:0:
436,56,135125,1,8,0:0:0:0:
436,56,135363,1,0,0:0:0:0:
436,56,135601,1,6,0:0:0:0:
436,56,135839,1,8,0:0:0:0:
436,56,136078,1,0,0:0:0:0:
436,56,136554,1,0,0:0:0:0:
436,56,136792,1,0,0:0:0:0:
436,56,136911,1,8,0:0:0:0:
436,56,137030,1,0,0:0:0:0:
436,56,137269,1,8,0:0:0:0:
436,56,137507,1,4,0:0:0:0:
436,56,137745,1,0,0:0:0:0:
436,56,137983,1,8,0:0:0:0:
436,56,138221,1,0,0:0:0:0:
436,56,138698,1,8,0:0:0:0:
436,56,138936,1,8,0:0:0:0:
436,56,139174,1,0,0:0:0:0:
436,56,139412,1,0,0:0:0:0:
436,56,139531,1,0,0:0:0:0:
436,56,139651,1,0,0:0:0:0:
436,56,139889,1,8,0:0:0:0:
436,56,140127,1,0,0:0:0:0:
436,56,140246,1,8,0:0:0:0:
436,56,140365,1,0,0:0:0:0:
436,56,140603,1,0,0:0:0:0:
436,56,140841,1,8,0:0:0:0:
436,56,141080,1,8,0:0:0:0:
436,56,141318,1,4,0:0:0:0:
436,56,141794,1,8,0:0:0:0:
436,56,142032,1,8,0:0:0:0:
436,56,142271,1,4,0:0:0:0:
436,56,142747,1,8,0:0:0:0:
436,56,142985,1,0,0:0:0:0:
436,56,143223,1,0,0:0:0:0:
436,56,143343,1,0,0:0:0:0:
436,56,143462,1,0,0:0:0:0:
436,56,143700,1,8,0:0:0:0:
436,56,143938,1,0,0:0:0:0:
436,56,144176,1,8,0:0:0:0:
436,56,144414,1,0,0:0:0:0:
436,56,144534,1,8,0:0:0:0:
436,56,144653,1,0,0:0:0:0:
436,56,144891,1,8,0:0:0:0:
436,56,145129,1,4,0:0:0:0:
436,56,145367,1,0,0:0:0:0:
436,56,145605,1,8,0:0:0:0:
436,56,145843,1,0,0:0:0:0:
436,56,146320,1,0,0:0:0:0:
436,56,146558,1,8,0:0:0:0:
436,56,146796,1,8,0:0:0:0:
436,56,147034,1,0,0:0:0:0:
436,56,147273,1,0,0:0:0:0:
436,56,147392,1,0,0:0:0:0:
436,56,147511,1,8,0:0:0:0:
436,56,147749,1,0,0:0:0:0:
436,56,147868,1,0,0:0:0:0:
436,56,147987,1,0,0:0:0:0:
436,56,148225,1,8,0:0:0:0:
436,56,148464,1,0,0:0:0:0:
436,56,148940,1,0,0:0:0:0:
436,56,149178,1,8,0:0:0:0:
436,56,149297,1,8,0:0:0:0:
436,56,149416,1,0,0:0:0:0:
436,56,149654,1,8,0:0:0:0:
436,56,149893,1,0,0:0:0:0:
436,56,150012,1,0,0:0:0:0:
436,56,150131,1,0,0:0:0:0:
436,56,150369,1,8,0:0:0:0:
436,56,150607,1,8,0:0:0:0:
436,56,150845,1,0,0:0:0:0:
436,56,151084,1,0,0:0:0:0:
436,56,151203,1,8,0:0:0:0:
436,56,151322,1,0,0:0:0:0:
436,56,151560,1,0,0:0:0:0:
436,56,151798,1,8,0:0:0:0:
436,56,152036,1,0,0:0:0:0:
436,56,152155,1,8,0:0:0:0:
436,56,152275,1,0,0:0:0:0:
436,56,152513,1,8,0:0:0:0:
436,56,152751,1,4,0:0:0:0:
436,56,152989,1,0,0:0:0:0:
436,56,153227,1,8,0:0:0:0:
436,56,153466,1,0,0:0:0:0:
436,56,153942,1,0,0:0:0:0:
436,56,154180,1,8,0:0:0:0:
436,56,154418,1,0,0:0:0:0:
436,56,154537,1,0,0:0:0:0:
436,56,154656,1,0,0:0:0:0:
436,56,154895,1,0,0:0:0:0:
436,56,155133,1,8,0:0:0:0:
436,56,155371,1,8,0:0:0:0:
436,56,155490,1,8,0:0:0:0:
436,56,155609,1,0,0:0:0:0:
436,56,155847,1,0,0:0:0:0:
436,56,156086,1,8,0:0:0:0:
436,56,156324,1,8,0:0:0:0:
436,56,156562,1,4,0:0:0:0:
436,56,157038,1,8,0:0:0:0:
436,56,157277,1,8,0:0:0:0:
436,56,157515,1,4,0:0:0:0:
436,56,157753,1,0,0:0:0:0:
436,56,157991,1,8,0:0:0:0:
436,56,158229,1,0,0:0:0:0:
436,56,158467,1,0,0:0:0:0:
436,56,158587,1,0,0:0:0:0:
436,56,158706,1,0,0:0:0:0:
436,56,158944,1,8,0:0:0:0:
436,56,159182,1,0,0:0:0:0:
436,56,159420,1,8,0:0:0:0:
436,56,159658,1,0,0:0:0:0:
436,56,159778,1,8,0:0:0:0:
436,56,159897,1,0,0:0:0:0:
436,56,160135,1,8,0:0:0:0:
436,56,160373,1,4,0:0:0:0:
124,124,160849,1,8,0:0:0:0:
124,124,161088,1,8,0:0:0:0:
124,124,161326,1,0,0:0:0:0:
124,124,161802,1,8,0:0:0:0:
124,124,162040,1,8,0:0:0:0:
124,124,162279,1,0,0:0:0:0:
124,124,162517,1,0,0:0:0:0:
124,124,162636,1,0,0:0:0:0:
124,124,162755,1,8,0:0:0:0:
124,124,162993,1,0,0:0:0:0:
124,124,163112,1,0,0:0:0:0:
124,124,163231,1,0,0:0:0:0:
124,124,163469,1,8,0:0:0:0:
124,124,163708,1,8,0:0:0:0:
124,124,163946,1,0,0:0:0:0:
124,124,164184,1,0,0:0:0:0:
124,124,164660,1,8,0:0:0:0:
124,124,164899,1,8,0:0:0:0:
124,124,165137,1,0,0:0:0:0:
124,124,165613,1,8,0:0:0:0:
124,124,165851,1,8,0:0:0:0:
124,124,166090,1,0,0:0:0:0:
124,124,166328,1,0,0:0:0:0:
124,124,166447,1,8,0:0:0:0:
124,124,166566,1,0,0:0:0:0:
124,124,166804,1,0,0:0:0:0:
124,124,166923,1,8,0:0:0:0:
124,124,167042,1,0,0:0:0:0:
124,124,167280,1,0,0:0:0:0:
124,124,167519,1,8,0:0:0:0:
124,124,167757,1,8,0:0:0:0:
124,124,167995,1,0,0:0:0:0:
124,124,168471,1,8,0:0:0:0:
124,124,168710,1,8,0:0:0:0:
124,124,168948,1,0,0:0:0:0:
124,124,169424,1,8,0:0:0:0:
124,124,169662,1,8,0:0:0:0:
124,124,169901,1,0,0:0:0:0:
124,124,170139,1,0,0:0:0:0:
124,124,170258,1,0,0:0:0:0:
124,124,170377,1,8,0:0:0:0:
124,124,170615,1,0,0:0:0:0:
124,124,170734,1,0,0:0:0:0:
124,124,170853,1,0,0:0:0:0:
124,124,171091,1,8,0:0:0:0:
124,124,171330,1,8,0:0:0:0:
124,124,171568,1,0,0:0:0:0:
124,124,171806,1,0,0:0:0:0:
124,124,172282,1,8,0:0:0:0:
124,124,172521,1,8,0:0:0:0:
124,124,172759,1,0,0:0:0:0:
124,124,173235,1,8,0:0:0:0:
124,124,173473,1,0,0:0:0:0:
124,124,173712,1,8,0:0:0:0:
124,124,173950,1,0,0:0:0:0:
124,124,174069,1,0,0:0:0:0:
124,124,174188,1,8,0:0:0:0:
124,124,174426,1,8,0:0:0:0:
124,124,174545,1,8,0:0:0:0:
124,124,174664,1,0,0:0:0:0:
124,124,174902,1,0,0:0:0:0:
124,124,175022,1,0,0:0:0:0:
124,124,175141,1,8,0:0:0:0:
124,124,175379,1,8,0:0:0:0:
256,192,175617,5,0,0:0:0:0:
256,192,175855,1,2,0:0:0:0:
256,192,176094,1,12,0:0:0:0:
256,192,176332,1,0,0:0:0:0:
256,192,176570,1,0,0:0:0:0:
256,192,176808,1,0,0:0:0:0:
256,192,177046,1,2,0:0:0:0:
256,192,177284,1,0,0:0:0:0:
256,192,177404,1,0,0:0:0:0:
256,192,177523,1,0,0:0:0:0:
256,192,177761,1,2,0:0:0:0:
256,192,177999,1,2,0:0:0:0:
256,192,178118,1,0,0:0:0:0:
256,192,178237,1,0,0:0:0:0:
256,192,178714,1,0,0:0:0:0:
256,192,178952,1,0,0:0:0:0:
256,192,179190,1,2,0:0:0:0:
256,192,179309,1,2,0:0:0:0:
256,192,179428,1,2,0:0:0:0:
256,192,179905,1,0,0:0:0:0:
256,192,180143,1,0,0:0:0:0:
256,192,180381,1,2,0:0:0:0:
256,192,180857,1,2,0:0:0:0:
256,192,181334,1,0,0:0:0:0:
256,192,181810,1,0,0:0:0:0:
256,192,181929,1,2,0:0:0:0:
256,192,182048,1,0,0:0:0:0:
256,192,182525,1,0,0:0:0:0:
256,192,182644,1,0,0:0:0:0:
256,192,182763,1,2,0:0:0:0:
256,192,183001,1,0,0:0:0:0:
256,192,183239,1,2,0:0:0:0:
256,192,183477,1,2,0:0:0:0:
256,192,183716,1,2,0:0:0:0:
256,192,183835,1,0,0:0:0:0:
256,192,183954,1,0,0:0:0:0:
256,192,184192,1,0,0:0:0:0:
256,192,184668,1,0,0:0:0:0:
256,192,184907,1,2,0:0:0:0:
256,192,185145,1,0,0:0:0:0:
256,192,185383,1,2,0:0:0:0:
256,192,185621,1,0,0:0:0:0:
256,192,185740,1,0,0:0:0:0:
256,192,185859,1,2,0:0:0:0:
256,192,186336,1,0,0:0:0:0:
256,192,186574,1,0,0:0:0:0:
256,192,186812,1,0,0:0:0:0:
256,192,186931,1,0,0:0:0:0:
256,192,187050,1,2,0:0:0:0:
256,192,187288,1,2,0:0:0:0:
256,192,187527,1,2,0:0:0:0:
256,192,187765,1,0,0:0:0:0:
256,192,188003,1,2,0:0:0:0:
256,192,188122,1,2,0:0:0:0:
256,192,188241,1,2,0:0:0:0:
256,192,188479,1,2,0:0:0:0:
256,192,188718,1,0,0:0:0:0:
256,192,188956,1,2,0:0:0:0:
256,192,189194,1,0,0:0:0:0:
256,192,189313,1,0,0:0:0:0:
256,192,189432,1,0,0:0:0:0:
256,192,189670,1,0,0:0:0:0:
256,192,189909,1,0,0:0:0:0:
256,192,190147,1,0,0:0:0:0:
256,192,190385,1,2,0:0:0:0:
256,192,190623,1,2,0:0:0:0:
256,192,190861,12,0,192290,0:0:0:0:
256,192,192529,5,2,0:0:0:0:
256,192,193005,1,2,0:0:0:0:
256,192,193481,1,0,0:0:0:0:
256,192,193958,1,0,0:0:0:0:
256,192,194196,1,2,0:0:0:0:
256,192,194315,1,2,0:0:0:0:
256,192,194434,1,2,0:0:0:0:
256,192,194672,12,0,196101,0:0:0:0:
256,192,196340,5,2,0:0:0:0:
256,192,196578,1,0,0:0:0:0:
256,192,196816,1,2,0:0:0:0:
256,192,197292,1,2,0:0:0:0:
256,192,197769,1,0,0:0:0:0:
256,192,198245,1,0,0:0:0:0:
256,192,198364,1,0,0:0:0:0:
256,192,198483,1,0,0:0:0:0:
256,192,198960,1,0,0:0:0:0:
256,192,199198,1,2,0:0:0:0:
256,192,199675,1,0,0:0:0:0:
256,192,199913,1,2,0:0:0:0:
256,192,200152,1,0,0:0:0:0:
256,192,200627,1,0,0:0:0:0:
256,192,200865,1,2,0:0:0:0:
256,192,201103,1,2,0:0:0:0:
256,192,201580,1,0,0:0:0:0:
256,192,201818,1,0,0:0:0:0:
256,192,202056,1,2,0:0:0:0:
256,192,202294,1,2,0:0:0:0:
256,192,202533,1,2,0:0:0:0:
256,192,202771,1,0,0:0:0:0:
256,192,203009,1,2,0:0:0:0:
256,192,203128,1,2,0:0:0:0:
256,192,203247,1,2,0:0:0:0:
256,192,203485,1,2,0:0:0:0:
256,192,203724,1,0,0:0:0:0:
256,192,203962,1,2,0:0:0:0:
256,192,204081,1,2,0:0:0:0:
256,192,204199,1,2,0:0:0:0:
256,192,204438,1,0,0:0:0:0:
256,192,204915,1,2,0:0:0:0:
256,192,205391,1,2,0:0:0:0:
256,192,205629,1,0,0:0:0:0:
256,192,205867,1,0,0:0:0:0:
