osu file format v9

[General]
AudioFilename: Copia de preview.mp3
AudioLeadIn: 0
PreviewTime: 14891
Countdown: 1
SampleSet: Soft
StackLeniency: 0.7
Mode: 0
LetterboxInBreaks: 1

[Editor]
Bookmarks: 15188
DistanceSpacing: 0.8
BeatDivisor: 4
GridSize: 8

[Metadata]
Title:Dimelo
Artist:Enrique Iglesias
Creator:vivere
Version:Normal
Source:
Tags:darck360 viv

[Difficulty]
HPDrainRate:3
CircleSize:3
OverallDifficulty:3
ApproachRate:3
SliderMultiplier:1.1
SliderTickRate:1

[Events]
//Background and Video events
0,0,"BG.jpg"
//Break Periods
2,32088,36709
2,82175,88883
2,140609,147057
//Storyboard Layer 0 (Background)
//Storyboard Layer 1 (Fail)
//Storyboard Layer 2 (Pass)
//Storyboard Layer 3 (Foreground)
//Storyboard Sound Samples
//Background Colour Transformations
3,100,163,162,255

[TimingPoints]
584,521.739130434783,4,2,1,90,1,0
65275,-100,4,2,0,90,0,1
81971,-100,4,2,1,90,0,0
123710,-100,4,2,0,90,0,1
140406,-100,4,2,0,90,0,0
148753,-100,4,2,0,90,0,1
155014,-200,4,2,0,90,0,0
157101,-100,4,2,0,90,0,1
157623,-100,4,2,0,90,0,0

[Colours]
Combo1 : 248,183,63
Combo2 : 108,251,40
Combo3 : 245,106,14
Combo4 : 103,133,254
SliderBorder : 206,196,75

[HitObjects]
256,192,15192,2,0,B|136:192,2,110,4|0|8
344,192,16757,2,0,B|352:80,1,110
264,80,17801,2,0,B|264:200,1,110,0|8
176,192,18844,2,2,B|168:72,1,110,0|2
80,64,19888,1,0
40,144,20410,1,8
80,224,20931,2,0,B|104:288|176:264,1,110
208,240,21714,6,0,B|208:320,1,55,0|8
248,288,22236,2,0,B|248:344,1,55,0|0
288,344,22757,2,2,B|288:280,1,55,2|2
344,216,23540,5,8
416,144,24062,1,0
344,88,24584,1,8
272,144,25105,1,0
312,224,25627,1,8
232,256,26149,2,0,B|232:336,2,55,0|0|8
192,176,27192,2,0,B|144:136|88:176,2,110,0|8|0
280,184,28757,2,0,B|336:224|384:184,2,110,8|0|8
256,192,30323,12,8,31888
256,192,38149,12,0,40236
256,192,40757,6,0,B|176:192,2,55,0|8|0
296,216,41540,1,8
328,192,41801,1,8
296,112,42323,2,0,B|408:112,2,110,0|8|0
256,96,43627,1,8
216,112,43888,2,0,B|152:128|136:208,1,110,8|0
216,232,44931,6,0,B|248:248|280:224,1,55
360,224,45714,2,0,B|408:224|408:272,2,55,0|8|0
368,184,46497,1,0
408,168,46757,2,0,B|408:56,1,110,2|0
320,64,47801,5,4
320,112,48062,1,8
320,160,48323,1,4
320,208,48584,1,0
240,248,49105,6,0,B|128:176,1,110
80,120,50149,2,0,B|184:184,1,110,0|10
264,208,51192,1,2
296,128,51714,1,2
384,120,52236,1,2
384,32,52757,1,8
416,288,54584,6,0,B|400:320|344:296,1,55
344,264,55105,2,0,B|320:240|280:272,1,55
272,296,55627,2,0,B|240:328|208:296,1,55
192,272,56149,2,0,B|152:264|160:224,1,55
160,192,56670,1,8
256,96,57453,6,0,B|256:224,2,110,8|0|8
336,128,59018,2,0,B|336:248,2,110,0|8|0
416,160,60584,2,0,B|416:288,4,110,8|0|8|0|8
256,192,63192,12,4,65279
256,184,65801,6,10,B|208:160|144:184,1,110,10|2
152,272,66844,2,10,B|200:296|264:272,1,110,10|2
256,184,67888,2,10,B|312:216|376:184,1,110,10|2
368,104,68931,2,10,B|312:72|248:104,1,110,10|2
176,72,69975,2,0,B|120:48,2,55,8|2|0
176,160,71018,2,0,B|112:160,2,55,8|2|0
176,248,72062,2,0,B|128:272,2,55,8|8|10
232,176,73105,1,2
256,256,73627,6,0,B|416:336|528:112|368:32,2,385,12|8|4
320,200,77801,2,0,B|344:120|264:56|184:104,1,220,0|8
192,208,79366,2,0,B|118:211|99:134,1,110,0|4
136,120,80149,6,0,B|136:64,2,55,8|0|0
176,128,80931,2,0,B|216:72,2,55,0|4|4
216,144,81714,1,4
248,176,81975,1,4
256,192,90323,6,0,B|208:160|136:192,1,110,8|0
104,184,91105,1,8
104,96,91627,2,8,B|136:80|160:96,1,55
232,56,92410,5,0
264,88,92670,1,0
296,120,92931,2,8,B|240:120,1,55,8|8
176,184,93714,2,8,B|232:184,1,55,0|8
256,224,94236,1,0
280,264,94497,1,8
192,280,95018,2,0,B|144:312|88:280,2,110,0|0|8
256,192,96323,12,8,98670
256,192,99192,6,0,B|312:192,4,55,0|0|0|8|8
256,192,100757,12,2,102323
256,176,102844,5,8
216,96,103366,2,2,B|192:144|216:216,1,110
304,200,104410,2,2,B|328:152|304:80,1,110,2|10
256,192,105453,12,2,107018
256,192,108062,6,0,B|312:160|320:80,2,110,0|8|0
256,192,109627,2,0,B|200:160|192:80,2,110,0|0|8
256,280,111192,2,0,B|256:336,1,55,0|8
32,192,113279,6,0,B|72:192|72:192|96:224|96:224|128:224,1,110,8|2
168,224,114062,2,0,B|208:224|208:224|232:192|232:192|264:192,1,110,8|2
304,200,114844,2,4,B|336:208|336:208|352:168,1,55
376,152,115366,1,8
376,64,115888,6,0,B|432:64,2,55,2|2|0
336,40,116670,1,8
296,64,116931,2,0,B|224:64|208:128,1,110,8|2
288,152,117975,6,0,B|280:216|216:224,1,110,8|0
184,192,118757,1,8
152,224,119018,2,0,B|96:224,2,55,8|2|8
216,280,120062,5,8
280,216,120583,1,2
344,280,121105,1,8
280,344,121627,1,2
256,192,122149,12,4,123714
256,192,124236,6,0,B|144:192,1,110
144,144,125018,1,8
192,144,125279,2,0,B|304:144,1,110,8|0
336,176,126062,2,0,B|392:176,2,55,8|8|0
336,224,126844,2,0,B|304:272|240:272,1,110,0|8
152,272,127888,6,0,B|88:288|72:216,1,110,0|8
72,128,128931,2,0,B|88:64|152:64,1,110,0|8
192,80,129714,1,2
232,64,129975,1,2
272,80,130236,6,2,B|272:40,2,27.5,2|2|2
304,112,130757,2,2,B|336:88,2,27.5,8|0|8
336,144,131279,2,8,B|368:144,2,27.5
320,184,131801,2,0,B|264:200,1,55,0|4
240,160,132323,6,0,B|184:160,1,55,0|8
144,176,132844,2,0,B|96:200,1,55
80,160,133366,2,8,B|64:104,1,55
112,104,133888,2,0,B|120:64,2,27.5
160,104,134410,6,0,B|232:48|312:104,1,165,0|2
368,176,135714,1,2
360,264,136236,2,2,B|256:336|152:264,2,220,8|2|10
336,224,138583,2,0,B|304:176,1,55
272,160,139105,2,2,B|272:88,1,55
232,80,139627,2,8,B|200:32,3,55,8|8|8|12
256,192,148497,6,2,B|256:160,2,27.5,2|2|6
256,240,149018,2,0,B|216:288|152:264,1,110
120,240,149801,1,0
104,200,150062,1,10
144,176,150323,1,10
232,160,150844,6,0,B|280:88,2,82.5
264,192,151888,1,0
256,232,152149,1,8
288,256,152410,2,0,B|248:296,2,55,8|0|0
328,256,153192,5,0
328,216,153453,1,8
360,184,153714,1,0
352,144,153975,1,0
312,152,154236,1,8
288,112,154497,1,8
312,80,154757,1,0
312,80,155018,2,0,B|256:48|208:80,2,110
