osu file format v9

[General]
AudioFilename: Copia de preview.mp3
AudioLeadIn: 0
PreviewTime: 14891
Countdown: 1
SampleSet: Soft
StackLeniency: 0.9
Mode: 0
LetterboxInBreaks: 1

[Editor]
Bookmarks: 23536,25623,26145,28232
DistanceSpacing: 1
BeatDivisor: 4
GridSize: 8

[Metadata]
Title:Dimelo
Artist:Enrique Iglesias
Creator:vivere
Version:Hard
Source:
Tags:darck360 viv

[Difficulty]
HPDrainRate:4
CircleSize:4
OverallDifficulty:5
ApproachRate:7
SliderMultiplier:1.4
SliderTickRate:1

[Events]
//Background and Video events
0,0,"BG.jpg"
//Break Periods
2,82175,89423
2,140610,147597
//Storyboard Layer 0 (Background)
//Storyboard Layer 1 (Fail)
//Storyboard Layer 2 (Pass)
//Storyboard Layer 3 (Foreground)
//Storyboard Sound Samples
//Background Colour Transformations
3,100,163,162,255

[TimingPoints]
584,521.739130434783,4,2,1,90,1,0
65275,-100,4,2,0,90,0,1
81971,-100,4,2,0,90,0,0
90319,-100,4,2,1,90,0,0
123710,-100,4,2,0,90,0,1
140406,-100,4,2,0,90,0,0
148753,-100,4,2,0,90,0,1
155014,-100,4,2,0,90,0,0
157101,-100,4,2,0,90,0,1
157623,-100,4,2,0,90,0,0

[Colours]
Combo1 : 248,183,63
Combo2 : 108,251,40
Combo3 : 245,106,14
Combo4 : 103,133,254
SliderBorder : 206,196,75

[HitObjects]
48,192,15192,2,0,B|117:239|192:192,1,140,4|0
144,136,15975,1,0
160,64,16236,2,0,B|320:64,3,140,0|8|0|0
368,48,18062,2,0,B|416:40|416:88,1,70
400,152,18584,2,8,B|352:168|376:208,1,70
400,272,19105,5,0
344,320,19366,1,0
288,272,19627,1,0
232,224,19888,1,8
288,176,20149,1,0
224,136,20410,5,0
288,104,20670,1,8
348,140,20931,1,8
288,176,21192,1,0
352,208,21453,2,0,B|288:264|224:208,3,140,2|0|0|8
288,168,23279,5,0
256,104,23540,1,2
224,112,23670,1,2
200,136,23801,1,2
200,208,24062,1,8
136,240,24323,2,0,B|136:160,1,70
136,96,24844,1,8
136,96,24975,1,0
136,96,25105,2,0,B|192:32|256:32,1,140,8|2
256,32,25888,5,2
256,104,26149,1,8
288,112,26279,1,0
312,136,26410,1,0
312,208,26670,1,2
376,240,26931,2,0,B|376:160,1,70,8|8
376,96,27453,1,2
376,96,27584,1,2
376,96,27714,2,0,B|304:48|256:120,1,140,8|0
256,192,28497,5,0
256,264,28757,1,0
256,336,29018,1,8
200,296,29279,1,8
256,264,29540,1,0
320,296,29801,2,0,B|424:160|320:40,2,280
272,240,32149,5,0
248,216,32279,1,0
224,192,32410,1,8
144,192,32670,1,0
104,136,32931,2,0,B|104:72|184:72|256:72|256:136,1,210
328,136,33975,2,0,B|400:96|400:96|464:136|464:136|448:208|352:216,1,280
312,200,35279,6,0,B|304:256,2,35,8|0|8
240,200,35801,1,0
184,152,36062,1,0
136,208,36323,1,0
184,152,36584,1,8
128,112,36844,1,0
184,152,37105,1,0
224,96,37366,1,8
184,152,37627,1,8
256,152,37888,6,0,B|256:296,1,140,0|0
328,280,38670,2,0,B|328:136,3,140,8|0|0|0
288,80,40497,1,0
224,56,40757,2,0,B|136:56|136:152,1,140,8|0
136,216,41540,1,8
136,248,41670,1,0
136,280,41801,1,8
280,288,42323,6,0,B|280:216,1,70
352,216,42844,2,0,B|432:184,1,70,8|0
408,120,43366,1,0
360,64,43627,2,8,B|288:64,1,70
152,56,44410,6,0,B|104:120|152:184,2,140,0|8|0
216,88,45714,1,8
200,120,45844,1,0
216,152,45975,1,8
280,120,46236,5,2
216,88,46497,1,2
224,16,46757,1,0
280,56,47018,2,8,B|344:112|408:56,2,140,8|4|8
208,56,48323,2,0,B|128:56,2,70
280,56,49105,5,8
328,112,49366,1,0
328,144,49497,1,0
328,176,49627,1,8
256,192,49888,2,0,B|192:224|120:192,1,140
80,136,50670,1,8
120,80,50931,2,0,B|192:48|256:80,1,140,0|0
256,80,51714,1,0
312,120,51975,1,8
256,160,52236,1,8
376,224,52757,5,0
352,288,53018,1,0
352,288,53279,2,0,B|192:288,1,140,8|0
208,216,54062,1,8
240,216,54192,1,0
272,216,54323,1,8
304,216,54453,1,0
336,216,54584,1,0
344,144,54844,6,0,B|192:144,1,140,0|8
136,144,55627,2,0,B|48:128|64:32,1,140,0|2
128,72,56410,1,2
128,72,56670,1,2
128,72,56931,2,0,B|265:21|408:72,1,280,4|0
392,136,58236,5,8
336,176,58497,1,8
264,184,58757,1,0
192,176,59018,2,0,B|264:24,3,140,0|8|0|8
256,192,60844,12,0,62931
256,192,63192,6,0,B|256:112,4,70,0|8|8|0|8
216,248,64497,1,8
200,280,64627,1,0
224,304,64757,1,8
256,312,64888,1,8
288,304,65018,1,8
312,280,65149,1,0
296,248,65279,1,8
288,176,65540,6,0,B|352:120|416:176,1,140
416,248,66323,1,8
416,320,66584,2,0,B|352:376|288:320,1,140,0|0
224,320,67366,1,8
192,256,67627,2,0,B|144:96,1,140
88,96,68410,1,0
136,40,68670,1,8
168,32,68801,1,0
176,64,68931,1,8
352,32,69453,6,0,B|512:168|352:368,1,350,0|8
371,342,71018,1,8
371,342,71279,1,0
371,342,71540,1,0
304,320,71801,6,8,B|288:288,2,35,8|0|8
240,296,72323,2,8,B|224:264,2,35,8|0|8
176,272,72844,2,8,B|160:232,6,35,8|8|8|8|8|8|4
104,280,73888,5,2
72,216,74149,1,2
104,152,74410,1,0
160,200,74670,1,0
216,152,74931,1,8
280,120,75192,1,8
264,48,75453,1,2
280,16,75583,1,2
312,32,75714,1,4
376,64,75975,5,0
448,72,76236,2,0,B|488:136|488:136|488:208,1,140
416,200,77018,2,0,B|320:240|208:200,1,210,0|4
152,160,78062,2,0,B|104:160|56:120|56:120|104:80|168:80,1,210,0|4
208,40,79105,1,0
264,80,79366,1,0
320,40,79627,2,0,B|320:-8,2,35,0|0|4
384,72,80149,5,8
384,72,80279,1,0
384,72,80410,1,8
408,136,80670,2,0,B|448:136,2,35,8|0|12
344,168,81192,1,8
312,152,81323,1,8
280,168,81453,1,8
248,160,81583,1,0
208,168,81714,1,8
176,176,81844,1,8
144,176,81975,1,4
256,192,90323,5,4
184,192,90583,1,0
152,192,90714,1,0
120,192,90844,1,8
120,120,91105,1,0
192,120,91366,1,0
264,120,91627,1,8
336,120,91888,1,8
336,192,92149,1,0
336,264,92410,6,0,B|240:232|176:312|48:264,2,280,0|4|0
336,192,94757,2,0,B|376:136,1,70,0|8
304,136,95279,2,0,B|256:200,1,70,0|0
272,264,95801,1,8
304,280,95931,1,0
336,264,96062,1,8
400,296,96323,6,0,B|472:296,1,70,0|8
440,232,96844,1,0
440,160,97105,1,2
368,160,97366,1,10
368,88,97627,1,2
312,48,97888,1,12
256,96,98149,1,12
312,144,98410,1,8
240,152,98670,5,4
240,152,98801,1,2
240,152,98931,2,0,B|176:216|240:280,2,140,2|0|8
168,152,100236,1,8
208,96,100497,1,0
280,96,100757,2,0,B|440:96,1,140,0|8
488,96,101540,1,0
456,160,101801,2,0,B|456:312,1,140,0|8
392,320,102583,1,0
328,296,102844,2,0,B|328:152,1,140,0|8
256,192,103627,12,8,107018
192,168,108062,6,0,B|256:120|328:168,2,140,0|8|0
144,224,109366,1,0
144,224,109627,1,8
144,224,109888,1,0
192,280,110149,2,0,B|256:320|328:280,2,140,0|8|0
144,328,111453,1,0
88,280,111714,1,8
80,208,111975,1,0
224,208,112497,2,8,B|256:184|296:208,1,70
416,136,113279,5,0
448,200,113540,1,0
408,256,113801,2,0,B|312:256|296:144,1,140,8|0
304,180,114453,1,0
304,180,114583,2,0,B|272:56|136:88,1,210
152,160,115627,5,0
208,208,115888,1,8
256,160,116149,1,0
304,208,116410,1,0
304,208,116670,1,8
256,256,116931,1,8
208,208,117192,1,0
256,160,117453,1,0
304,208,117714,1,0
360,160,117975,2,8,B|312:64|200:32|88:72,1,280
120,136,119279,5,0
120,168,119410,1,0
120,200,119540,1,0
184,232,119801,2,0,B|184:296,2,35,0|0|8
248,200,120323,1,0
248,168,120453,1,0
248,136,120583,1,0
304,88,120844,2,0,B|304:40,2,35,0|0|8
360,136,121366,1,0
256,192,121627,12,4,123714
224,32,124236,6,0,B|176:96|224:176,1,140,8|0
280,144,125018,1,8
328,192,125279,1,8
280,240,125540,1,0
216,216,125801,2,8,B|168:280|200:360,1,140
264,328,126583,1,0
320,288,126844,2,0,B|400:144,2,140,0|8|0
296,224,128149,1,0
240,176,128410,1,8
168,160,128670,1,0
120,104,128931,2,0,B|400:104,1,280
392,176,130236,5,8
424,176,130366,1,0
424,208,130497,1,8
360,232,130757,1,8
360,232,130888,1,0
360,232,131018,1,8
312,176,131279,1,8
280,192,131410,1,0
248,208,131540,1,8
280,224,131670,1,0
312,240,131801,1,8
280,256,131931,1,8
248,272,132062,1,12
184,304,132323,6,0,B|120:256,1,70,0|8
128,192,132844,2,0,B|200:138,1,70,0|8
184,80,133366,2,0,B|120:32,1,70,8|8
184,80,133888,2,0,B|240:40,1,70,0|8
312,48,134410,1,0
360,96,134670,1,8
376,160,134931,1,0
344,224,135192,1,0
352,296,135453,2,8,B|384:320|416:296,1,70
432,224,135975,5,0
488,176,136236,1,8
432,128,136497,1,0
376,176,136757,1,8
320,224,137018,1,0
376,272,137279,1,0
320,224,137540,1,8
264,272,137801,1,8
320,320,138062,1,0
264,272,138323,1,4
256,192,138583,12,4,140410
256,192,148497,5,0
224,192,148627,1,0
192,192,148757,1,4
120,192,149018,2,0,B|120:144,1,35,8|0
96,128,149279,2,0,B|64:88,1,35,8|0
112,96,149540,2,0,B|104:56,1,35
136,72,149801,2,0,B|152:40,1,35,8|0
176,64,150062,2,8,B|224:32,2,35,8|8|4
224,120,150583,5,0
176,176,150844,1,0
232,216,151105,1,0
264,200,151236,1,8
280,168,151366,2,0,B|352:168,3,70,0|0|4|8
416,192,152410,2,8,B|416:48,1,140,8|4
352,16,153192,5,0
288,48,153453,1,0
264,112,153714,1,0
192,120,153975,2,0,B|144:40,2,70,4|0|0
120,128,154757,1,0
96,152,154888,1,0
120,176,155018,1,4
192,176,155279,5,2
224,240,155540,5,2
256,176,155801,5,0
288,112,156062,5,0
320,176,156323,5,2
352,240,156583,5,2
384,176,156844,5,2
408,112,157105,5,8
