osu file format v12

[General]
AudioFilename: 01. .mp3
AudioLeadIn: 0
PreviewTime: -1
Countdown: 0
SampleSet: Normal
StackLeniency: 0.7
Mode: 0
LetterboxInBreaks: 1
WidescreenStoryboard: 1

[Editor]
DistanceSpacing: 0.8
BeatDivisor: 4
GridSize: 4
TimelineZoom: 1

[Metadata]
Title:monochrome overdrive
TitleUnicode:モノクロームオーバードライブ
Artist:Endo Yurika
ArtistUnicode:遠藤ゆりか
Creator:promise5201314
Version:The Match
Source:Z/X IGNITION
Tags:anime 2014
BeatmapID:404797
BeatmapSetID:160412

[Difficulty]
HPDrainRate:5
CircleSize:3
OverallDifficulty:5
ApproachRate:5
SliderMultiplier:1.5
SliderTickRate:2

[Events]
//Background and Video events
0,0,"story_chara.png",0,0
//Break Periods
2,12481,21915
2,121981,125915
2,156648,163248
//Storyboard Layer 0 (Background)
//Storyboard Layer 1 (Fail)
//Storyboard Layer 2 (Pass)
//Storyboard Layer 3 (Foreground)
//Storyboard Sound Samples
//Background Colour Transformations
3,100,255,255,255

[TimingPoints]
1782,333.333333333333,4,1,0,100,1,0
23142,-100,4,1,0,45,0,1
45771,-100,4,1,0,45,0,0
76993,-100,4,1,0,100,0,0
118821,-100,4,1,0,100,0,0
178701,-100,4,1,0,100,0,1
179664,-100,4,1,0,100,0,1
200096,-100,4,1,0,100,0,0
200351,-100,4,1,0,100,0,1
205405,-100,4,1,0,100,0,1

[Colours]
Combo1 : 206,0,0
Combo2 : 240,240,240
Combo3 : 24,0,47
Combo4 : 41,47,254
Combo5 : 0,230,103

[HitObjects]
132,293,1615,6,0,P|88:242|124:168,1,150
141,184,2281,2,0,P|197:201|256:138,1,150
263,106,2948,2,0,P|301:84|355:177,1,150
360,182,3615,2,0,P|345:255|252:282,1,150
227,288,4448,5,0,0:0:0:0:
177,255,4781,1,0,0:0:0:0:
152,210,5115,1,0,0:0:0:0:
149,158,5448,1,0,0:0:0:0:
177,109,5781,1,0,0:0:0:0:
225,88,6115,1,0,0:0:0:0:
279,97,6448,1,0,0:0:0:0:
324,122,6781,1,0,0:0:0:0:
354,168,7115,6,0,L|284:235,4,75
290,225,8115,1,0,0:0:0:0:
256,222,8448,2,0,L|171:166,4,75
163,162,9448,1,0,0:0:0:0:
256,192,9781,12,0,12281,0:0:0:0:
69,69,23115,6,0,L|162:109,2,75
186,110,23781,1,0,0:0:0:0:
230,86,24115,1,0,0:0:0:0:
284,75,24448,2,0,L|375:90,4,75
270,131,25448,5,0,0:0:0:0:
281,180,25781,1,0,0:0:0:0:
291,231,26115,1,0,0:0:0:0:
250,264,26448,1,0,0:0:0:0:
184,269,26781,1,0,0:0:0:0:
133,248,27115,2,0,P|97:180|106:158,4,75
162,190,28115,5,0,0:0:0:0:
198,156,28448,1,0,0:0:0:0:
245,138,28781,1,0,0:0:0:0:
301,168,29115,1,0,0:0:0:0:
352,158,29448,2,0,L|432:158,2,75
350,235,30115,2,0,L|438:237,2,75
285,254,30781,5,0,0:0:0:0:
225,262,31115,1,0,0:0:0:0:
171,246,31448,1,0,0:0:0:0:
141,197,31781,1,0,0:0:0:0:
146,147,32115,1,0,0:0:0:0:
256,192,32448,12,0,33781,0:0:0:0:
243,193,34115,5,0,0:0:0:0:
243,193,34448,2,0,P|187:144|112:123,1,150
243,193,35115,1,0,0:0:0:0:
243,193,35448,5,0,0:0:0:0:
243,193,35781,2,0,P|274:149|371:124,1,150
243,193,36448,1,0,0:0:0:0:
243,193,36781,5,0,0:0:0:0:
243,193,37115,2,0,P|186:213|119:291,1,150
243,193,37781,1,0,0:0:0:0:
243,193,38115,1,0,0:0:0:0:
243,193,38448,2,0,P|299:233|348:311,1,150
354,247,39115,6,0,B|390:213|390:213|315:136,1,150
287,130,39781,2,0,B|223:84|222:93|132:157,1,150
156,180,40448,2,0,B|122:235|119:239|205:288,1,150
241,294,41115,2,0,B|303:266|303:266|286:184,1,150
274,145,41781,5,0,0:0:0:0:
227,133,42115,1,0,0:0:0:0:
171,149,42448,1,0,0:0:0:0:
146,189,42781,1,0,0:0:0:0:
256,192,43115,12,0,44448,0:0:0:0:
254,184,44781,5,0,0:0:0:0:
161,126,45448,1,0,0:0:0:0:
277,97,46115,1,0,0:0:0:0:
349,149,46781,1,0,0:0:0:0:
255,183,47448,5,0,0:0:0:0:
167,239,48115,1,0,0:0:0:0:
252,293,48781,1,0,0:0:0:0:
336,269,49448,1,0,0:0:0:0:
105,155,49781,5,0,0:0:0:0:
105,155,50115,1,0,0:0:0:0:
105,155,50448,1,0,0:0:0:0:
165,189,50781,1,0,0:0:0:0:
215,174,51115,5,0,0:0:0:0:
215,174,51448,1,0,0:0:0:0:
215,174,51781,1,0,0:0:0:0:
281,140,52115,1,0,0:0:0:0:
342,184,52448,5,0,0:0:0:0:
342,184,52781,1,0,0:0:0:0:
342,184,53115,1,0,0:0:0:0:
311,243,53448,1,0,0:0:0:0:
259,268,53781,2,0,P|221:268|139:175,3,150
141,147,55115,5,0,0:0:0:0:
173,124,55781,1,0,0:0:0:0:
214,123,56448,1,0,0:0:0:0:
245,155,57115,1,0,0:0:0:0:
245,251,57781,1,0,0:0:0:0:
308,228,58448,1,0,0:0:0:0:
348,196,59115,1,0,0:0:0:0:
368,144,59781,1,0,0:0:0:0:
312,122,60448,6,0,B|228:100|176:159|151:178,3,150
146,201,61781,1,0,0:0:0:0:
172,248,62115,1,0,0:0:0:0:
233,275,62448,1,0,0:0:0:0:
276,246,62781,1,0,0:0:0:0:
294,210,63115,2,0,P|332:178|259:131,3,150
230,129,64448,5,0,0:0:0:0:
179,155,64781,1,0,0:0:0:0:
133,169,65115,1,0,0:0:0:0:
112,205,65448,1,0,0:0:0:0:
133,227,65781,6,0,B|174:266|260:209|260:209|253:34,3,300
283,271,68115,1,0,0:0:0:0:
460,248,68448,6,0,B|346:244|336:212|336:212|329:37,3,300
266,80,70781,1,0,0:0:0:0:
205,116,71115,1,0,0:0:0:0:
257,188,71448,1,0,0:0:0:0:
257,188,71781,1,0,0:0:0:0:
144,224,72115,1,0,0:0:0:0:
144,224,72448,1,0,0:0:0:0:
234,291,72781,1,0,0:0:0:0:
234,291,73115,1,0,0:0:0:0:
297,262,73448,1,0,0:0:0:0:
256,192,73781,12,0,76448,0:0:0:0:
61,66,76781,5,0,0:0:0:0:
105,83,77115,1,0,0:0:0:0:
151,97,77448,1,0,0:0:0:0:
186,131,77781,1,0,0:0:0:0:
214,162,78115,1,0,0:0:0:0:
241,189,78448,2,0,L|318:129,2,75
326,116,79115,5,0,0:0:0:0:
368,120,79448,1,0,0:0:0:0:
391,166,79781,1,0,0:0:0:0:
377,211,80115,1,0,0:0:0:0:
345,252,80448,2,0,L|254:224,2,75
219,243,81115,5,0,0:0:0:0:
188,263,81448,1,0,0:0:0:0:
140,244,81781,1,0,0:0:0:0:
134,205,82115,1,0,0:0:0:0:
128,161,82448,1,0,0:0:0:0:
173,127,82781,1,0,0:0:0:0:
210,110,83115,2,0,L|303:77,2,75
258,142,83781,5,0,0:0:0:0:
297,167,84115,1,0,0:0:0:0:
315,213,84448,1,0,0:0:0:0:
276,252,84781,1,0,0:0:0:0:
226,262,85115,1,0,0:0:0:0:
176,257,85448,2,0,P|135:226|125:118,3,150
153,97,86781,5,0,0:0:0:0:
199,109,87115,1,0,0:0:0:0:
245,86,87448,1,0,0:0:0:0:
288,130,87781,1,0,0:0:0:0:
340,111,88115,2,0,P|373:155|303:216,3,150
272,218,89448,5,0,0:0:0:0:
221,215,89781,1,0,0:0:0:0:
163,213,90115,1,0,0:0:0:0:
130,252,90448,1,0,0:0:0:0:
156,293,90781,1,0,0:0:0:0:
200,300,91115,2,0,P|264:272|236:192,3,150
248,160,92448,5,0,0:0:0:0:
296,136,92781,1,0,0:0:0:0:
328,168,93115,1,0,0:0:0:0:
336,220,93448,1,0,0:0:0:0:
280,244,93781,1,0,0:0:0:0:
236,252,94115,1,0,0:0:0:0:
192,244,94448,2,0,P|152:220|192:132,1,150
256,192,95115,12,0,97781,0:0:0:0:
240,188,98448,5,0,0:0:0:0:
248,148,99115,2,0,P|200:112|168:132,4,75
304,128,100448,1,0,0:0:0:0:
332,152,101115,1,0,0:0:0:0:
344,204,101781,1,0,0:0:0:0:
288,248,102448,1,0,0:0:0:0:
152,264,103115,5,0,0:0:0:0:
164,220,103448,1,0,0:0:0:0:
152,176,103781,1,0,0:0:0:0:
152,128,104115,1,0,0:0:0:0:
256,264,104448,1,0,0:0:0:0:
256,208,104781,1,0,0:0:0:0:
260,148,105115,1,0,0:0:0:0:
260,100,105448,1,0,0:0:0:0:
256,192,105781,12,0,108448,0:0:0:0:
52,80,108781,5,0,0:0:0:0:
96,96,109115,1,0,0:0:0:0:
136,60,109448,1,0,0:0:0:0:
152,164,109781,5,0,0:0:0:0:
196,132,110115,1,0,0:0:0:0:
236,176,110448,1,0,0:0:0:0:
276,144,110781,1,0,0:0:0:0:
356,228,111115,5,0,0:0:0:0:
296,264,111448,1,0,0:0:0:0:
236,236,111781,1,0,0:0:0:0:
184,280,112115,1,0,0:0:0:0:
136,288,112448,2,0,P|80:264|68:228,4,75
112,216,113781,5,0,0:0:0:0:
140,176,114448,1,0,0:0:0:0:
164,140,115115,1,0,0:0:0:0:
208,160,115781,1,0,0:0:0:0:
256,196,116448,1,0,0:0:0:0:
256,192,116615,12,0,121781,0:0:0:0:
256,188,127115,6,0,L|188:116,2,75
256,188,127781,2,0,L|340:120,2,75
256,188,128448,2,0,L|188:256,2,75
256,188,129115,2,0,L|336:256,2,75
88,128,129781,5,0,0:0:0:0:
88,128,130115,1,0,0:0:0:0:
248,104,130448,1,0,0:0:0:0:
248,104,130781,1,0,0:0:0:0:
324,228,131115,5,0,0:0:0:0:
324,228,131448,1,0,0:0:0:0:
184,248,131781,1,0,0:0:0:0:
184,248,132115,1,0,0:0:0:0:
112,172,132781,6,0,P|116:116|204:136,1,150
240,120,133448,1,0,0:0:0:0:
240,120,133781,1,0,0:0:0:0:
280,104,134115,6,0,P|320:108|324:200,1,150
296,220,134781,1,0,0:0:0:0:
296,220,135115,1,0,0:0:0:0:
240,240,135448,6,0,P|184:232|152:148,1,150
164,104,136115,1,0,0:0:0:0:
164,104,136448,1,0,0:0:0:0:
216,72,136781,6,0,P|264:60|308:148,1,150
356,164,137448,1,0,0:0:0:0:
356,164,137781,1,0,0:0:0:0:
340,208,138115,6,0,P|304:264|200:256,1,150
176,264,138781,1,0,0:0:0:0:
176,264,139115,1,0,0:0:0:0:
132,224,139448,6,0,P|88:168|140:116,1,150
176,104,140115,1,0,0:0:0:0:
176,104,140448,1,0,0:0:0:0:
220,128,140781,6,0,P|264:224|232:248,3,150
256,280,142115,2,0,P|304:316|376:268,3,150
372,232,143448,1,0,0:0:0:0:
352,192,143781,1,0,0:0:0:0:
312,176,144115,1,0,0:0:0:0:
264,152,144448,1,0,0:0:0:0:
224,136,144781,6,0,P|144:148|148:208,1,150
136,240,145448,1,0,0:0:0:0:
164,276,145781,1,0,0:0:0:0:
224,284,146115,1,0,0:0:0:0:
276,272,146448,1,0,0:0:0:0:
312,248,146781,1,0,0:0:0:0:
324,200,147115,6,0,P|296:152|208:144,3,150
168,160,148448,1,0,0:0:0:0:
140,200,148781,1,0,0:0:0:0:
136,248,149115,1,0,0:0:0:0:
156,292,149448,1,0,0:0:0:0:
212,280,149781,5,0,0:0:0:0:
264,292,150115,1,0,0:0:0:0:
312,264,150448,1,0,0:0:0:0:
340,212,150781,2,0,L|272:172,2,75
256,192,151281,12,0,152781,0:0:0:0:
112,200,153781,6,0,L|192:128,2,75
216,152,154448,2,0,L|272:236,2,75
296,128,155115,1,0,0:0:0:0:
256,192,155281,12,0,156448,0:0:0:0:
80,200,164448,6,0,P|96:144|180:132,1,150
204,164,165115,2,0,P|232:236|292:204,1,150
312,188,165781,1,0,0:0:0:0:
332,124,166115,1,0,0:0:0:0:
284,88,166448,1,0,0:0:0:0:
220,72,166781,1,0,0:0:0:0:
164,92,167115,6,0,P|128:136|160:236,3,150
184,248,168448,1,0,0:0:0:0:
236,252,168781,1,0,0:0:0:0:
296,248,169115,1,0,0:0:0:0:
344,256,169448,1,0,0:0:0:0:
376,220,169781,6,0,P|404:184|360:88,3,150
316,96,171115,1,0,0:0:0:0:
252,104,171448,1,0,0:0:0:0:
184,112,171781,1,0,0:0:0:0:
128,108,172115,1,0,0:0:0:0:
104,144,172448,6,0,L|80:216,2,75
160,196,173115,2,0,L|120:284,2,75
240,208,173781,2,0,L|232:304,2,75
304,208,174281,1,0,0:0:0:0:
360,208,174448,2,0,L|368:316,2,75
304,120,175115,5,0,0:0:0:0:
244,108,175448,1,0,0:0:0:0:
188,140,175781,1,0,0:0:0:0:
168,200,176115,1,0,0:0:0:0:
228,236,176448,1,0,0:0:0:0:
256,192,176615,12,0,179615,0:0:0:0:
80,104,179781,5,0,0:0:0:0:
144,152,180115,1,0,0:0:0:0:
204,204,180448,1,0,0:0:0:0:
268,252,180781,1,0,0:0:0:0:
336,296,181115,1,0,0:0:0:0:
336,296,181448,1,0,0:0:0:0:
336,296,181781,1,0,0:0:0:0:
408,236,182115,6,0,P|384:200|276:216,1,150
248,228,182781,2,0,P|224:264|128:216,1,150
116,200,183448,1,0,0:0:0:0:
136,148,183781,1,0,0:0:0:0:
184,128,184115,1,0,0:0:0:0:
248,124,184448,6,0,L|324:128,2,75
236,208,185115,2,0,L|332:208,2,75
212,248,185781,2,0,L|208:340,2,75
272,248,186281,1,0,0:0:0:0:
324,252,186448,2,0,L|336:352,2,75
416,104,187115,5,0,0:0:0:0:
368,120,187448,1,0,0:0:0:0:
300,104,187781,1,0,0:0:0:0:
244,136,188115,1,0,0:0:0:0:
188,164,188448,2,0,P|144:196|160:304,3,150
196,296,189781,5,0,0:0:0:0:
248,272,190115,1,0,0:0:0:0:
288,256,190448,1,0,0:0:0:0:
336,232,190781,1,0,0:0:0:0:
352,200,191115,2,0,L|352:120,1,75
80,96,191781,5,0,0:0:0:0:
124,128,192115,1,0,0:0:0:0:
176,148,192448,1,0,0:0:0:0:
220,180,192781,1,0,0:0:0:0:
248,228,193115,1,0,0:0:0:0:
304,256,193448,1,0,0:0:0:0:
344,248,193781,6,0,P|408:168|384:140,3,150
340,132,195115,1,0,0:0:0:0:
284,152,195448,1,0,0:0:0:0:
252,192,195781,1,0,0:0:0:0:
208,228,196115,1,0,0:0:0:0:
152,232,196448,1,0,0:0:0:0:
112,268,196781,1,0,0:0:0:0:
112,268,197115,2,0,P|72:200|116:136,1,150
160,128,197781,1,0,0:0:0:0:
256,192,197948,12,0,200448,0:0:0:0:
72,96,200781,6,0,P|132:88|152:168,1,150
188,208,201448,1,0,0:0:0:0:
188,208,201781,1,0,0:0:0:0:
220,236,202115,2,0,P|256:260|280:176,1,150
300,140,202781,5,0,0:0:0:0:
300,140,203115,1,0,0:0:0:0:
348,132,203448,2,0,P|372:184|456:192,1,150
432,240,204115,1,0,0:0:0:0:
432,240,204448,1,0,0:0:0:0:
392,268,204781,2,0,P|352:288|244:240,1,150
208,260,205448,5,0,0:0:0:0:
160,240,205781,1,0,0:0:0:0:
132,176,206448,1,0,0:0:0:0:
184,136,207115,1,0,0:0:0:0:
240,108,207781,1,0,0:0:0:0:
300,140,208448,1,0,0:0:0:0:
256,192,208615,12,0,211115,0:0:0:0:
120,216,211781,5,0,0:0:0:0:
136,168,212448,2,0,P|160:120|224:172,3,150
256,196,213781,1,0,0:0:0:0:
300,232,214448,1,0,0:0:0:0:
348,240,215115,1,0,0:0:0:0:
360,188,215781,1,0,0:0:0:0:
140,184,216448,5,0,0:0:0:0:
140,184,216781,1,0,0:0:0:0:
140,184,217115,1,0,0:0:0:0:
220,184,217448,1,0,0:0:0:0:
296,184,217781,1,0,0:0:0:0:
296,184,218115,1,0,0:0:0:0:
296,184,218448,1,0,0:0:0:0:
368,124,218781,1,0,0:0:0:0:
256,192,219115,12,0,221115,0:0:0:0:
