osu file format v12

[General]
AudioFilename: 01. .mp3
AudioLeadIn: 0
PreviewTime: -1
Countdown: 0
SampleSet: Normal
StackLeniency: 0.7
Mode: 0
LetterboxInBreaks: 1
WidescreenStoryboard: 1

[Editor]
DistanceSpacing: 0.8
BeatDivisor: 4
GridSize: 4
TimelineZoom: 1

[Metadata]
Title:monochrome overdrive
TitleUnicode:モノクロームオーバードライブ
Artist:Endo Yurika
ArtistUnicode:遠藤ゆりか
Creator:promise5201314
Version:The Game
Source:Z/X IGNITION
Tags:anime 2014
BeatmapID:404796
BeatmapSetID:160412

[Difficulty]
HPDrainRate:4
CircleSize:2
OverallDifficulty:4
ApproachRate:4
SliderMultiplier:1.5
SliderTickRate:2

[Events]
//Background and Video events
0,0,"story_chara.png",0,0
//Break Periods
2,12481,21795
2,65981,72461
2,121981,125795
2,156648,165795
//Storyboard Layer 0 (Background)
//Storyboard Layer 1 (Fail)
//Storyboard Layer 2 (Pass)
//Storyboard Layer 3 (Foreground)
//Storyboard Sound Samples
//Background Colour Transformations
3,100,255,255,255

[TimingPoints]
1782,333.333333333333,4,1,0,100,1,0
22971,-166.666666666667,4,1,0,100,0,1
45771,-100,4,1,0,45,0,0
76993,-100,4,1,0,100,0,0
118821,-100,4,1,0,100,0,0
127136,-133.333333333333,4,1,0,100,0,0
178701,-100,4,1,0,100,0,1
179664,-100,4,1,0,100,0,1
200096,-100,4,1,0,100,0,0
200351,-100,4,1,0,100,0,1
205405,-100,4,1,0,100,0,1

[Colours]
Combo1 : 233,233,233
Combo2 : 64,5,88
Combo3 : 60,60,255
Combo4 : 4,140,49
Combo5 : 254,38,7
Combo6 : 174,0,4

[HitObjects]
104,152,1615,6,0,P|164:172|224:104,3,150
244,148,2948,2,0,P|280:188|368:144,3,150
380,108,4448,2,0,P|424:152|288:276,3,300
228,280,7115,1,0,0:0:0:0:
176,256,7781,1,0,0:0:0:0:
136,220,8448,1,0,0:0:0:0:
128,164,9115,1,0,0:0:0:0:
256,192,9781,12,0,12281,0:0:0:0:
44,68,23115,6,0,L|140:72,1,89.9999972534181
168,116,23781,1,0,0:0:0:0:
212,168,24115,1,0,0:0:0:0:
236,208,24448,1,0,0:0:0:0:
284,240,24781,1,0,0:0:0:0:
408,320,25781,6,0,L|304:324,1,89.9999972534181
256,324,26448,1,0,0:0:0:0:
208,304,26781,1,0,0:0:0:0:
156,268,27115,1,0,0:0:0:0:
112,224,27448,1,0,0:0:0:0:
104,152,28448,6,0,P|164:88|224:140,1,179.999994506836
284,80,29781,2,0,P|344:136|300:208,1,179.999994506836
368,268,31115,2,0,P|296:312|200:276,1,179.999994506836
160,220,32448,2,0,L|56:236,4,89.9999972534181
188,172,34448,5,0,0:0:0:0:
220,128,35115,1,0,0:0:0:0:
272,128,35781,1,0,0:0:0:0:
304,168,36448,1,0,0:0:0:0:
332,224,37115,1,0,0:0:0:0:
288,268,37781,1,0,0:0:0:0:
232,276,38448,1,0,0:0:0:0:
180,248,39115,6,0,L|88:192,3,89.9999972534181
132,136,40448,2,0,L|216:192,3,89.9999972534181
268,156,41781,2,0,L|352:96,3,89.9999972534181
392,168,43115,2,0,L|304:232,3,89.9999972534181
256,240,44781,5,0,0:0:0:0:
204,248,45448,1,0,0:0:0:0:
176,200,46115,1,0,0:0:0:0:
180,152,46781,1,0,0:0:0:0:
216,116,47448,1,0,0:0:0:0:
284,112,48115,1,0,0:0:0:0:
332,144,48781,1,0,0:0:0:0:
376,184,49448,1,0,0:0:0:0:
376,184,49781,2,0,P|320:236|232:204,3,150
208,188,51115,5,0,0:0:0:0:
200,148,51781,1,0,0:0:0:0:
216,96,52448,1,0,0:0:0:0:
272,112,53115,1,0,0:0:0:0:
256,188,53781,1,0,0:0:0:0:
208,232,54448,1,0,0:0:0:0:
172,268,55115,6,0,P|232:296|320:256,3,150
336,240,56448,2,0,P|352:188|296:104,3,150
268,104,57781,2,0,P|188:88|120:120,3,150
120,152,59115,2,0,B|136:216|224:272|224:272|224:264,3,150
260,264,60448,5,0,0:0:0:0:
320,232,61115,1,0,0:0:0:0:
340,180,61781,1,0,0:0:0:0:
348,128,62448,1,0,0:0:0:0:
256,192,63115,12,0,65781,0:0:0:0:
256,192,73781,6,0,L|192:112,1,75
256,192,74281,2,0,L|328:116,1,75
260,196,74781,2,0,L|196:280,1,75
216,292,75781,2,0,P|276:304|264:128,1,300
252,112,77115,5,0,0:0:0:0:
204,136,77781,1,0,0:0:0:0:
176,176,78448,1,0,0:0:0:0:
160,224,79115,1,0,0:0:0:0:
188,268,79781,1,0,0:0:0:0:
228,248,80448,1,0,0:0:0:0:
256,204,81115,1,0,0:0:0:0:
272,124,81781,6,0,L|440:128,1,150
408,164,82448,2,0,P|376:220|292:192,1,150
260,208,83115,2,0,L|204:268,2,75
208,168,83781,2,0,L|132:236,2,75
256,192,84448,12,0,87115,0:0:0:0:
116,184,87781,5,0,0:0:0:0:
136,128,88448,1,0,0:0:0:0:
184,120,89115,1,0,0:0:0:0:
204,236,89781,2,0,L|320:112,1,150
356,136,90781,5,0,0:0:0:0:
376,188,91448,1,0,0:0:0:0:
360,236,92115,1,0,0:0:0:0:
336,268,92448,2,0,P|276:272|208:192,3,150
212,176,93781,5,0,0:0:0:0:
280,136,94448,1,0,0:0:0:0:
280,136,94781,1,0,0:0:0:0:
256,192,95115,12,0,97781,0:0:0:0:
260,188,98448,5,0,0:0:0:0:
228,160,99115,2,0,L|112:56,2,150
200,200,100448,1,0,0:0:0:0:
188,256,101115,1,0,0:0:0:0:
232,280,101781,1,0,0:0:0:0:
272,240,102448,1,0,0:0:0:0:
308,184,103115,6,0,L|384:108,4,75
256,176,104448,2,0,L|260:68,4,75
208,212,105781,1,0,0:0:0:0:
256,192,106031,12,0,108448,0:0:0:0:
256,208,109115,5,0,0:0:0:0:
184,232,109781,1,0,0:0:0:0:
124,196,110448,1,0,0:0:0:0:
124,128,111115,2,0,P|176:96|260:160,3,150
256,168,112448,2,0,P|268:216|320:236,4,75
228,224,113781,5,0,0:0:0:0:
208,272,114448,1,0,0:0:0:0:
260,288,115115,1,0,0:0:0:0:
304,252,115781,1,0,0:0:0:0:
256,188,116448,1,0,0:0:0:0:
256,192,116615,12,0,121781,0:0:0:0:
60,72,127115,6,0,L|164:72,2,75
144,144,127781,2,0,L|224:144,2,56.2500021457673
216,216,128448,2,0,L|296:216,2,56.2500021457673
304,288,129115,2,0,L|384:288,2,56.2500021457673
392,240,129781,5,0,0:0:0:0:
360,192,130115,1,0,0:0:0:0:
320,152,130448,1,0,0:0:0:0:
260,136,130781,1,0,0:0:0:0:
200,152,131115,1,0,0:0:0:0:
176,208,131448,1,0,0:0:0:0:
200,264,131781,1,0,0:0:0:0:
256,296,132115,1,0,0:0:0:0:
328,240,132781,6,0,P|288:160|180:212,1,225.000008583069
160,236,134115,2,0,P|236:288|264:188,1,225.000008583069
284,136,135115,1,0,0:0:0:0:
328,132,135781,1,0,0:0:0:0:
340,184,136448,1,0,0:0:0:0:
352,236,137115,1,0,0:0:0:0:
312,272,137781,6,0,P|284:300|248:300,4,56.2500021457673
284,216,139115,2,0,P|248:216|232:248,4,56.2500021457673
312,184,140448,1,0,0:0:0:0:
276,144,141115,1,0,0:0:0:0:
224,128,141781,1,0,0:0:0:0:
212,172,142448,1,0,0:0:0:0:
196,216,143115,6,0,P|240:264|300:160,1,225.000008583069
288,128,144448,2,0,P|212:112|140:224,1,225.000008583069
224,204,145781,2,0,L|256:276,4,56.2500021457673
304,192,146781,1,0,0:0:0:0:
376,204,147115,2,0,L|356:272,4,56.2500021457673
392,132,148115,1,0,0:0:0:0:
344,96,148448,6,0,P|288:84|236:108,3,112.500004291535
208,144,149781,2,0,P|200:200|208:272,3,112.500004291535
256,272,151115,1,0,0:0:0:0:
256,272,151448,1,0,0:0:0:0:
336,264,151781,5,0,0:0:0:0:
336,264,152115,1,0,0:0:0:0:
320,200,152448,5,0,0:0:0:0:
320,200,152781,1,0,0:0:0:0:
52,84,153781,6,0,P|104:72|140:132,3,112.500004291535
168,156,155115,1,0,0:0:0:0:
256,192,155281,12,0,156448,0:0:0:0:
88,64,167115,6,0,L|204:128,1,112.500004291535
224,112,167781,2,0,P|260:152|224:216,1,112.500004291535
208,236,168448,1,0,0:0:0:0:
176,268,168781,1,0,0:0:0:0:
160,304,169115,1,0,0:0:0:0:
460,56,169781,6,0,L|356:120,1,112.500004291535
324,120,170448,2,0,P|288:144|328:208,1,112.500004291535
316,256,171115,1,0,0:0:0:0:
340,284,171448,1,0,0:0:0:0:
368,320,171781,1,0,0:0:0:0:
92,132,172448,6,0,P|60:180|100:228,3,112.500004291535
168,224,173781,2,0,P|192:200|152:136,3,112.500004291535
200,264,175115,2,0,P|204:284|272:264,3,112.500004291535
276,208,176448,1,0,0:0:0:0:
256,192,176615,12,0,179448,0:0:0:0:
256,168,180115,5,0,0:0:0:0:
204,140,180781,1,0,0:0:0:0:
156,112,181448,1,0,0:0:0:0:
264,180,182115,5,0,0:0:0:0:
296,140,182781,1,0,0:0:0:0:
344,104,183448,1,0,0:0:0:0:
272,184,184115,5,0,0:0:0:0:
220,224,184781,1,0,0:0:0:0:
176,256,185448,1,0,0:0:0:0:
256,192,186115,5,0,0:0:0:0:
296,240,186781,1,0,0:0:0:0:
336,276,187448,1,0,0:0:0:0:
384,280,188115,2,0,P|400:232|144:192,1,450
124,240,189781,6,0,L|224:272,4,75
192,108,191115,2,0,L|136:200,4,75
312,184,192448,2,0,L|216:184,4,75
324,316,193781,2,0,L|368:224,4,75
260,304,195115,5,0,0:0:0:0:
204,264,195781,1,0,0:0:0:0:
172,208,196448,1,0,0:0:0:0:
188,156,197115,1,0,0:0:0:0:
256,192,197781,12,0,200448,0:0:0:0:
248,88,200781,5,0,0:0:0:0:
312,112,201115,2,0,L|416:108,2,75,0|0|0,0:0|0:0|0:0,0:0:0:0:
256,140,201781,1,0,0:0:0:0:
244,196,202115,1,0,0:0:0:0:
236,256,202448,2,0,L|140:256,2,75
292,264,203115,5,0,0:0:0:0:
320,216,203448,1,0,0:0:0:0:
332,168,203781,2,0,L|352:84,2,75
288,76,204448,1,0,0:0:0:0:
220,112,204781,1,0,0:0:0:0:
168,152,205115,2,0,L|128:216,2,75
228,224,205781,5,0,0:0:0:0:
272,216,206448,1,0,0:0:0:0:
312,248,207115,1,0,0:0:0:0:
360,272,207781,1,0,0:0:0:0:
380,208,208448,2,0,P|340:148|248:156,7,150
228,152,211115,6,0,L|100:248,1,150
130,262,211781,2,0,L|286:295,1,150
313,272,212448,2,0,L|387:120,1,150
354,103,213115,2,0,L|185:84,1,150
161,107,213781,2,0,P|120:137|137:244,3,150
177,252,215115,5,0,0:0:0:0:
228,223,215448,1,0,0:0:0:0:
263,260,215781,1,0,0:0:0:0:
314,222,216115,1,0,0:0:0:0:
348,195,216448,6,0,P|387:156|388:129,4,75
289,182,217781,2,0,P|256:153|262:121,4,75
240,244,218781,1,0,0:0:0:0:
256,192,219115,12,0,221115,0:0:0:0:
