osu file format v12

[General]
AudioFilename: 01. .mp3
AudioLeadIn: 0
PreviewTime: -1
Countdown: 0
SampleSet: Normal
StackLeniency: 0.7
Mode: 0
LetterboxInBreaks: 1
WidescreenStoryboard: 1

[Editor]
DistanceSpacing: 0.8
BeatDivisor: 4
GridSize: 4
TimelineZoom: 1

[Metadata]
Title:monochrome overdrive
TitleUnicode:モノクロームオーバードライブ
Artist:Endo Yurika
ArtistUnicode:遠藤ゆりか
Creator:promise5201314
Version:The Fight
Source:Z/X IGNITION
Tags:anime 2014
BeatmapID:404795
BeatmapSetID:160412

[Difficulty]
HPDrainRate:6
CircleSize:4
OverallDifficulty:6
ApproachRate:6
SliderMultiplier:1.5
SliderTickRate:2

[Events]
//Background and Video events
0,0,"story_chara.png",0,0
//Break Periods
2,12481,22065
2,65981,72731
2,121981,131731
2,156648,166065
//Storyboard Layer 0 (Background)
//Storyboard Layer 1 (Fail)
//Storyboard Layer 2 (Pass)
//Storyboard Layer 3 (Foreground)
//Storyboard Sound Samples
//Background Colour Transformations
3,100,255,255,255

[TimingPoints]
1782,333.333333333333,4,1,0,100,1,0
23142,-100,4,1,0,45,0,1
45771,-100,4,1,0,45,0,0
76993,-100,4,1,0,100,0,0
118821,-100,4,1,0,100,0,0
178701,-100,4,1,0,100,0,1
179664,-100,4,1,0,100,0,1
200096,-100,4,1,0,100,0,0
200351,-100,4,1,0,100,0,1
205405,-100,4,1,0,100,0,1

[Colours]
Combo1 : 233,233,233
Combo2 : 64,5,88
Combo3 : 60,60,255
Combo4 : 4,140,49
Combo5 : 254,38,7
Combo6 : 174,0,4

[HitObjects]
96,296,1282,6,0,P|64:240|76:216,1,75
108,184,1615,1,0,0:0:0:0:
164,140,1781,1,0,0:0:0:0:
232,116,1948,1,0,0:0:0:0:
300,92,2115,1,0,0:0:0:0:
368,80,2281,1,0,0:0:0:0:
344,308,2615,6,0,P|380:268|352:248,1,75
328,212,2948,1,0,0:0:0:0:
260,204,3115,1,0,0:0:0:0:
272,128,3281,1,0,0:0:0:0:
208,84,3448,1,0,0:0:0:0:
144,116,3615,1,0,0:0:0:0:
180,112,3948,6,0,P|144:124|176:168,1,75
312,180,4281,2,0,P|348:168|344:128,1,75
184,256,4615,2,0,P|216:280|192:296,1,75
336,48,4948,2,0,P|364:88|400:80,1,75
128,164,5281,2,0,P|104:200|148:228,1,75
204,160,5781,5,0,0:0:0:0:
204,160,5865,1,0,0:0:0:0:
204,160,5948,1,0,0:0:0:0:
204,160,6031,1,0,0:0:0:0:
204,160,6115,1,0,0:0:0:0:
288,208,6448,5,0,0:0:0:0:
288,208,6531,1,0,0:0:0:0:
288,208,6615,1,0,0:0:0:0:
288,208,6698,1,0,0:0:0:0:
288,208,6781,1,0,0:0:0:0:
360,320,7115,5,0,0:0:0:0:
276,292,7281,1,0,0:0:0:0:
204,328,7448,1,0,0:0:0:0:
140,272,7615,1,0,0:0:0:0:
64,316,7781,1,0,0:0:0:0:
236,172,8115,5,0,0:0:0:0:
64,64,8448,5,0,0:0:0:0:
136,96,8615,1,0,0:0:0:0:
200,52,8781,1,0,0:0:0:0:
268,100,8948,1,0,0:0:0:0:
340,52,9115,1,0,0:0:0:0:
388,188,9448,5,0,0:0:0:0:
120,192,9781,5,0,0:0:0:0:
120,192,9865,1,0,0:0:0:0:
120,192,9948,1,0,0:0:0:0:
120,192,10031,1,0,0:0:0:0:
216,208,10281,5,0,0:0:0:0:
216,208,10365,1,0,0:0:0:0:
216,208,10448,1,0,0:0:0:0:
216,208,10531,1,0,0:0:0:0:
292,172,10781,5,0,0:0:0:0:
292,172,10865,1,0,0:0:0:0:
292,172,10948,1,0,0:0:0:0:
292,172,11031,1,0,0:0:0:0:
292,264,11281,5,0,0:0:0:0:
292,264,11364,1,0,0:0:0:0:
292,264,11447,1,0,0:0:0:0:
292,264,11531,1,0,0:0:0:0:
292,264,11614,1,0,0:0:0:0:
292,264,11697,1,0,0:0:0:0:
248,192,12281,5,0,0:0:0:0:
108,288,23115,6,0,L|172:236,1,75
312,292,23448,2,0,L|248:236,1,75
156,104,23781,2,0,L|220:156,1,75
356,88,24115,2,0,L|284:148,1,75
288,176,24448,5,0,0:0:0:0:
256,208,24615,1,0,0:0:0:0:
212,224,24781,1,0,0:0:0:0:
168,236,24948,1,0,0:0:0:0:
128,256,25115,1,0,0:0:0:0:
248,40,25781,6,0,L|248:136,1,75
244,328,26115,2,0,L|248:224,1,75
88,172,26448,2,0,L|180:172,1,75
404,176,26781,2,0,L|308:176,1,75
288,188,27115,5,0,0:0:0:0:
244,212,27281,1,0,0:0:0:0:
196,228,27448,1,0,0:0:0:0:
152,192,27615,1,0,0:0:0:0:
156,144,27781,1,0,0:0:0:0:
88,52,28448,5,0,0:0:0:0:
120,52,28531,1,0,0:0:0:0:
160,52,28615,1,0,0:0:0:0:
192,52,28698,1,0,0:0:0:0:
228,56,28781,1,0,0:0:0:0:
272,56,28865,1,0,0:0:0:0:
308,56,28948,1,0,0:0:0:0:
348,60,29031,1,0,0:0:0:0:
392,56,29115,1,0,0:0:0:0:
416,152,29448,1,0,0:0:0:0:
400,232,29781,5,0,0:0:0:0:
360,232,29865,1,0,0:0:0:0:
320,236,29948,1,0,0:0:0:0:
280,236,30031,1,0,0:0:0:0:
244,232,30115,1,0,0:0:0:0:
204,232,30198,1,0,0:0:0:0:
168,232,30281,1,0,0:0:0:0:
128,228,30365,1,0,0:0:0:0:
92,232,30448,1,0,0:0:0:0:
196,320,30781,1,0,0:0:0:0:
352,312,31115,6,0,L|420:232,1,75
364,192,31448,2,0,L|412:272,1,75
408,132,31781,2,0,L|352:216,1,75
344,88,32115,2,0,L|420:140,1,75
76,100,32448,6,0,L|160:28,1,75
132,152,32781,2,0,L|64:84,1,75
80,212,33115,2,0,L|136:148,1,75
136,264,33448,2,0,L|80:208,1,75
268,312,33781,5,0,0:0:0:0:
312,296,33865,1,0,0:0:0:0:
360,284,33948,1,0,0:0:0:0:
400,272,34031,1,0,0:0:0:0:
392,176,34448,5,0,0:0:0:0:
344,196,34531,1,0,0:0:0:0:
300,216,34615,1,0,0:0:0:0:
244,232,34698,1,0,0:0:0:0:
232,156,35115,5,0,0:0:0:0:
268,140,35198,1,0,0:0:0:0:
308,132,35281,1,0,0:0:0:0:
356,112,35365,1,0,0:0:0:0:
336,40,35781,5,0,0:0:0:0:
296,52,35865,1,0,0:0:0:0:
252,64,35948,1,0,0:0:0:0:
208,80,36031,1,0,0:0:0:0:
56,76,36448,5,0,0:0:0:0:
104,80,36531,1,0,0:0:0:0:
156,88,36615,1,0,0:0:0:0:
212,88,36698,1,0,0:0:0:0:
220,176,37115,5,0,0:0:0:0:
164,168,37198,1,0,0:0:0:0:
108,160,37281,1,0,0:0:0:0:
52,156,37365,1,0,0:0:0:0:
56,236,37781,5,0,0:0:0:0:
112,248,37865,1,0,0:0:0:0:
164,252,37948,1,0,0:0:0:0:
216,260,38031,1,0,0:0:0:0:
212,344,38448,5,0,0:0:0:0:
156,332,38531,1,0,0:0:0:0:
100,328,38615,1,0,0:0:0:0:
44,324,38698,1,0,0:0:0:0:
64,56,39115,6,0,L|168:64,1,75
468,72,39448,2,0,L|364:72,1,75
56,236,39781,2,0,L|144:236,1,75
432,240,40115,2,0,L|352:240,1,75
168,120,40448,6,0,L|168:40,1,75
220,256,40781,2,0,L|220:356,1,75
292,124,41115,2,0,L|288:40,1,75
356,240,41448,2,0,L|352:344,1,75
36,60,41781,6,0,L|112:124,1,75
464,48,42115,2,0,L|396:112,1,75
40,340,42448,2,0,L|120:288,1,75
456,340,42781,2,0,L|388:280,1,75
48,184,43115,6,0,L|152:184,1,75
456,188,43448,2,0,L|352:188,1,75
224,48,43781,2,0,L|224:128,1,75
248,344,44115,2,0,L|248:244,1,75
252,240,44448,5,0,0:0:0:0:
288,240,44531,1,0,0:0:0:0:
324,224,44615,1,0,0:0:0:0:
348,216,44698,2,0,L|348:176,2,37.5
340,148,44948,5,0,0:0:0:0:
300,132,45031,1,0,0:0:0:0:
256,124,45115,1,0,0:0:0:0:
224,112,45198,2,0,L|184:100,2,37.5
156,128,45448,5,0,0:0:0:0:
136,160,45531,1,0,0:0:0:0:
116,200,45615,1,0,0:0:0:0:
120,216,45698,2,0,L|136:272,2,37.5
156,276,45948,5,0,0:0:0:0:
184,288,46031,1,0,0:0:0:0:
224,284,46115,1,0,0:0:0:0:
252,280,46198,2,0,L|276:244,2,37.5
296,216,46448,5,0,0:0:0:0:
324,188,46531,1,0,0:0:0:0:
320,156,46615,1,0,0:0:0:0:
288,124,46698,2,0,L|240:104,2,37.5
208,108,46948,5,0,0:0:0:0:
156,128,47031,1,0,0:0:0:0:
116,136,47115,1,0,0:0:0:0:
92,168,47198,2,0,L|84:212,2,37.5
104,236,47448,5,0,0:0:0:0:
132,256,47531,1,0,0:0:0:0:
172,252,47615,1,0,0:0:0:0:
212,240,47698,2,0,L|256:224,2,37.5
276,244,47948,5,0,0:0:0:0:
296,216,48031,1,0,0:0:0:0:
336,248,48115,1,0,0:0:0:0:
368,240,48198,1,0,0:0:0:0:
368,240,48281,1,0,0:0:0:0:
368,240,48448,6,0,P|408:204|364:128,1,150
312,80,48948,1,0,0:0:0:0:
312,80,49031,1,0,0:0:0:0:
312,80,49115,1,0,0:0:0:0:
248,96,49198,2,0,L|176:128,1,75
164,160,49448,1,0,0:0:0:0:
156,204,49531,2,0,L|232:256,1,75
340,328,49781,6,0,L|384:240,1,75
80,80,50115,2,0,L|136:136,1,75
352,88,50448,2,0,P|388:64|400:96,1,75
108,268,50781,2,0,P|144:296|128:316,1,75
256,192,51115,2,0,P|244:228|280:240,1,75
120,52,51448,2,0,P|108:88|72:76,1,75
432,52,51781,2,0,P|420:92|448:104,1,75
364,332,52115,2,0,P|384:296|424:300,1,75
432,264,52448,5,0,0:0:0:0:
408,244,52531,1,0,0:0:0:0:
384,224,52615,1,0,0:0:0:0:
360,204,52698,1,0,0:0:0:0:
336,184,52781,1,0,0:0:0:0:
312,164,52865,1,0,0:0:0:0:
176,48,53115,5,0,0:0:0:0:
160,76,53198,1,0,0:0:0:0:
144,104,53281,1,0,0:0:0:0:
124,132,53365,1,0,0:0:0:0:
112,164,53448,1,0,0:0:0:0:
96,192,53531,1,0,0:0:0:0:
152,292,53781,5,0,0:0:0:0:
224,176,53948,1,0,0:0:0:0:
328,276,54115,1,0,0:0:0:0:
320,76,54281,1,0,0:0:0:0:
76,136,54448,1,0,0:0:0:0:
156,296,54615,1,0,0:0:0:0:
384,160,54781,1,0,0:0:0:0:
392,312,55115,6,0,P|424:268|356:216,1,150
252,180,55615,1,0,0:0:0:0:
108,48,55781,2,0,P|60:72|92:168,1,150
252,180,56281,1,0,0:0:0:0:
368,48,56448,2,0,P|436:60|436:156,1,150
252,180,56948,1,0,0:0:0:0:
156,332,57115,2,0,P|96:316|56:236,1,150
252,180,57615,1,0,0:0:0:0:
464,108,57781,6,0,L|464:264,1,150
252,180,58281,1,0,0:0:0:0:
72,268,58448,2,0,L|72:116,1,150
252,180,58948,1,0,0:0:0:0:
332,52,59115,2,0,L|152:52,1,150
252,180,59615,1,0,0:0:0:0:
180,296,59781,2,0,L|352:296,1,150
252,180,60281,1,0,0:0:0:0:
79,78,60448,5,0,0:0:0:0:
130,113,60781,1,0,0:0:0:0:
176,67,61115,1,0,0:0:0:0:
221,111,61448,1,0,0:0:0:0:
422,271,61781,5,0,0:0:0:0:
370,311,62115,1,0,0:0:0:0:
311,280,62448,1,0,0:0:0:0:
256,320,62781,1,0,0:0:0:0:
248,98,63115,5,0,0:0:0:0:
254,278,63448,1,0,0:0:0:0:
153,195,63781,1,0,0:0:0:0:
331,193,64115,1,0,0:0:0:0:
116,258,64448,5,0,0:0:0:0:
121,254,64531,1,0,0:0:0:0:
128,248,64615,1,0,0:0:0:0:
136,243,64698,1,0,0:0:0:0:
141,236,64781,1,0,0:0:0:0:
146,230,64865,1,0,0:0:0:0:
153,224,64948,1,0,0:0:0:0:
159,222,65031,1,0,0:0:0:0:
165,217,65115,1,0,0:0:0:0:
171,212,65198,1,0,0:0:0:0:
176,207,65281,1,0,0:0:0:0:
181,204,65365,1,0,0:0:0:0:
186,200,65448,1,0,0:0:0:0:
191,197,65531,1,0,0:0:0:0:
196,193,65615,1,0,0:0:0:0:
201,190,65698,1,0,0:0:0:0:
207,187,65781,1,0,0:0:0:0:
103,150,73781,5,0,0:0:0:0:
103,150,73865,1,0,0:0:0:0:
103,150,73948,1,0,0:0:0:0:
179,161,74281,5,0,0:0:0:0:
179,161,74365,1,0,0:0:0:0:
179,161,74448,1,0,0:0:0:0:
256,144,74781,5,0,0:0:0:0:
256,144,74865,1,0,0:0:0:0:
256,144,74948,1,0,0:0:0:0:
305,158,75115,5,0,0:0:0:0:
305,195,75198,1,0,0:0:0:0:
282,228,75281,1,0,0:0:0:0:
254,249,75365,1,0,0:0:0:0:
217,258,75448,1,0,0:0:0:0:
176,262,75531,1,0,0:0:0:0:
141,238,75615,1,0,0:0:0:0:
116,93,75781,6,0,L|86:69,1,37.5
116,93,75948,2,0,L|164:51,1,37.5
116,93,76115,2,0,L|87:124,1,37.5
256,144,76448,5,0,0:0:0:0:
386,182,76615,1,0,0:0:0:0:
376,40,76781,1,0,0:0:0:0:
254,35,76948,1,0,0:0:0:0:
188,67,77115,5,0,0:0:0:0:
69,169,77281,1,0,0:0:0:0:
270,228,77448,1,0,0:0:0:0:
397,109,77615,2,0,P|419:205|248:262,1,300
200,278,78448,5,0,0:0:0:0:
252,141,78615,1,0,0:0:0:0:
97,95,78781,1,0,0:0:0:0:
273,38,78948,1,0,0:0:0:0:
241,60,79115,2,0,P|163:117|267:253,1,300
301,204,79948,5,0,0:0:0:0:
350,155,80115,1,0,0:0:0:0:
391,214,80281,1,0,0:0:0:0:
330,268,80448,1,0,0:0:0:0:
184,197,80615,5,0,0:0:0:0:
122,160,80781,1,0,0:0:0:0:
77,225,80948,1,0,0:0:0:0:
143,262,81115,1,0,0:0:0:0:
256,186,81448,1,0,0:0:0:0:
256,186,81781,1,0,0:0:0:0:
256,192,81948,12,0,84448,0:0:0:0:
43,78,84781,6,0,L|203:77,1,150
254,120,85281,1,0,0:0:0:0:
471,151,85448,2,0,L|310:153,1,150
258,198,85948,1,0,0:0:0:0:
48,239,86115,2,0,L|208:237,1,150
458,262,86615,1,0,0:0:0:0:
463,324,86781,2,0,L|281:328,1,150
90,68,87448,5,0,0:0:0:0:
76,104,87615,1,0,0:0:0:0:
97,144,87781,1,0,0:0:0:0:
134,173,87948,1,0,0:0:0:0:
152,215,88115,1,0,0:0:0:0:
171,253,88281,1,0,0:0:0:0:
217,235,88448,1,0,0:0:0:0:
260,213,88615,1,0,0:0:0:0:
266,41,89281,6,0,L|348:42,1,75
372,51,89615,2,0,L|459:86,1,75
443,124,89948,1,0,0:0:0:0:
419,158,90115,1,0,0:0:0:0:
391,188,90281,1,0,0:0:0:0:
354,216,90448,1,0,0:0:0:0:
315,231,90615,1,0,0:0:0:0:
315,231,90781,2,0,P|252:215|238:127,1,150
105,191,91281,6,0,L|152:273,1,75
183,265,91615,1,0,0:0:0:0:
218,248,91781,2,0,L|181:163,1,75
232,155,92115,1,0,0:0:0:0:
276,154,92281,2,0,L|323:249,1,75
401,287,92781,5,0,0:0:0:0:
286,331,93115,1,0,0:0:0:0:
181,290,93448,1,0,0:0:0:0:
64,332,93781,1,0,0:0:0:0:
79,82,94115,5,0,0:0:0:0:
174,41,94448,1,0,0:0:0:0:
270,117,94781,1,0,0:0:0:0:
383,51,95115,1,0,0:0:0:0:
256,192,95281,12,0,97781,0:0:0:0:
94,218,97948,5,0,0:0:0:0:
128,184,98115,2,0,L|205:131,2,75
225,173,98615,1,0,0:0:0:0:
248,191,98781,2,0,L|312:276,2,75
340,243,99281,1,0,0:0:0:0:
382,143,99448,2,0,L|379:227,2,75
407,274,99948,5,0,0:0:0:0:
353,304,100115,1,0,0:0:0:0:
296,309,100281,1,0,0:0:0:0:
240,296,100448,1,0,0:0:0:0:
187,277,100615,1,0,0:0:0:0:
141,247,100781,1,0,0:0:0:0:
104,204,100948,1,0,0:0:0:0:
107,151,101115,1,0,0:0:0:0:
137,111,101281,1,0,0:0:0:0:
179,100,101448,1,0,0:0:0:0:
245,133,101781,5,0,0:0:0:0:
245,133,101865,1,0,0:0:0:0:
245,133,101948,1,0,0:0:0:0:
245,133,102031,1,0,0:0:0:0:
319,149,102448,5,0,0:0:0:0:
319,149,102531,1,0,0:0:0:0:
319,149,102615,1,0,0:0:0:0:
319,149,102698,1,0,0:0:0:0:
239,253,102948,5,0,0:0:0:0:
239,253,103115,2,0,P|223:297|132:279,1,150
112,197,103781,1,0,0:0:0:0:
112,197,103865,1,0,0:0:0:0:
112,197,103948,1,0,0:0:0:0:
112,197,104031,1,0,0:0:0:0:
148,106,104281,1,0,0:0:0:0:
148,106,104448,2,0,P|203:85|278:153,1,150
340,172,105115,5,0,0:0:0:0:
340,172,105198,1,0,0:0:0:0:
340,172,105281,1,0,0:0:0:0:
340,172,105365,1,0,0:0:0:0:
303,254,105615,1,0,0:0:0:0:
303,254,105781,2,0,P|206:282|162:225,1,150
156,233,106448,5,0,0:0:0:0:
162,204,106781,1,0,0:0:0:0:
183,183,107115,1,0,0:0:0:0:
213,181,107448,1,0,0:0:0:0:
238,164,107781,1,0,0:0:0:0:
258,142,108115,1,0,0:0:0:0:
371,80,108448,5,0,0:0:0:0:
371,85,108531,1,0,0:0:0:0:
371,94,108615,1,0,0:0:0:0:
371,101,108698,1,0,0:0:0:0:
373,110,108781,1,0,0:0:0:0:
373,119,108865,1,0,0:0:0:0:
374,126,108948,1,0,0:0:0:0:
373,136,109031,1,0,0:0:0:0:
219,155,109448,5,0,0:0:0:0:
90,290,109781,5,0,0:0:0:0:
90,283,109865,1,0,0:0:0:0:
91,274,109948,1,0,0:0:0:0:
94,267,110031,1,0,0:0:0:0:
95,260,110115,1,0,0:0:0:0:
98,253,110198,1,0,0:0:0:0:
99,244,110281,1,0,0:0:0:0:
101,236,110365,1,0,0:0:0:0:
276,209,110781,5,0,0:0:0:0:
419,320,111115,5,0,0:0:0:0:
415,317,111198,1,0,0:0:0:0:
411,310,111281,1,0,0:0:0:0:
401,304,111365,1,0,0:0:0:0:
397,298,111448,1,0,0:0:0:0:
393,294,111531,1,0,0:0:0:0:
389,287,111615,1,0,0:0:0:0:
384,282,111698,1,0,0:0:0:0:
379,277,111781,1,0,0:0:0:0:
252,185,112115,5,0,0:0:0:0:
58,52,112448,5,0,0:0:0:0:
66,58,112531,1,0,0:0:0:0:
76,67,112614,1,0,0:0:0:0:
85,74,112698,1,0,0:0:0:0:
92,81,112781,1,0,0:0:0:0:
100,86,112864,1,0,0:0:0:0:
108,94,112948,1,0,0:0:0:0:
118,103,113031,1,0,0:0:0:0:
125,107,113114,1,0,0:0:0:0:
252,185,113448,5,0,0:0:0:0:
439,55,113781,2,0,L|376:139,4,75
252,185,114781,1,0,0:0:0:0:
63,66,115115,2,0,L|139:136,4,75
252,185,116115,1,0,0:0:0:0:
252,185,116448,1,0,0:0:0:0:
256,192,116615,12,0,121781,0:0:0:0:
402,156,132781,5,0,0:0:0:0:
372,194,132948,1,0,0:0:0:0:
339,216,133115,1,0,0:0:0:0:
316,236,133281,1,0,0:0:0:0:
289,250,133448,1,0,0:0:0:0:
259,264,133615,1,0,0:0:0:0:
232,78,133781,5,0,0:0:0:0:
206,100,133948,1,0,0:0:0:0:
181,124,134115,1,0,0:0:0:0:
167,150,134281,1,0,0:0:0:0:
158,180,134448,1,0,0:0:0:0:
154,209,134615,1,0,0:0:0:0:
150,240,134781,1,0,0:0:0:0:
96,284,135115,6,0,P|128:315|165:289,1,75
174,284,135448,2,0,P|208:258|255:295,1,75
266,264,135781,2,0,P|301:247|301:213,1,75
312,181,136115,2,0,P|352:193|363:155,1,75
356,135,136448,2,0,P|301:117|270:118,1,75
258,135,136781,2,0,P|253:176|203:169,1,75
188,176,137115,2,0,P|150:153|134:192,1,75
128,211,137448,1,0,0:0:0:0:
357,135,137781,5,0,0:0:0:0:
357,135,137865,1,0,0:0:0:0:
357,135,137948,1,0,0:0:0:0:
357,135,138031,1,0,0:0:0:0:
357,135,138115,1,0,0:0:0:0:
160,126,138448,5,0,0:0:0:0:
160,126,138531,1,0,0:0:0:0:
160,126,138615,1,0,0:0:0:0:
160,126,138698,1,0,0:0:0:0:
160,126,138781,1,0,0:0:0:0:
233,237,139115,5,0,0:0:0:0:
233,237,139198,1,0,0:0:0:0:
233,237,139281,1,0,0:0:0:0:
233,237,139365,1,0,0:0:0:0:
233,237,139448,1,0,0:0:0:0:
282,144,139781,5,0,0:0:0:0:
282,144,139865,1,0,0:0:0:0:
282,144,139948,1,0,0:0:0:0:
282,144,140031,1,0,0:0:0:0:
282,144,140115,1,0,0:0:0:0:
126,131,140448,6,0,L|223:131,1,75
376,133,140781,2,0,L|296:135,1,75
150,232,141115,2,0,L|242:229,1,75
364,244,141448,2,0,L|283:241,1,75
185,71,141781,6,0,L|189:165,1,75
251,315,142115,2,0,L|250:231,1,75
300,71,142448,2,0,L|304:177,1,75
358,309,142781,2,0,L|362:199,1,75
136,303,143115,6,0,P|69:250|109:213,1,150
128,178,143615,1,0,0:0:0:0:
161,171,143781,1,0,0:0:0:0:
199,162,143948,1,0,0:0:0:0:
234,138,144115,1,0,0:0:0:0:
257,107,144281,1,0,0:0:0:0:
292,107,144448,6,0,P|343:139|353:237,1,150
325,244,144948,1,0,0:0:0:0:
281,258,145115,1,0,0:0:0:0:
245,257,145281,1,0,0:0:0:0:
204,246,145448,1,0,0:0:0:0:
181,223,145615,1,0,0:0:0:0:
154,199,145781,6,0,P|109:259|157:329,1,150
245,257,146281,1,0,0:0:0:0:
343,178,146448,2,0,P|376:213|308:288,1,150
92,52,146948,1,0,0:0:0:0:
163,86,147115,2,0,P|208:119|279:63,1,150
342,178,147615,1,0,0:0:0:0:
203,255,147781,2,0,P|248:304|308:251,1,150
101,99,148448,5,0,0:0:0:0:
205,157,148781,1,0,0:0:0:0:
302,83,149115,1,0,0:0:0:0:
398,154,149448,1,0,0:0:0:0:
119,268,149781,5,0,0:0:0:0:
217,311,150115,1,0,0:0:0:0:
306,241,150448,1,0,0:0:0:0:
412,320,150781,1,0,0:0:0:0:
435,195,151115,1,0,0:0:0:0:
256,192,151281,12,0,152781,0:0:0:0:
239,194,153281,5,0,0:0:0:0:
205,178,153448,1,0,0:0:0:0:
168,159,153615,1,0,0:0:0:0:
132,143,153781,1,0,0:0:0:0:
239,194,153948,5,0,0:0:0:0:
271,187,154115,1,0,0:0:0:0:
297,161,154281,1,0,0:0:0:0:
326,127,154448,1,0,0:0:0:0:
365,150,154615,1,0,0:0:0:0:
380,189,154781,2,0,P|371:268|113:209,1,450
260,188,156448,1,0,0:0:0:0:
256,189,167115,6,0,L|188:137,2,75
256,189,167615,1,0,0:0:0:0:
256,189,167781,2,0,L|322:132,2,75
256,189,168281,1,0,0:0:0:0:
256,189,168448,2,0,L|197:247,2,75
256,189,168948,1,0,0:0:0:0:
256,189,169115,2,0,L|338:243,2,75
256,189,169615,1,0,0:0:0:0:
256,189,169781,2,0,L|152:189,2,75
256,189,170281,1,0,0:0:0:0:
256,189,170448,2,0,L|343:189,2,75
256,189,170948,1,0,0:0:0:0:
256,189,171115,2,0,L|257:86,2,75
256,189,171615,1,0,0:0:0:0:
256,189,171781,2,0,L|256:272,2,75
256,189,172448,5,0,0:0:0:0:
110,100,172781,1,0,0:0:0:0:
386,95,173115,1,0,0:0:0:0:
121,288,173448,1,0,0:0:0:0:
375,309,173781,1,0,0:0:0:0:
249,64,174115,1,0,0:0:0:0:
251,303,174448,1,0,0:0:0:0:
119,171,174781,1,0,0:0:0:0:
378,189,175115,1,0,0:0:0:0:
249,64,175448,1,0,0:0:0:0:
251,303,175781,1,0,0:0:0:0:
256,188,176115,1,0,0:0:0:0:
256,189,176448,1,0,0:0:0:0:
256,192,176615,12,0,179448,0:0:0:0:
86,65,179781,6,0,L|155:123,2,75
172,54,180281,1,0,0:0:0:0:
264,75,180448,2,0,L|203:129,2,75
275,171,180948,1,0,0:0:0:0:
263,249,181115,2,0,L|202:192,2,75
324,280,181615,5,0,0:0:0:0:
372,250,181781,1,0,0:0:0:0:
65,89,182115,1,0,0:0:0:0:
118,129,182281,1,0,0:0:0:0:
170,170,182448,1,0,0:0:0:0:
232,155,182615,1,0,0:0:0:0:
276,106,182781,1,0,0:0:0:0:
318,157,182948,1,0,0:0:0:0:
428,323,183281,5,0,0:0:0:0:
368,285,183448,1,0,0:0:0:0:
317,328,183615,1,0,0:0:0:0:
263,289,183781,1,0,0:0:0:0:
212,332,183948,1,0,0:0:0:0:
159,291,184115,1,0,0:0:0:0:
143,105,184448,6,0,P|117:140|163:228,1,150
341,73,185115,2,0,P|392:146|445:135,1,150
390,253,185781,2,0,P|383:291|283:309,1,150
260,300,186281,1,0,0:0:0:0:
232,311,186448,2,0,B|181:324|126:296|140:227,1,150
256,188,187115,1,0,0:0:0:0:
256,192,187281,12,0,189781,0:0:0:0:
459,191,190115,5,0,0:0:0:0:
364,186,190448,1,0,0:0:0:0:
257,188,190781,1,0,0:0:0:0:
134,189,191115,1,0,0:0:0:0:
25,186,191448,1,0,0:0:0:0:
423,328,191948,5,0,0:0:0:0:
423,328,192115,1,0,0:0:0:0:
423,328,192281,1,0,0:0:0:0:
256,42,192448,5,0,0:0:0:0:
256,191,192781,1,0,0:0:0:0:
254,331,193115,1,0,0:0:0:0:
125,192,193448,1,0,0:0:0:0:
374,191,193781,1,0,0:0:0:0:
373,118,193948,5,0,0:0:0:0:
373,118,194115,1,0,0:0:0:0:
373,118,194281,1,0,0:0:0:0:
373,118,194448,1,0,0:0:0:0:
257,190,194781,1,0,0:0:0:0:
118,84,195115,6,0,P|101:104|140:209,1,150
410,217,195781,2,0,P|439:283|375:322,1,150
208,33,196448,2,0,P|245:71|349:32,1,150
167,325,197115,2,0,P|256:293|310:333,1,150
256,189,197781,1,0,0:0:0:0:
256,192,197948,12,0,200448,0:0:0:0:
136,160,200781,5,0,0:0:0:0:
203,174,201115,1,0,0:0:0:0:
203,174,201198,1,0,0:0:0:0:
203,174,201281,1,0,0:0:0:0:
203,174,201365,1,0,0:0:0:0:
265,177,201781,5,0,0:0:0:0:
322,160,202115,1,0,0:0:0:0:
313,220,202448,1,0,0:0:0:0:
313,220,202531,1,0,0:0:0:0:
313,220,202615,1,0,0:0:0:0:
313,220,202698,1,0,0:0:0:0:
64,65,203115,5,0,0:0:0:0:
439,62,203448,1,0,0:0:0:0:
444,324,203781,1,0,0:0:0:0:
65,324,204115,1,0,0:0:0:0:
206,192,204448,1,0,0:0:0:0:
206,192,204781,1,0,0:0:0:0:
288,191,205115,1,0,0:0:0:0:
288,191,205198,1,0,0:0:0:0:
288,191,205281,1,0,0:0:0:0:
288,191,205365,1,0,0:0:0:0:
244,61,205781,5,0,0:0:0:0:
128,186,206115,1,0,0:0:0:0:
254,189,206448,1,0,0:0:0:0:
254,189,206531,1,0,0:0:0:0:
254,189,206615,1,0,0:0:0:0:
254,189,206698,1,0,0:0:0:0:
397,195,207115,5,0,0:0:0:0:
256,311,207448,1,0,0:0:0:0:
254,189,207781,1,0,0:0:0:0:
254,189,207865,1,0,0:0:0:0:
254,189,207948,1,0,0:0:0:0:
254,189,208031,1,0,0:0:0:0:
254,189,208448,5,0,0:0:0:0:
256,192,208615,12,0,211448,0:0:0:0:
77,78,211781,5,0,0:0:0:0:
154,80,211948,1,0,0:0:0:0:
226,75,212115,1,0,0:0:0:0:
243,191,212448,1,0,0:0:0:0:
243,191,212781,1,0,0:0:0:0:
396,297,213115,1,0,0:0:0:0:
318,299,213281,1,0,0:0:0:0:
241,302,213448,1,0,0:0:0:0:
64,66,213781,5,0,0:0:0:0:
83,97,213948,1,0,0:0:0:0:
122,97,214115,1,0,0:0:0:0:
145,125,214281,1,0,0:0:0:0:
186,118,214448,1,0,0:0:0:0:
200,157,214615,1,0,0:0:0:0:
247,147,214781,1,0,0:0:0:0:
389,150,215115,5,0,0:0:0:0:
389,150,215198,1,0,0:0:0:0:
389,150,215281,1,0,0:0:0:0:
389,150,215365,1,0,0:0:0:0:
113,166,215781,1,0,0:0:0:0:
113,166,215865,1,0,0:0:0:0:
113,166,215948,1,0,0:0:0:0:
113,166,216031,1,0,0:0:0:0:
31,189,216448,5,0,0:0:0:0:
256,337,216781,1,0,0:0:0:0:
441,191,217115,1,0,0:0:0:0:
252,191,217448,1,0,0:0:0:0:
31,189,217781,1,0,0:0:0:0:
256,42,218115,1,0,0:0:0:0:
441,191,218448,1,0,0:0:0:0:
252,191,218781,1,0,0:0:0:0:
252,191,219115,1,0,0:0:0:0:
256,192,219281,12,0,221115,0:0:0:0:
