osu file format v12

[General]
AudioFilename: 01. .mp3
AudioLeadIn: 0
PreviewTime: -1
Countdown: 0
SampleSet: Normal
StackLeniency: 0.7
Mode: 0
LetterboxInBreaks: 1
WidescreenStoryboard: 1

[Editor]
DistanceSpacing: 0.8
BeatDivisor: 2
GridSize: 4
TimelineZoom: 0.8

[Metadata]
Title:monochrome overdrive
TitleUnicode:モノクロームオーバードライブ
Artist:Endo Yurika
ArtistUnicode:遠藤ゆりか
Creator:promise5201314
Version:The Beginner
Source:Z/X IGNITION
Tags:anime 2014
BeatmapID:407137
BeatmapSetID:160412

[Difficulty]
HPDrainRate:2
CircleSize:2
OverallDifficulty:2
ApproachRate:2
SliderMultiplier:1.5
SliderTickRate:2

[Events]
//Background and Video events
0,0,"story_chara.png",0,0
//Break Periods
2,44981,48721
2,63148,64388
//Storyboard Layer 0 (Background)
//Storyboard Layer 1 (Fail)
//Storyboard Layer 2 (Pass)
//Storyboard Layer 3 (Foreground)
//Storyboard Sound Samples
//Background Colour Transformations
3,100,255,255,255

[TimingPoints]
1782,333.333333333333,4,1,0,100,1,0
22971,-200,4,1,0,100,0,1
45771,-166.666666666667,4,1,0,45,0,0
45771,-133.333333333333,4,1,0,100,0,1
75781,-133.333333333333,4,1,0,45,0,1
118821,-100,4,1,0,100,0,0
127136,-133.333333333333,4,1,0,100,0,0
178701,-100,4,1,0,100,0,1
179664,-100,4,1,0,100,0,1
200096,-100,4,1,0,100,0,0
200351,-100,4,1,0,100,0,1
205405,-100,4,1,0,100,0,1

[Colours]
Combo1 : 233,233,233
Combo2 : 64,5,88
Combo3 : 60,60,255
Combo4 : 4,140,49
Combo5 : 254,38,7
Combo6 : 174,0,4

[HitObjects]
348,200,23115,5,0,0:0:0:0:
348,200,23448,1,0,0:0:0:0:
264,240,23781,1,0,0:0:0:0:
224,328,24115,1,0,0:0:0:0:
312,328,24448,1,0,0:0:0:0:
256,192,24615,12,0,25448,0:0:0:0:
96,312,25781,6,0,B|64:204|104:60|104:60,2,225
96,312,28115,2,0,P|200:328|376:304,2,262.5
192,232,30781,6,0,L|192:16,3,187.5
272,144,33781,2,0,B|352:88|352:88|532:128,2,262.5
100,184,36448,5,0,0:0:0:0:
184,188,36615,1,0,0:0:0:0:
268,192,36948,1,0,0:0:0:0:
356,200,37281,2,0,L|536:200|532:200,2,150
256,200,38948,2,0,L|8:196,2,225
184,64,41448,2,0,P|224:136|48:316,2,375
256,192,50281,12,0,52115,0:0:0:0:
236,88,52448,6,0,P|304:132|228:88,2,494.999984893799
156,100,56448,1,0,0:0:0:0:
160,196,56781,1,0,0:0:0:0:
172,288,57115,1,0,0:0:0:0:
284,320,57448,2,0,B|220:272|220:272|284:204|284:204|356:256|356:256|280:324,1,359.999989013672
360,328,59115,6,0,B|328:276|328:276|356:248|320:212|320:212|352:168|352:168|312:116|312:116|336:92|268:24,1,359.999989013672
271,27,60615,2,0,L|360:336,2,314.999990386963
100,324,65948,6,0,P|56:264|104:32,4,314.999990386963
128,188,71448,1,0,0:0:0:0:
224,188,71781,1,0,0:0:0:0:
320,188,72115,1,0,0:0:0:0:
416,188,72448,1,0,0:0:0:0:
256,192,72781,12,0,75281,0:0:0:0:
252,184,75948,5,0,0:0:0:0:
252,184,76115,1,0,0:0:0:0:
252,184,76281,1,0,0:0:0:0:
116,188,76615,2,0,P|140:244|344:312,1,281.250010728836
332,315,77615,2,0,P|196:298|116:188,1,281.250010728836
184,52,78781,6,0,L|304:52,2,112.500004291535
272,168,79781,2,0,L|392:168,2,112.500004291535
360,264,80781,1,0,0:0:0:0:
272,320,81115,1,0,0:0:0:0:
168,320,81448,1,0,0:0:0:0:
168,320,81781,1,0,0:0:0:0:
52,312,82115,2,0,L|52:32,2,225.000008583069
168,124,83948,6,0,P|208:168|380:248,1,225.000008583069
353,243,84781,2,0,P|249:200|168:124,1,225.000008583069
168,124,85615,2,0,P|249:200|353:243,1,225.000008583069
232,300,86781,2,0,P|84:232|64:120,2,281.250010728836
320,284,88781,1,0,0:0:0:0:
320,284,88948,1,0,0:0:0:0:
184,284,89448,6,0,L|8:284,2,168.750006437302
180,196,90781,2,0,L|180:24,2,168.750006437302
248,176,92115,1,0,0:0:0:0:
292,192,92448,1,0,0:0:0:0:
348,220,92781,1,0,0:0:0:0:
404,244,93115,1,0,0:0:0:0:
456,276,93448,2,0,L|512:324,2,56.2500021457673
328,304,94448,6,0,L|36:304,3,281.250010728836
88,184,97448,2,0,P|156:136|384:112,3,281.250010728836
288,200,100115,1,0,0:0:0:0:
168,280,100448,2,0,P|264:312|440:280,2,281.250010728836
112,220,102448,1,0,0:0:0:0:
112,220,102781,1,0,0:0:0:0:
112,220,103115,1,0,0:0:0:0:
52,116,103448,2,0,B|160:52|160:52|272:52,2,225.000008583069
256,192,105448,12,0,107781,0:0:0:0:
360,180,108115,6,0,P|276:208|32:156,2,337.500012874604
312,312,110781,2,0,L|540:308,2,225.000008583069
208,312,112448,1,0,0:0:0:0:
112,308,112781,1,0,0:0:0:0:
20,280,113115,1,0,0:0:0:0:
256,192,113448,12,0,114448,0:0:0:0:
72,188,114781,5,0,0:0:0:0:
172,188,115115,1,0,0:0:0:0:
272,188,115448,1,0,0:0:0:0:
380,188,115781,5,0,0:0:0:0:
380,188,116115,1,0,0:0:0:0:
380,188,116448,1,0,0:0:0:0:
256,192,116781,12,0,118781,0:0:0:0:
