osu file format v13

[General]
AudioFilename: ed.mp3
AudioLeadIn: 0
PreviewTime: -1
Countdown: 1
SampleSet: Soft
StackLeniency: 0.7
Mode: 0
LetterboxInBreaks: 1
WidescreenStoryboard: 0

[Editor]
Bookmarks: 3535,18500
DistanceSpacing: 0.6
BeatDivisor: 4
GridSize: 16
TimelineZoom: 1.8

[Metadata]
Title:Futari no Kuronosutashisu (TV Size)
TitleUnicode:ふたりのクロノスタシス (TV Size)
Artist:Endo Yurika
ArtistUnicode:遠藤ゆりか
Creator:Rotte
Version:Insane
Source:Maji Maji Rurumo
Tags:ending
BeatmapID:496742
BeatmapSetID:211187

[Difficulty]
HPDrainRate:7
CircleSize:4.5
OverallDifficulty:7
ApproachRate:8
SliderMultiplier:1.72000000596046
SliderTickRate:1

[Events]
//Background and Video events
0,0,"BG.png",0,0
//Break Periods
//Storyboard Layer 0 (Background)
//Storyboard Layer 1 (Fail)
//Storyboard Layer 2 (Pass)
//Storyboard Layer 3 (Foreground)
//Storyboard Sound Samples
//Background Colour Transformations
3,100,163,162,255

[TimingPoints]
1358,428.571428571429,4,2,1,50,1,0
2000,-100,4,2,2,30,0,0
2108,-100,4,2,1,50,0,0
2858,-100,4,2,2,30,0,0
3072,-100,4,2,1,50,0,0
4358,-100,4,2,2,30,0,0
4786,-100,4,2,2,80,0,0
9286,-100,4,2,2,50,0,0
9393,-100,4,2,2,80,0,0
11643,-100,4,2,1,30,0,0
11858,-100,4,2,2,80,0,0
15072,-100,4,2,2,50,0,0
15179,-100,4,2,2,80,0,0
18500,-100,4,2,2,50,0,0
21929,-100,4,2,1,30,0,0
22358,-100,4,2,1,30,0,0
22572,-100,4,2,1,60,0,0
23000,-100,4,2,1,20,0,0
23429,-100,4,2,1,30,0,0
23536,-100,4,2,1,60,0,0
24715,-100,4,2,1,40,0,0
24929,-100,4,2,1,60,0,0
26429,-100,4,2,1,20,0,0
26858,-100,4,2,2,60,0,0
26965,-100,4,2,1,60,0,0
28358,-100,4,2,1,40,0,0
28572,-100,4,2,1,60,0,0
29858,-100,4,2,1,20,0,0
30286,-100,4,2,1,60,0,0
32000,-100,4,2,1,40,0,0
32215,-100,4,2,1,60,0,0
33286,-100,4,2,1,20,0,0
33715,-100,4,2,1,60,0,0
33929,-100,4,2,1,30,0,0
34143,-100,4,2,1,60,0,0
39072,-100,4,2,1,30,0,0
39286,-100,4,2,1,60,0,0
42500,-100,4,2,1,30,0,0
42715,-100,4,2,1,60,0,0
49358,-100,4,2,1,40,0,0
49786,-100,4,2,1,30,0,0
50000,-100,4,2,1,20,0,0
50215,-100,4,2,1,20,0,0
50429,-100,4,2,1,30,0,0
50643,-100,4,2,1,60,0,0
54929,-100,4,2,1,30,0,0
55358,-100,4,2,1,80,0,0
55572,-100,4,2,1,100,0,0
55786,-100,4,2,1,80,0,0
55893,-100,4,2,1,70,0,0
56000,-100,4,2,1,60,0,0
56215,-100,4,2,1,80,0,1
59000,-100,4,2,1,40,0,1
59215,-100,4,2,1,80,0,1
69715,-100,4,2,1,60,0,1
69822,-100,4,2,1,50,0,1
69929,-100,4,2,1,80,0,1
70572,-100,4,2,1,40,0,1
70786,-100,4,2,1,80,0,1
72715,-100,4,2,1,40,0,1
72929,-100,4,2,1,80,0,1
83000,-100,4,2,1,40,0,1
83215,-100,4,2,1,80,0,1
83643,-100,4,2,1,50,0,0
84500,-100,4,2,1,20,0,0
84715,-100,4,2,1,50,0,0
85143,-100,4,2,1,40,0,0
86000,-100,4,2,1,50,0,0
88572,-100,4,2,1,10,0,0

[Colours]
Combo1 : 128,64,0
Combo2 : 0,202,0
Combo3 : 18,124,255
Combo4 : 255,255,0

[HitObjects]
137,118,1358,5,0,0:0:0:0:
213,157,1572,1,0,0:0:0:0:
298,155,1786,1,0,0:0:0:0:
375,117,2000,2,0,B|370:161|381:207|399:250|373:290,1,172.000000596046,2|0,0:0|0:0,0:0:0:0:
297,322,2643,2,0,B|255:335|212:322,1,86.000000298023,0|2,0:0|0:0,0:0:0:0:
256,192,3072,12,2,4358,0:0:0:0:
160,86,4572,5,0,0:0:0:0:
173,104,4679,1,0,0:0:0:0:
186,120,4786,2,0,P|189:163|185:215,1,86.000000298023,2|0,0:0|0:0,0:0:0:0:
110,278,5215,5,2,0:0:0:0:
228,313,5429,1,0,0:0:0:0:
269,322,5536,2,0,B|325:318|325:318|363:328|407:324,1,129.000000447035,0|2,0:0|0:0,0:0:0:0:
474,286,6072,2,0,P|502:237|495:194,1,86.000000298023,0|0,0:0|0:0,0:0:0:0:
469,129,6500,5,2,0:0:0:0:
292,214,6715,1,0,0:0:0:0:
395,256,6929,2,0,P|398:212|395:169,1,86.000000298023,0|2,0:0|0:0,0:0:0:0:
436,52,7358,1,0,0:0:0:0:
294,126,7572,2,0,P|251:131|209:129,1,86.000000298023,0|2,0:0|0:0,0:0:0:0:
8,80,8000,6,0,P|65:72|137:77,1,129.000000447035,0|0,0:0|0:0,0:0:0:0:
214,190,8429,1,2,0:0:0:0:
0,191,8643,1,0,0:0:0:0:
161,168,8858,2,0,P|157:211|161:266,1,86.000000298023,2|0,0:0|0:0,0:0:0:0:
117,328,9286,2,0,P|68:334|23:328,2,86.000000298023,2|0|2,0:0|0:0|0:0,0:0:0:0:
203,321,9929,2,0,P|248:317|290:320,1,86.000000298023
445,338,10358,1,0,0:0:0:0:
491,265,10572,2,0,P|506:181|490:94,1,172.000000596046,2|0,0:0|0:0,0:0:0:0:
308,71,11215,1,2,0:0:0:0:
424,200,11429,1,0,0:0:0:0:
407,191,11536,1,0,0:0:0:0:
389,185,11643,6,0,P|348:185|300:198,1,86.000000298023,4|0,0:0|0:0,0:0:0:0:
173,278,12072,1,2,0:0:0:0:
45,215,12286,1,0,0:0:0:0:
64,186,12393,2,0,P|61:122|55:55,1,129.000000447035,0|2,0:0|0:0,0:0:0:0:
193,25,12929,2,0,P|186:64|184:111,1,86.000000298023,0|2,0:0|0:0,0:0:0:0:
253,160,13358,1,0,0:0:0:0:
407,103,13572,1,0,0:0:0:0:
266,142,13786,1,2,0:0:0:0:
448,174,14000,2,0,P|493:109|442:28,1,172.000000596046,0|0,0:0|0:0,0:0:0:0:
279,126,14643,1,2,0:0:0:0:
387,217,14858,1,0,0:0:0:0:
401,229,14965,1,0,0:0:0:0:
415,243,15072,6,0,L|405:342,1,86.000000298023,4|0,0:0|0:0,0:0:0:0:
253,354,15500,1,0,0:0:0:0:
29,284,15715,1,2,0:0:0:0:
29,284,16143,1,0,0:0:0:0:
161,261,16358,1,0,0:0:0:0:
253,354,16572,1,2,0:0:0:0:
29,284,17000,1,2,0:0:0:0:
256,192,18500,12,2,21500,0:0:0:0:
279,124,21929,5,6,0:0:0:0:
365,144,22143,1,0,0:0:0:0:
374,226,22358,1,8,0:0:0:0:
295,261,22572,1,2,0:0:0:0:
233,200,22786,2,0,P|188:203|138:201,1,86.000000298023,2|8,0:0|0:3,0:0:0:0:
89,56,23215,1,4,0:3:0:0:
279,124,23429,1,4,0:3:0:0:
279,124,23536,1,0,0:0:0:0:
279,124,23643,2,0,P|330:125|378:123,1,86.000000298023
183,98,24072,2,0,P|141:119|108:148,1,86.000000298023,8|0,0:0|0:0,0:0:0:0:
352,203,24500,2,0,P|404:204|450:202,2,86.000000298023,0|2|8,0:0|0:0|0:0,0:0:0:0:
210,193,25143,1,0,0:0:0:0:
46,239,25358,6,0,P|49:282|47:332,1,86.000000298023
140,270,25786,2,0,P|138:316|141:363,2,86.000000298023,8|2|2,0:0|0:0|0:0,0:0:0:0:
210,193,26429,1,8,0:3:0:0:
35,131,26643,1,4,0:3:0:0:
159,70,26858,1,0,0:2:0:0:
159,70,26965,1,0,0:0:0:0:
159,70,27072,2,0,P|210:67|255:68,1,86.000000298023
443,88,27500,2,0,P|399:85|338:90,1,86.000000298023,8|0,0:0|0:0,0:0:0:0:
243,149,27929,1,0,0:0:0:0:
323,177,28143,1,8,0:0:0:0:
253,228,28358,1,8,0:0:0:0:
333,257,28572,1,2,0:0:0:0:
401,205,28786,6,0,P|445:206|490:213,2,86.000000298023,0|0|8,0:0|0:0|0:0,0:0:0:0:
271,315,29429,1,2,0:0:0:0:
352,341,29643,2,0,P|400:344|446:338,1,86.000000298023,0|8,0:0|0:3,0:0:0:0:
271,315,30072,1,4,0:3:0:0:
95,319,30286,1,0,0:0:0:0:
63,313,30393,1,0,0:0:0:0:
42,302,30500,2,0,P|37:243|38:204,1,86.000000298023
136,52,30929,2,0,P|141:111|140:150,1,86.000000298023,8|2,0:0|0:0,0:0:0:0:
127,217,31358,2,0,P|183:218|214:215,2,86.000000298023,0|0|8,0:0|0:0|0:0,0:0:0:0:
343,169,32000,1,2,0:0:0:0:
222,123,32215,6,0,P|224:80|231:37,1,86.000000298023
471,109,32643,2,0,P|478:153|480:201,2,86.000000298023,8|0|2,0:0|0:0|0:0,0:0:0:0:
371,57,33286,1,8,0:3:0:0:
200,142,33500,1,4,0:3:0:0:
401,266,33715,1,0,0:0:0:0:
401,266,33822,1,0,0:0:0:0:
401,266,33929,2,0,P|395:316|386:360,1,86.000000298023,6|0,0:0|0:0,0:0:0:0:
209,343,34358,2,0,P|214:292|223:248,1,86.000000298023,8|2,0:0|0:0,0:0:0:0:
377,182,34786,1,2,0:0:0:0:
221,258,35000,1,8,0:0:0:0:
77,193,35215,1,8,0:0:0:0:
64,172,35322,1,8,0:0:0:0:
55,151,35429,1,8,0:0:0:0:
50,129,35536,1,8,0:0:0:0:
50,106,35643,6,0,B|57:88|57:88|72:92|72:92|68:79|68:79|83:86|83:86|77:73|77:73|88:74|88:74|89:64|89:64|116:48|159:50,1,172.000000596046,0|8,0:0|0:0,0:0:0:0:
274,91,36286,1,2,0:0:0:0:
398,87,36500,2,0,P|443:93|499:95,2,86.000000298023,0|0|8,0:0|0:0|0:0,0:0:0:0:
331,31,37143,1,2,0:0:0:0:
197,110,37358,2,0,P|200:159|210:200,1,86.000000298023,0|2,0:0|0:0,0:0:0:0:
311,166,37786,2,0,P|314:215|324:256,2,86.000000298023,8|2|0,0:0|0:0|0:0,0:0:0:0:
494,187,38429,1,2,0:0:0:0:
393,322,38643,1,8,0:0:0:0:
210,320,38858,6,0,P|165:320|123:324,2,86.000000298023,0|6|0,0:0|0:0|0:0,0:0:0:0:
278,267,39500,1,8,0:0:0:0:
148,246,39715,2,0,P|102:248|63:260,2,86.000000298023,2|0|2,0:0|0:0|0:0,0:0:0:0:
212,192,40358,1,8,0:0:0:0:
53,160,40573,1,2,0:0:0:0:
192,109,40786,2,0,P|196:66|194:20,1,86.000000298023
119,65,41215,1,8,0:0:0:0:
192,109,41429,1,2,0:0:0:0:
267,149,41643,1,0,0:0:0:0:
344,186,41858,1,2,0:0:0:0:
395,88,42072,2,0,P|402:46|394:2,1,86.000000298023,8|0,0:0|0:0,0:0:0:0:
267,149,42500,5,4,0:0:0:0:
275,234,42715,1,2,0:0:0:0:
360,231,42929,1,8,0:0:0:0:
353,145,43143,1,2,0:0:0:0:
267,149,43358,2,0,P|219:150|174:149,1,86.000000298023,0|2,0:0|0:0,0:0:0:0:
360,231,43786,2,0,P|408:230|453:231,1,86.000000298023,8|0,0:0|0:0,0:0:0:0:
310,330,44215,5,0,0:0:0:0:
226,348,44429,1,0,0:0:0:0:
140,340,44643,1,8,0:0:0:0:
65,296,44858,1,2,0:0:0:0:
39,213,45072,2,0,B|41:154|45:115,1,86.000000298023,2|0,0:0|0:0,0:0:0:0:
129,5,45500,2,0,B|127:64|123:103,1,86.000000298023,8|0,0:0|0:0,0:0:0:0:
137,176,45929,5,0,0:0:0:0:
178,251,46143,1,0,0:0:0:0:
215,134,46358,1,8,0:0:0:0:
255,209,46572,1,2,0:0:0:0:
338,191,46786,2,0,B|381:187|436:193,1,86.000000298023,2|2,0:0|0:0,0:0:0:0:
290,81,47215,2,0,B|325:56|375:37,1,86.000000298023,8|2,0:0|0:0,0:0:0:0:
194,50,47643,5,0,0:0:0:0:
215,134,47858,1,0,0:0:0:0:
255,209,48072,1,8,0:0:0:0:
312,277,48286,1,2,0:0:0:0:
390,312,48500,2,0,P|438:315|486:314,1,86.000000298023,2|2,0:0|0:0,0:0:0:0:
237,324,48929,2,0,P|189:327|141:326,1,86.000000298023,8|0,0:0|0:0,0:0:0:0:
71,293,49358,5,2,0:0:0:0:
220,229,49572,1,0,0:0:0:0:
61,77,49786,2,0,P|59:128|63:169,1,86.000000298023,8|4,0:3|0:3,0:0:0:0:
120,226,50215,1,4,0:3:0:0:
255,161,50429,1,2,0:0:0:0:
403,200,50643,2,0,P|446:202|495:198,1,86.000000298023,8|2,0:0|0:0,0:0:0:0:
458,118,51072,2,0,P|415:116|366:120,1,86.000000298023
255,161,51500,1,8,0:0:0:0:
403,200,51715,1,2,0:0:0:0:
165,206,51929,2,0,P|161:251|166:302,2,86.000000298023,0|2|8,0:0|0:0|0:0,0:0:0:0:
180,95,52572,1,2,0:0:0:0:
256,192,52786,12,4,54929,0:0:0:0:
167,103,55358,5,4,0:3:0:0:
364,126,55572,1,2,0:0:0:0:
331,153,55679,1,0,0:0:0:0:
294,176,55786,1,8,0:0:0:0:
255,194,55893,1,8,0:0:0:0:
212,201,56000,1,8,0:0:0:0:
168,197,56108,1,2,0:0:0:0:
127,183,56215,6,0,L|143:274,1,86.000000298023,6|0,0:0|0:0,0:0:0:0:
291,322,56643,1,8,0:0:0:0:
398,268,56858,2,0,P|444:258|484:253,2,86.000000298023,2|2|2,0:0|0:0|0:0,0:0:0:0:
252,341,57500,1,8,0:0:0:0:
99,322,57715,2,0,P|57:308|22:281,2,86.000000298023,2|2|2,0:0|0:0|0:0,0:0:0:0:
161,185,58358,2,0,P|126:159|85:146,1,86.000000298023,8|2,0:0|0:0,0:0:0:0:
89,231,58786,1,2,0:0:0:0:
256,272,59000,1,2,0:0:0:0:
423,231,59215,1,8,0:0:0:0:
341,202,59429,1,0,0:0:0:0:
307,123,59643,6,0,P|300:75|306:37,1,86.000000298023,2|2,0:0|0:0,0:0:0:0:
437,147,60072,2,0,P|435:195|423:231,1,86.000000298023,8|0,0:0|0:0,0:0:0:0:
230,178,60500,1,2,0:0:0:0:
423,231,60715,1,2,0:0:0:0:
256,272,60929,2,0,P|300:292|342:293,1,86.000000298023,8|2,0:0|0:0,0:0:0:0:
179,298,61358,2,0,L|91:312,1,86.000000298023,2|2,0:0|0:0,0:0:0:0:
92,187,61786,2,0,L|3:187,1,86.000000298023,8|2,0:0|0:0,0:0:0:0:
132,60,62215,2,0,L|44:46,1,86.000000298023,2|8,0:0|0:0,0:0:0:0:
218,143,62643,1,8,0:0:0:0:
316,55,62858,1,8,0:0:0:0:
337,40,62965,1,8,0:0:0:0:
354,28,63072,6,0,P|347:79|319:111,1,86.000000298023,6|0,0:0|0:0,0:0:0:0:
218,143,63500,1,8,0:0:0:0:
382,188,63715,1,0,0:0:0:0:
459,120,63929,2,0,P|469:81|473:32,1,86.000000298023,2|0,0:0|0:0,0:0:0:0:
459,244,64358,1,8,0:0:0:0:
313,329,64572,1,2,0:0:0:0:
313,329,64786,6,0,P|255:326|218:321,1,86.000000298023,2|0,0:0|0:0,0:0:0:0:
26,206,65215,2,0,B|31:153|29:112,1,86.000000298023,8|0,0:0|0:0,0:0:0:0:
177,39,65643,1,2,0:0:0:0:
307,101,65858,1,2,0:0:0:0:
120,185,66072,2,0,B|118:217|123:270,1,86.000000298023,8|0,0:0|0:0,0:0:0:0:
226,182,66500,5,2,0:0:0:0:
325,216,66715,1,2,0:0:0:0:
443,130,66929,2,0,P|451:88|455:33,1,86.000000298023,8|0,0:0|0:0,0:0:0:0:
448,226,67358,2,0,P|451:274|463:317,1,86.000000298023,2|0,0:0|0:0,0:0:0:0:
385,353,67786,1,8,0:0:0:0:
249,292,68000,1,2,0:0:0:0:
108,322,68215,6,0,P|57:321|10:324,1,86.000000298023,2|0,0:0|0:0,0:0:0:0:
149,235,68643,2,0,P|98:234|51:237,1,86.000000298023,8|2,0:0|0:0,0:0:0:0:
184,147,69072,2,0,P|133:146|86:149,1,86.000000298023,2|8,0:0|0:0,0:0:0:0:
7,169,69500,1,8,0:0:0:0:
139,60,69715,1,8,0:0:0:0:
139,60,69822,1,8,0:0:0:0:
139,60,69929,6,0,B|219:43|219:71|311:59,1,172.000000596046,6|8,0:0|0:0,0:0:0:0:
395,45,70572,2,0,P|440:46|480:52,2,86.000000298023,2|2|0,0:0|0:0|0:0,0:0:0:0:
272,143,71215,1,8,0:0:0:0:
396,127,71429,1,0,0:0:0:0:
496,201,71643,2,0,P|491:248|470:289,1,86.000000298023,2|0,0:0|0:0,0:0:0:0:
357,270,72072,2,0,P|329:308|290:333,1,86.000000298023,8|2,0:0|0:0,0:0:0:0:
164,296,72500,1,2,0:0:0:0:
83,266,72715,1,2,0:0:0:0:
21,204,72929,1,8,0:0:0:0:
14,118,73143,1,2,0:0:0:0:
143,47,73358,6,0,P|192:49|234:58,1,86.000000298023,2|2,0:0|0:0,0:0:0:0:
404,86,73786,2,0,P|355:88|313:97,1,86.000000298023,8|2,0:0|0:0,0:0:0:0:
110,139,74215,2,2,P|159:141|201:150,1,86.000000298023,2|2,0:0|0:0,0:0:0:0:
311,216,74643,1,8,0:0:0:0:
450,171,74858,1,2,0:0:0:0:
468,254,75072,2,0,P|462:302|451:340,1,86.000000298023,2|2,0:0|0:0,0:0:0:0:
286,293,75500,1,8,0:0:0:0:
110,325,75715,1,2,0:0:0:0:
75,246,75930,2,0,P|71:203|71:160,1,86.000000298023,2|2,0:0|0:0,0:0:0:0:
196,98,76358,2,0,P|200:141|200:184,1,86.000000298023,8|2,0:0|0:0,0:0:0:0:
71,160,76786,5,2,0:0:0:0:
138,33,77000,1,2,0:0:0:0:
274,79,77215,2,0,P|325:77|370:79,1,86.000000298023,8|0,0:0|0:0,0:0:0:0:
507,166,77643,2,0,P|456:168|411:166,1,86.000000298023,2|0,0:0|0:0,0:0:0:0:
324,161,78072,1,8,0:0:0:0:
256,320,78286,1,0,0:0:0:0:
256,320,78715,5,0,0:0:0:0:
324,161,78929,1,8,0:0:0:0:
168,86,79358,6,0,P|123:88|74:95,1,86.000000298023
26,158,79786,1,8,0:0:0:0:
188,219,80001,1,8,0:0:0:0:
188,219,80108,1,8,0:0:0:0:
188,219,80215,2,0,P|187:264|181:314,1,86.000000298023,2|2,0:0|0:0,0:0:0:0:
61,345,80643,2,0,P|56:302|55:259,1,86.000000298023,8|2,0:0|0:0,0:0:0:0:
99,184,81072,1,2,0:0:0:0:
277,235,81286,6,0,P|318:241|370:239,1,86.000000298023,0|8,0:0|0:0,0:0:0:0:
465,95,81715,1,0,0:0:0:0:
465,95,82143,1,0,0:0:0:0:
362,239,82358,1,8,0:0:0:0:
362,239,82786,2,0,P|319:241|277:235,1,86.000000298023,2|2,0:0|0:0,0:0:0:0:
193,257,83215,1,8,0:0:0:0:
65,129,83429,1,0,0:0:0:0:
65,129,83643,6,0,P|108:118|153:116,1,86.000000298023,6|0,0:0|0:0,0:0:0:0:
311,135,84072,1,8,0:0:0:0:
417,86,84286,2,0,P|463:90|506:89,2,86.000000298023,2|2|2,0:0|0:0|0:0,0:0:0:0:
303,47,84929,1,8,0:0:0:0:
186,80,85143,5,2,0:0:0:0:
130,166,85572,1,2,0:0:0:0:
171,260,86000,1,2,0:0:0:0:
272,279,86429,1,2,0:0:0:0:
256,192,86858,12,0,88572,0:0:0:0:
