osu file format v6

[General]
AudioFilename: Environmental Superman Ecogainder.mp3
AudioLeadIn: 1500
PreviewTime: 51247
Countdown: 1
SampleSet: Normal
StackLeniency: 0.5
Mode: 0
LetterboxInBreaks: 1

[Editor]
DistanceSpacing: 1
BeatDivisor: 4
GridSize: 8

[Metadata]
Title:Environmental Superman Ecogainder
Artist:Endo Masaaki
Creator:miccoliasms
Version:Reduce
Source:Ecology Song
Tags:taka1235

[Difficulty]
HPDrainRate:6
CircleSize:4
OverallDifficulty:6
SliderMultiplier:1.6
SliderTickRate:1

[Events]
//Background and Video events
0,0,"01.jpg"
//Break Periods
2,9447,17030
2,69447,77030
//Storyboard Layer 0 (Background)
//Storyboard Layer 1 (Fail)
//Storyboard Layer 2 (Pass)
//Storyboard Layer 3 (Foreground)
//Storyboard Sound Samples
//Background Colour Transformations
3,100,163,162,255

[TimingPoints]
581,333.333333333333,4,1,0,80,1,0
39497,-100,4,1,0,70,0,0
51164,-100,4,1,0,90,0,1
77997,-100,4,1,0,80,0,0
99497,-100,4,1,0,70,0,0
111164,-100,4,1,0,70,0,1

[Colours]
Combo1 : 0,128,255
Combo2 : 255,0,0
Combo3 : 0,255,0

[HitObjects]
96,192,581,2,0,B|280:176|240:224|456:192,1,320
304,312,1580,1,0
384,296,1747,1,0
384,296,2247,6,0,B|448:240|440:136,1,160
296,72,2914,1,0
216,48,3080,1,0
96,200,3580,5,0
96,200,3747,1,0
96,200,3914,2,0,B|96:312|200:344,1,160
169,331,4414,1,0
384,232,4914,1,0
384,232,5080,1,0
384,232,5247,1,0
432,168,5414,2,0,B|472:96,2,80
296,88,6080,5,0
224,120,6247,1,0
256,192,6414,1,0
176,208,6580,2,0,B|176:344|280:344,1,160
256,192,7080,12,0,8247
112,136,8914,5,4
400,256,9247,1,4
88,200,18080,6,0,B|112:104|192:80,1,160
232,144,18580,2,0,B|296:216|416:176,2,160,0|0|0
288,88,19414,1,0
360,64,19580,1,8
424,104,19747,1,0
400,264,20080,1,0
400,264,20247,1,8
256,328,20580,1,0
256,328,20747,6,0,B|152:296,2,80,0|0|0
296,256,21247,2,0,B|392:224,2,80
216,256,21747,2,0,B|128:224,2,80
256,184,22247,1,8
256,184,22414,1,0
336,48,22747,1,0
336,48,22914,1,8
176,48,23247,1,0
176,48,23414,5,0
176,48,23580,2,0,B|152:96|88:96|56:168,1,160
104,224,24080,2,0,B|136:304,2,80,0|8|0
176,192,24580,2,0,B|224:216|264:152,1,80
288,104,24914,2,0,B|352:72|368:160,1,80,8|0
416,176,25247,1,0
400,256,25414,1,0
344,312,25580,1,8
264,336,25747,1,0
256,192,25914,12,0,26914
120,208,27247,5,0
120,208,27414,1,0
120,208,27581,2,0,B|168:296,1,80,8|0
240,280,27914,1,0
256,280,27997,1,0
272,280,28080,1,0
288,280,28164,1,0
304,280,28247,2,0,B|344:192,1,80,8|0
256,160,28580,1,0
256,160,28747,6,0,B|216:80|112:80,1,160
72,144,29247,1,0
72,144,29580,1,8
144,280,29914,1,0
208,328,30080,1,0
288,328,30247,1,8
360,296,30414,1,0
416,144,30747,1,0
416,144,30914,1,8
272,64,31247,1,0
272,64,31414,6,0,B|184:72,2,80
344,96,31914,2,0,B|432:88,2,80
288,152,32414,1,0
208,176,32580,2,0,B|120:168,1,80
72,224,32914,2,0,B|168:232,1,80,8|0
208,288,33247,1,0
288,272,33414,1,0
344,216,33580,1,8
224,112,33914,1,0
224,112,34080,6,0,B|120:88,2,80
184,184,34580,1,0
184,184,34747,1,0
112,224,34914,1,8
112,224,35080,1,0
152,296,35247,2,0,B|216:296|216:232,1,80
184,184,35580,2,0,B|240:184|240:240,1,80,8|0
288,296,35914,1,0
368,296,36080,1,0
432,256,36247,1,8
480,192,36414,1,0
256,192,36580,12,0,38247
256,200,38580,5,0
256,200,38747,1,0
256,200,38914,1,0
424,320,39247,5,4
424,64,39580,5,0
360,112,39747,1,0
328,184,39914,2,0,B|312:288,1,80
240,288,40247,2,0,B|256:176,1,80
264,128,40580,2,0,B|200:64|96:72,2,160
200,176,41414,1,0
200,176,41580,1,0
200,176,41747,1,0
144,232,41914,2,0,B|160:328|264:344,1,160,4|0
296,272,42414,2,0,B|400:248|408:152,1,160,4|0
360,96,42914,1,0
296,48,43080,1,0
216,48,43247,1,0
112,168,43580,5,8
88,240,43747,1,0
216,336,44080,1,0
248,264,44247,1,8
392,328,44580,1,4
400,168,44914,5,0
368,96,45080,1,0
304,48,45247,2,0,B|264:80|232:48,1,80
160,88,45580,2,0,B|200:120|184:168,1,80
256,192,45914,2,0,B|344:200,1,80
376,272,46247,2,0,B|280:264,1,80,8|0
216,280,46580,2,0,B|208:336|136:336,1,80
104,272,46914,2,0,B|152:232|96:176,1,80,8|0
160,136,47247,1,0
216,80,47414,1,0
288,48,47581,1,8
368,48,47747,1,0
152,312,48080,5,0
152,312,48247,1,0
152,312,48414,1,0
232,304,48580,5,0
312,312,48747,1,0
416,192,49080,1,0
432,112,49247,1,0
272,112,49580,1,0
192,104,49747,1,0
200,264,50080,1,0
120,272,50247,1,0
96,112,50580,5,0
408,112,50914,1,0
256,184,51247,6,0,B|240:280,1,80
312,304,51580,2,0,B|328:216,1,80,8|0
352,152,51914,2,0,B|304:80|208:80,1,160,0|8
224,160,52414,2,0,B|176:232|72:224,1,160
48,296,52914,1,8
112,344,53080,1,0
168,288,53247,2,0,B|232:232|344:256,1,160,0|8
280,320,53747,2,0,B|384:336|448:256,1,160
376,216,54247,5,8
376,216,54414,1,0
376,216,54580,2,0,B|456:168|440:48,1,160,0|8
376,120,55080,2,0,B|288:136|232:56,1,160
168,96,55580,2,0,B|64:96,2,80,8|0|0
216,152,56080,1,0
248,224,56247,1,8
200,288,56414,2,0,B|136:344|32:336,1,160
72,256,56914,5,8
104,184,57080,1,0
168,232,57247,2,0,B|248:168|248:72,1,160,0|8
320,64,57747,2,0,B|376:136|480:120,1,160
440,200,58247,1,8
376,264,58414,1,0
312,312,58580,2,0,B|240:264|152:320,1,160,0|8
192,240,59080,2,0,B|112:272|32:192,1,160
112,128,59580,5,8
192,112,59747,1,0
264,144,59914,2,0,B|432:152,1,160,0|8
472,216,60414,2,0,B|288:208,1,160
360,272,60914,5,8
280,288,61080,1,0
200,280,61247,2,0,B|32:256,1,160,0|8
24,176,61747,2,0,B|192:200,1,160
224,128,62247,5,8
304,112,62414,1,0
384,128,62580,1,0
440,184,62747,1,0
432,264,62914,1,8
432,264,63080,1,0
376,320,63247,6,0,B|288:360|200:280,1,160,0|8
296,264,63747,2,0,B|240:184|120:200,1,160
80,232,64247,5,8
48,160,64414,1,0
72,80,64580,2,0,B|168:96,1,80,8|0
216,48,64914,2,0,B|312:104,1,80,8|0
320,160,65247,1,8
296,240,65414,1,0
328,312,65580,1,8
400,336,65747,1,0
256,192,66080,12,0,68580
432,304,68914,5,4
80,80,69247,1,4
136,200,78080,6,0,B|152:296|280:312,1,160
280,232,78580,2,0,B|336:152|456:184,2,160
248,304,79414,1,0
168,320,79580,1,8
96,288,79747,1,0
152,136,80080,1,0
152,136,80247,1,8
304,88,80580,1,4
304,88,80747,6,0,B|392:96,2,80
248,144,81247,2,0,B|160:128,2,80
320,176,81747,1,0
360,240,81914,1,0
336,312,82080,1,0
264,344,82247,1,8
192,312,82414,1,0
72,184,82747,1,0
72,184,82914,1,8
176,64,83247,1,0
256,80,83414,5,0
256,80,83580,1,0
256,80,83747,1,0
336,96,83914,2,0,B|424:136,1,80
336,168,84247,2,0,B|248:160,1,80
280,240,84580,1,0
264,320,84747,1,0
184,344,84914,1,8
104,328,85080,1,0
56,256,85247,2,0,B|48:160,1,80
120,144,85580,2,0,B|128:248,1,80,8|0
256,192,85914,12,0,86914
392,176,87247,5,0
392,176,87414,1,0
392,176,87581,2,0,B|344:88,1,80,8|0
272,104,87914,1,0
256,104,87997,1,0
240,104,88080,1,0
224,104,88164,1,0
208,104,88247,2,0,B|168:192,1,80,8|0
224,232,88580,1,0
224,232,88747,6,0,B|280:304|400:288,1,160
424,240,89247,1,0
448,168,89414,1,0
376,136,89580,2,0,B|328:56|208:56,1,160
256,136,90080,1,0
192,184,90247,1,8
128,136,90414,1,0
88,288,90747,1,0
88,288,90914,1,8
240,320,91247,1,4
240,320,91414,5,0
312,288,91580,1,0
392,280,91747,1,0
352,208,91914,2,0,B|336:152|408:144,1,80
440,88,92247,2,0,B|432:40|376:56,1,80
296,56,92580,2,0,B|200:56,2,80,0|0|8
296,56,93080,1,0
200,184,93414,1,0
200,184,93580,1,8
336,272,93914,1,4
336,272,94080,6,0,B|440:240,2,80
256,296,94580,2,0,B|168:320,1,80
168,240,94914,2,0,B|72:264,1,80
88,176,95247,2,0,B|144:80,1,80
184,160,95580,2,0,B|224:80,1,80
280,144,95914,1,0
360,152,96080,1,0
432,192,96247,1,0
256,192,96580,12,0,98247
256,200,98580,5,0
256,200,98747,1,0
256,200,98914,1,0
104,304,99247,5,4
104,80,99580,5,0
176,120,99747,1,0
136,192,99914,2,0,B|152:288|248:312,1,160
296,256,100414,1,0
352,312,100580,2,0,B|424:248,1,80
448,192,100914,2,0,B|384:248,1,80
312,264,101247,2,0,B|400:192,1,80
408,136,101580,2,0,B|336:200,1,80
312,112,101914,2,0,B|248:64|160:64,1,160,4|0
208,128,102414,2,0,B|168:192|72:216,1,160,4|0
48,288,102914,1,0
120,328,103080,1,0
200,328,103247,1,0
336,272,103580,5,8
416,256,103747,1,0
472,104,104080,1,0
400,64,104247,1,8
240,72,104580,1,4
176,264,104914,5,0
176,264,105247,1,0
176,264,105580,1,0
336,264,105914,2,0,B|432:264,1,80
416,184,106247,2,0,B|320:184,1,80,8|0
336,104,106580,2,0,B|216:104,1,80
256,184,106914,2,0,B|152:184,1,80,8|0
96,184,107247,5,0
136,256,107414,1,0
176,320,107580,1,0
408,264,108080,1,0
376,96,108414,1,0
296,88,108580,5,0
216,96,108747,1,0
296,232,109080,1,0
376,240,109247,1,0
216,224,109580,1,0
136,208,109747,1,0
256,312,110080,1,0
264,232,110247,1,0
120,160,110580,5,0
392,160,110914,1,0
256,200,111247,6,0,B|272:104,1,80
200,80,111580,2,0,B|184:168,1,80,8|0
160,232,111914,2,0,B|208:304|304:304,1,160,0|8
288,224,112414,2,0,B|336:152|440:160,1,160
464,88,112914,1,8
400,40,113080,1,0
344,96,113247,2,0,B|280:152|168:128,1,160,0|8
232,64,113747,2,0,B|128:48|64:128,1,160
136,168,114247,5,8
136,168,114414,1,0
136,168,114580,2,0,B|56:216|72:336,1,160,0|8
136,264,115080,2,0,B|224:248|280:328,1,160
344,288,115580,2,0,B|448:288,2,80,8|0|0
296,232,116080,1,0
264,160,116247,1,8
312,96,116414,2,0,B|376:40|480:48,1,160
432,120,116914,5,8
464,192,117080,1,0
408,248,117247,2,0,B|368:160|248:152,1,160,0|8
224,96,117747,2,0,B|192:168|96:200,1,160
72,272,118247,5,8
136,320,118414,1,0
208,288,118580,2,0,B|216:184|336:152,1,160,0|8
352,112,119080,2,0,B|360:216|488:232,1,160
408,296,119580,5,8
336,328,119747,1,0
304,256,119914,2,0,B|280:152,1,80
360,144,120247,2,0,B|336:56,1,80,8|0
338,66,120580,1,0
256,64,120747,1,0
184,112,120914,6,0,B|216:200,1,80,8|0
136,208,121247,2,0,B|168:296,1,80
240,256,121580,2,0,B|272:344,1,80,8|0
267,331,121914,1,0
376,208,122247,5,8
320,144,122414,1,0
248,104,122580,1,0
168,96,122747,1,0
192,168,122914,2,0,B|176:256,1,80,8|0
96,264,123247,2,0,B|152:328|264:344,1,160,4|8
288,280,123747,2,0,B|336:208|464:216,1,160,4|0
448,136,124247,5,8
408,64,124414,1,0
328,64,124580,2,0,B|304:144,1,80,8|0
360,192,124914,2,0,B|272:256,1,80,8|0
248,304,125247,1,8
168,320,125414,1,0
96,288,125580,1,8
64,216,125747,1,0
256,192,126164,12,0,128580
88,136,128914,5,4
424,248,129247,1,4
