osu file format v6

[General]
AudioFilename: Environmental Superman Ecogainder.mp3
AudioLeadIn: 1500
PreviewTime: 51247
Countdown: 1
SampleSet: Normal
StackLeniency: 0.5
Mode: 0
LetterboxInBreaks: 1

[Editor]
Bookmarks: 51247
DistanceSpacing: 1.5
BeatDivisor: 4
GridSize: 8

[Metadata]
Title:Environmental Superman Ecogainder
Artist:Endo Masaaki
Creator:miccoliasms
Version:Ecology
Source:Ecology Song
Tags:

[Difficulty]
HPDrainRate:6
CircleSize:5
OverallDifficulty:7
SliderMultiplier:1.4
SliderTickRate:1

[Events]
//Background and Video events
0,0,"01.jpg"
//Break Periods
2,9447,17014
2,69447,77014
2,129447,139680
//Storyboard Layer 0 (Background)
//Storyboard Layer 1 (Fail)
//Storyboard Layer 2 (Pass)
//Storyboard Layer 3 (Foreground)
Sprite,Foreground,Centre,"04.png",320,240 M,0,162664,162747,65,110,160,120 M,0,162747,166195,160,120,193,136
Sprite,Foreground,Centre,"05.png",320,240 M,0,162830,162914,538,57,481,117 M,0,162914,167011,481,117,438,135
Sprite,Foreground,Centre,"14.png",320,240 M,0,163664,,381,282 S,0,163664,163747,1.0128,0.744 S,0,163747,164080,0.744,1.3264 S,0,164080,166411,1.3264,1.560259
//Storyboard Sound Samples
//Background Colour Transformations
3,100,163,162,255

[TimingPoints]
581,333.333333333333,4,1,0,80,1,0
9164,-100,4,1,0,90,0,1
9247,-100,4,1,0,90,0,0
39164,-100,4,1,0,70,0,0
48914,-100,4,1,0,80,0,0
49914,-100,4,1,0,90,0,0
50747,-100,4,1,0,100,0,0
51080,-100,4,1,0,90,0,0
69164,-100,4,1,0,90,0,1
69247,-100,4,1,0,80,0,0
99164,-100,4,1,0,70,0,0
108914,-100,4,1,0,80,0,0
109914,-100,4,1,0,90,0,0
110747,-100,4,1,0,100,0,0
111080,-100,4,1,0,90,0,0
129164,-100,4,1,0,90,0,1
129247,-100,4,1,0,90,0,0
152497,-100,4,1,0,70,0,0
162247,-100,4,1,0,80,0,0
162747,-100,4,1,0,90,0,0
163747,-100,4,1,0,70,0,0
164414,-100,4,1,0,80,0,0
164914,-100,4,1,0,90,0,0
165414,-100,4,1,0,100,0,0
166830,-100,4,1,0,90,0,1
185164,-100,4,1,0,90,0,1
185247,-100,4,1,0,90,0,0

[Colours]
Combo1 : 0,128,255
Combo2 : 255,0,0
Combo3 : 0,255,0

[HitObjects]
120,72,581,2,0,B|408:72,1,280
400,200,1580,2,0,B|400:256,2,35
208,192,2247,6,0,B|208:360,1,140
328,328,2914,2,0,B|328:280,2,35
328,136,3581,5,0
328,72,3747,1,0
264,72,3914,1,0
200,72,4081,1,0
136,72,4247,1,0
136,136,4414,1,0
136,320,4914,5,0
136,256,5081,2,0,B|88:256,2,35
136,192,5414,2,0,B|176:192,4,35
256,224,6080,5,0
304,264,6247,1,0
352,304,6414,2,0,B|352:16,1,280
256,192,7247,12,4,9247
256,192,17914,5,0
320,192,18080,1,0
384,192,18247,1,8
384,128,18414,1,0
352,72,18580,2,0,B|192:72,1,140,0|8
212,72,19080,1,0
144,72,19247,1,0
176,128,19414,1,0
112,128,19580,2,0,B|48:128,2,35,8|0|0
112,256,20080,5,8
112,256,20247,1,8
200,344,20580,5,0
264,344,20747,1,0
264,280,20914,1,8
264,216,21080,1,0
328,216,21247,2,0,B|328:368,1,140,0|8
392,344,21747,1,0
440,296,21914,1,0
392,248,22080,1,0
440,200,22247,2,0,B|496:200,3,35,8|0|0|0
440,112,22747,5,8
440,112,22914,1,8
336,40,23247,5,0
272,40,23414,1,0
304,96,23580,2,0,B|160:96,1,140,8|0
120,144,24080,2,0,B|264:144,1,140
264,208,24580,1,0
264,272,24747,1,0
208,296,24914,2,0,B|208:352,2,35,8|0|0
152,272,25247,2,0,B|152:224,4,35,0|0|0|0|8
256,192,25747,12,4,27247
256,192,27580,5,8
256,192,27747,1,8
256,64,28080,1,8
256,64,28164,1,8
256,64,28247,1,8
128,64,28580,5,0
128,128,28747,1,0
72,96,28914,1,8
72,96,29080,2,0,B|72:248,1,140
72,236,29580,1,8
128,200,29747,1,0
128,264,29914,1,0
72,296,30080,1,0
128,328,30247,2,0,B|280:328,1,140,8|0
264,264,30747,5,8
264,264,30914,1,8
392,264,31247,5,0
392,264,31414,1,0
440,224,31580,1,8
440,224,31747,1,0
440,160,31914,1,0
440,160,32080,1,0
392,120,32247,1,8
392,120,32414,1,0
336,88,32580,1,0
272,80,32747,1,0
208,96,32914,1,8
160,136,33080,1,0
136,192,33247,1,0
128,256,33414,5,8
128,256,33497,1,8
128,256,33580,1,8
256,256,33914,5,0
320,256,34080,2,0,B|320:176,1,70,0|8
384,184,34414,2,0,B|384:112,1,70
448,112,34747,2,0,B|448:24,1,70,0|8
384,48,35080,1,0
320,48,35247,2,0,B|320:120,1,70
256,120,35580,2,0,B|256:192,1,70,8|0
192,192,35914,2,0,B|192:280,2,70,0|0|8
192,128,36414,2,2,B|128:128|128:128|128:360,1,280,2|2
256,344,37413,1,0
256,344,37580,1,8
256,216,37913,1,0
256,88,38247,5,8
256,88,38414,1,8
256,216,38747,1,8
256,216,38914,1,8
384,216,39247,5,0
384,152,39414,1,0
384,88,39580,1,8
448,88,39747,1,0
384,88,39914,1,0
320,88,40080,1,0
320,152,40247,2,0,B|320:232,1,70,8|0
320,288,40580,2,0,B|224:288,1,70
248,224,40914,2,0,B|248:120,1,70,8|0
248,88,41247,5,0
248,88,41414,5,0
248,88,41497,1,0
248,88,41580,1,8
184,88,41747,2,0,B|184:176,1,70
120,160,42080,2,0,B|120:240,1,70,0|8
56,232,42414,2,0,B|56:320,1,70
112,336,42747,1,0
176,336,42914,1,8
176,272,43080,1,0
240,272,43247,1,0
240,144,43580,5,8
240,144,43747,1,8
240,272,44080,1,8
240,272,44164,1,8
240,272,44247,1,8
240,208,44414,6,0,B|328:208,1,70
310,208,44747,1,0
312,272,44914,1,8
312,336,45080,1,0
376,344,45247,2,0,B|376:200,1,140,0|8
376,136,45747,1,0
440,136,45914,1,0
408,80,46080,1,0
344,80,46247,2,0,B|248:80,1,70,8|0
208,80,46580,2,0,B|120:80,2,70,0|0|8
208,144,47080,6,0,B|312:144,2,70
144,144,47580,1,8
88,176,47747,1,0
144,208,47914,1,0
144,272,48080,1,0
144,272,48164,1,0
144,272,48247,1,8
192,312,48414,1,0
192,312,48497,1,0
192,312,48580,1,0
192,312,48664,1,0
192,312,48747,1,4
464,336,49080,5,0
464,336,49247,1,4
464,48,49580,5,0
464,48,49747,1,4
56,48,50080,5,0
56,48,50247,1,4
56,336,50580,5,0
56,336,50914,1,4
256,192,51247,5,0
320,192,51414,1,0
384,192,51580,1,8
384,256,51747,1,0
320,256,51914,2,0,B|320:352,1,70
256,328,52247,2,0,B|256:240,1,70,8|0
192,256,52580,5,0
192,320,52747,1,0
128,320,52914,1,8
128,256,53080,1,0
128,192,53247,2,0,B|208:192,1,70
200,128,53580,2,0,B|120:128,1,70,8|0
128,64,53914,5,0
64,64,54080,1,0
64,128,54247,2,0,B|64:296,1,140,8|0
64,268,54747,1,0
64,328,54914,2,0,B|64:368,2,35,8|0|0
120,296,55247,5,0
184,296,55414,1,0
184,360,55580,1,8
248,360,55747,1,0
248,296,55914,2,0,B|248:208,1,70
184,224,56247,2,0,B|112:224,1,70,8|0
112,160,56580,5,0
112,160,56747,1,0
112,96,56914,1,8
112,96,57080,1,0
176,96,57247,1,0
176,96,57414,1,0
176,160,57580,2,0,B|328:160,1,140,8|0
376,160,58080,2,0,B|376:216,2,35,0|0|8
440,160,58414,2,0,B|440:104,4,35
440,224,58914,5,8
440,288,59080,1,0
440,352,59247,1,0
376,352,59414,2,0,B|376:272,2,70,0|8|0
312,352,59914,2,0,B|216:352,2,70,0|0|8
312,288,60414,1,0
248,288,60580,6,0,B|248:224,2,35
184,288,60914,1,8
184,224,61080,1,0
184,160,61247,1,0
120,160,61414,2,0,B|120:304,1,140
56,296,61914,5,0
56,296,62080,1,0
56,168,62414,1,0
56,168,62580,1,0
56,40,62914,1,0
56,40,63080,1,0
184,40,63414,1,0
184,40,63497,1,0
184,40,63580,1,0
120,40,63747,1,0
120,40,63830,1,0
120,40,63914,1,0
120,40,63997,1,0
120,40,64080,1,0
120,104,64247,6,0,B|120:200,1,70,8|0
184,176,64580,2,0,B|280:176,2,70,0|0|8
136,216,65080,1,0
160,272,65247,1,0
216,304,65414,1,0
280,304,65580,1,8
336,272,65747,1,0
368,216,65914,1,4
368,152,66081,5,0
368,152,66164,1,0
368,152,66248,1,8
240,152,66581,1,0
240,152,66664,1,0
240,152,66748,1,0
240,152,66831,1,0
240,152,66914,1,8
304,160,67080,2,0,B|304:16,1,140
240,24,67580,2,0,B|240:104,1,70,8|0
168,88,67914,2,0,B|168:160,1,70
104,160,68247,2,0,B|104:240,1,70,8|0
256,192,68497,12,0,69247
256,192,77914,5,0
320,136,78080,1,0
256,192,78247,1,8
320,248,78414,1,0
256,192,78580,1,0
192,248,78747,1,0
256,192,78914,1,8
192,136,79080,1,0
128,72,79247,1,0
72,136,79414,1,0
72,216,79580,2,0,B|72:368,1,140,8|0
152,352,80080,5,8
152,352,80247,1,8
320,352,80580,5,0
320,264,80747,2,0,B|224:264,1,70,0|8
248,176,81080,2,0,B|328:176,1,70
400,176,81414,2,0,B|400:88,1,70,0|8
344,48,81747,1,0
256,48,81914,1,0
216,48,81997,1,0
176,48,82080,1,0
176,128,82247,1,8
176,208,82414,2,0,B|176:368,1,140,0|8
176,348,82914,5,8
288,224,83247,5,0
288,304,83414,2,0,B|288:384,2,70,0|8|0
360,264,83914,2,0,B|360:176,2,70,0|0|8
432,304,84414,1,0
432,216,84580,2,0,B|432:64,1,140,0|8
432,76,85080,1,0
384,8,85247,1,0
328,72,85414,1,0
256,24,85580,1,8
256,192,85747,12,4,86914
256,192,87247,5,0
88,192,87580,1,8
88,192,87747,1,8
256,192,88080,1,8
256,192,88247,1,8
424,192,88580,6,0,B|424:48,1,140,0|8
336,48,89080,1,0
336,128,89247,1,0
336,208,89414,1,0
336,288,89580,2,0,B|176:288,1,140,8|0
112,288,90080,1,0
112,200,90247,1,8
152,200,90330,1,0
192,200,90414,1,0
192,32,90747,5,8
192,32,90914,1,8
192,200,91247,6,0,B|192:104,1,70
272,128,91580,2,0,B|272:40,1,70,8|0
352,56,91914,2,0,B|432:56,1,70
424,136,92247,1,8
352,184,92414,1,0
424,224,92580,1,0
424,264,92664,1,0
424,304,92747,1,0
352,352,92914,1,8
352,264,93080,1,0
184,264,93414,5,8
184,264,93580,1,8
184,96,93914,5,0
224,96,93997,1,0
264,96,94080,1,0
264,176,94247,1,8
224,176,94330,1,0
184,176,94414,1,0
96,176,94580,1,0
96,216,94664,1,0
96,256,94747,1,0
96,296,94830,1,0
96,336,94914,1,8
176,336,95080,1,0
176,248,95247,6,0,B|264:248,1,70
248,328,95580,2,0,B|320:328,1,70,8|0
344,248,95914,2,0,B|432:248,1,70
416,160,96247,1,8
416,72,96414,1,0
256,192,96580,12,4,97914
256,64,98247,5,8
256,64,98414,1,8
256,232,98747,1,8
256,144,98914,1,8
424,144,99247,5,0
336,144,99414,1,0
376,216,99580,1,8
424,280,99747,1,0
336,280,99914,1,0
336,360,100080,2,0,B|192:360,1,140,0|0
200,272,100580,2,0,B|288:272,1,70
272,184,100914,2,0,B|272:96,1,70,8|0
200,64,101247,1,0
200,144,101414,1,0
112,144,101580,1,8
112,224,101747,1,0
24,224,101914,6,0,B|24:136,2,70,0|0|8
72,296,102414,2,0,B|72:376,2,70
152,288,102914,1,8
152,288,103080,1,0
232,288,103247,1,0
232,120,103580,1,8
232,120,103747,1,8
232,288,104080,5,8
232,248,104164,1,8
232,208,104247,1,8
400,200,104580,5,0
312,200,104747,1,0
312,288,104914,1,8
312,200,105080,1,0
312,112,105247,1,0
224,112,105414,1,0
144,80,105580,2,0,B|144:24,2,35,8|0|0
64,112,105914,2,0,B|64:176,4,35,0|0|0|0|8
144,144,106414,1,0
224,176,106580,1,0
144,208,106747,2,0,B|144:296,1,70,0|8
176,352,107080,5,0
256,328,107247,2,0,B|256:248,2,70,0|0|8
256,328,107747,2,0,B|336:328,2,70
256,328,108247,2,0,B|160:328,2,70,8|0|0
256,376,108747,5,4
496,192,109080,5,0
496,192,109247,1,4
256,16,109580,5,0
256,16,109747,1,0
16,192,110080,5,0
16,192,110247,1,4
256,192,110580,5,0
256,192,110914,1,4
424,192,111247,5,0
336,192,111414,1,0
336,272,111580,1,8
248,272,111747,1,0
160,272,111914,2,0,B|160:352,2,70,0|0|8
160,184,112414,1,0
120,112,112580,6,0,B|120:56,2,35
80,184,112914,2,0,B|80:240,4,35,8|0|0|0|0
40,112,113414,1,0
80,40,113580,1,8
160,40,113747,2,0,B|256:176,1,140
240,240,114247,5,8
240,320,114414,1,0
320,320,114580,1,0
400,320,114747,2,0,B|472:320,2,70,0|8|0
400,240,115247,2,0,B|488:240,2,70,0|0|8
320,240,115747,1,0
320,152,115914,1,0
400,152,116080,1,0
400,64,116247,2,0,B|240:64,1,140,8|0
176,64,116747,5,0
88,64,116914,1,8
88,144,117080,1,0
176,144,117247,2,0,B|216:144,2,35
88,144,117580,1,8
88,144,117664,1,0
88,144,117747,1,0
88,224,117914,5,0
144,280,118080,1,0
224,280,118247,1,8
224,320,118330,1,0
224,360,118414,1,0
304,360,118580,1,0
304,320,118664,1,0
304,280,118747,1,0
304,240,118830,1,0
304,200,118914,1,8
384,200,119080,2,0,B|384:56,1,140
304,24,119580,5,8
304,104,119747,1,0
304,24,119914,1,0
304,104,120080,1,0
304,24,120247,1,8
304,104,120414,1,0
232,64,120580,5,0
232,144,120747,1,0
152,104,120914,1,8
152,184,121080,1,0
80,224,121247,1,0
80,144,121414,1,0
16,192,121580,2,0,B|16:288,1,70,8|0
80,320,121914,5,0
248,320,122248,1,0
248,320,122414,1,0
416,320,122748,1,0
416,320,122830,1,0
416,320,122914,1,0
416,232,123080,1,0
416,232,123164,1,0
416,232,123247,1,0
416,232,123330,1,0
416,232,123414,1,0
328,232,123580,6,0,B|328:88,1,140,8|0
256,48,124080,1,0
256,128,124247,1,8
176,88,124414,1,0
176,168,124580,1,0
96,128,124747,2,0,B|96:272,1,140
96,268,125247,1,0
96,268,125330,1,0
96,268,125414,1,0
96,352,125580,1,8
136,352,125664,1,0
176,352,125747,1,0
216,352,125830,1,0
256,352,125914,1,4
256,264,126080,5,0
336,264,126247,2,0,B|432:264,1,70,8|0
408,176,126580,1,0
328,176,126747,1,0
256,176,126914,1,8
256,176,126997,1,0
256,176,127080,1,0
256,176,127164,1,0
256,176,127247,1,0
168,176,127414,5,0
168,256,127580,1,8
168,336,127747,1,0
248,336,127914,1,0
328,336,128080,1,0
408,336,128247,1,8
408,256,128414,1,0
256,192,128497,12,4,129247
256,160,140580,6,0,L|112:160,1,140,0|0
24,216,141080,2,0,L|192:216,1,140
256,272,141580,2,0,L|112:272,1,140,0|0
24,320,142080,2,0,L|168:320,1,140
272,320,142580,1,2
376,320,142747,1,0
272,320,142914,1,2
376,320,143080,1,0
456,248,143247,6,0,L|456:96,1,140
400,16,143747,2,0,L|400:168,1,140
344,248,144247,2,0,L|344:88,1,140
288,16,144747,2,0,L|288:184,1,140
288,256,145247,1,0
288,360,145414,1,2
288,256,145580,1,0
288,360,145747,1,2
200,304,145914,6,0,L|88:200,1,140,0|8
192,16,146580,2,0,L|312:128,1,140,0|8
488,200,147247,6,0,L|376:328,1,140,0|8
248,152,147914,2,0,L|352:32,1,140,0|8
264,240,148580,6,0,L|168:352,1,140,0|8
32,192,149247,2,0,L|144:72,1,140,0|8
256,192,149914,12,8,152247
256,192,152580,5,0
256,64,152747,1,0
384,64,152914,1,8
384,192,153080,1,0
384,320,153247,1,0
256,320,153414,1,0
128,320,153580,1,8
128,192,153747,1,0
128,64,153914,2,0,B|232:168,1,140,0|8
256,288,154414,2,0,B|256:200,2,70
256,160,154914,6,0,B|352:160,1,70,8|0
328,288,155247,1,0
200,288,155414,1,0
328,288,155580,1,8
456,288,155747,1,0
456,160,155914,2,0,B|456:56,1,70
328,88,156247,1,8
200,88,156414,1,0
72,88,156580,5,0
72,336,156914,1,8
72,336,157081,1,8
72,88,157414,1,8
72,88,157581,1,8
224,88,157914,5,0
144,184,158080,1,0
224,280,158247,1,8
352,280,158414,1,0
432,184,158580,1,0
352,88,158747,1,0
280,192,158914,2,0,B|280:352,1,140,8|0
152,336,159414,6,0,B|48:336,2,70,0|8|0
152,208,159914,2,0,B|152:120,2,70,0|0|8
256,144,160414,1,0
368,192,160580,1,0
320,72,160747,1,0
192,72,160914,1,8
152,192,161080,1,0
256,256,161247,1,0
256,256,161330,1,0
256,256,161414,1,0
256,128,161580,1,8
256,128,161664,1,0
256,128,161747,1,0
256,128,161830,1,0
256,128,161914,1,0
384,128,162080,5,4
128,128,162414,5,0
256,128,162580,1,4
128,344,162914,5,0
128,216,163080,1,4
392,216,163414,5,0
392,344,163580,1,4
392,88,163914,5,0
128,88,164247,1,4
128,336,164580,5,0
128,208,164747,1,4
392,208,165080,5,0
392,336,165247,1,4
256,120,165580,5,0
256,248,165747,1,4
256,192,165914,12,4,166914
384,192,167247,5,0
256,192,167414,1,0
128,192,167580,1,8
192,296,167747,1,0
320,296,167914,1,0
384,192,168080,1,0
320,80,168247,1,8
192,80,168414,1,0
256,192,168580,6,0,B|256:144,2,35
256,320,168914,2,0,B|256:360,4,35,8|0|0|0|0
144,256,169414,1,0
40,192,169580,1,8
144,120,169747,2,0,B|320:120,1,140
384,192,170247,5,8
256,192,170414,1,0
256,320,170580,2,0,B|352:320,2,70,0|0|8
256,192,171080,2,0,B|256:104,2,70
128,192,171580,1,8
128,192,171664,1,0
128,192,171747,1,0
128,320,171914,1,0
128,320,171997,1,0
128,320,172080,1,0
128,320,172164,1,0
128,320,172247,1,8
256,320,172414,1,0
256,192,172580,5,0
192,80,172747,1,0
320,80,172914,2,0,B|408:192,1,140,8|0
408,312,173414,1,0
336,208,173580,2,0,B|336:280,2,70,8|0|0
256,120,174080,5,0
256,184,174164,1,0
256,248,174247,1,8
128,248,174414,1,0
128,184,174497,1,0
128,120,174580,1,0
192,224,174747,1,0
192,352,174914,1,8
320,352,175080,2,0,B|424:248,1,140
416,128,175580,5,8
344,24,175747,1,0
344,24,175914,1,0
272,128,176080,1,0
272,128,176247,1,8
200,24,176414,1,0
128,128,176580,6,0,B|72:128,2,35
200,232,176914,2,0,B|248:232,4,35,8|0|0|0|0
128,336,177414,1,0
48,232,177580,1,8
160,176,177747,2,0,B|320:176,1,140
424,192,178247,5,0
424,192,178414,1,0
256,8,178747,1,0
256,8,178913,1,0
80,192,179247,1,0
80,192,179330,1,0
80,192,179414,1,0
208,192,179580,5,0
232,248,179664,1,0
296,248,179747,1,0
320,192,179830,1,0
264,152,179914,1,0
264,280,180080,5,0
392,280,180247,1,8
392,152,180414,1,0
264,152,180580,6,0,B|264:0|264:0,1,140,0|8
200,120,181080,1,0
328,120,181247,1,0
328,248,181414,1,0
200,248,181580,1,8
264,352,181747,1,0
448,192,182080,5,0
320,192,182247,1,8
192,192,182414,1,0
64,192,182580,1,0
192,192,182747,5,0
320,192,182914,1,8
448,192,183080,1,0
384,80,183247,5,0
384,144,183330,1,0
384,208,183414,1,0
256,216,183580,5,8
256,152,183664,1,0
256,88,183747,1,0
128,80,183914,5,0
128,144,183997,1,0
128,208,184080,1,0
256,216,184247,5,8
256,216,184414,1,0
256,192,184497,12,4,185247
