osu file format v5

[General]
AudioFilename: I Wanna Be Your Man.mp3
AudioLeadIn: 0
PreviewTime: 59957
Countdown: 3
SampleSet: Normal
StackLeniency: 0.7
Mode: 0
LetterboxInBreaks: 1
EditorBookmarks: 19877,25853,49268,64999,80609,92073,111585,134999,150609,174024

[Metadata]
Title:I Wanna Be Your Man
Artist:EndeverafteR
Creator:nardi11011
Version:Really Hard
Source:
Tags:

[Difficulty]
HPDrainRate:4
CircleSize:5
OverallDifficulty:7
SliderMultiplier:2
SliderTickRate:3

[Events]
//Background and Video events
1,-640,"iwannabeyourman.avi"
//Break Periods
2,41540,48218
2,76663,79559
2,119467,133949
//Storyboard Layer 0 (Background)
//Storyboard Layer 1 (Failing)
//Storyboard Layer 2 (Passing)
//Storyboard Layer 3 (Foreground)
//Storyboard Sound Samples
//Background Colour Transformations
3,100,0,0,0

[TimingPoints]
19878,487.80487804878,4,1,0,70,1
180487,487.80487804878,4,2,0,100,0
181462,487.80487804878,4,1,0,100,0

[HitObjects]
336,112,19877,1,8
256,48,20121,1,2
256,48,20243,1,0
176,112,20487,1,2
176,112,20609,1,2
256,192,20853,1,2
256,192,20975,1,0
256,304,21219,1,12
224,336,21341,1,12
288,336,21585,1,12
336,224,21829,5,2
256,288,22073,1,2
256,288,22195,1,0
176,224,22438,1,2
176,224,22561,1,2
256,144,22804,1,2
256,144,22927,1,0
256,32,23170,1,2
224,0,23293,1,8
224,0,23414,1,8
288,0,23536,1,8
288,0,23658,1,8
160,112,24024,5,8
256,112,24390,1,8
352,112,24756,1,8
352,112,24999,1,8
256,48,25243,5,8
231,73,25365,1,8
254,91,25487,1,2
277,73,25609,1,2
384,80,25853,5,0
384,80,25975,1,0
400,112,26097,1,0
398,111,26219,2,8,B|420:227|241:269,1,200
288,256,26829,1,2
224,288,27073,1,2
160,304,27317,2,4,B|63:268|95:119,1,200
96,96,27926,5,0
112,64,28048,1,0
144,48,28170,1,0
176,48,28292,1,6
240,80,28536,2,6,B|234:197|420:60|384:208,1,200
320,208,29146,5,0
304,176,29268,1,0
272,208,29390,1,0
256,176,29512,1,0
304,96,29756,6,0,B|277:92|277:92|240:96,1,50,0|0
192,112,30121,2,0,B|125:142|146:225,2,100
224,96,30732,1,0
288,96,30976,1,0
352,112,31220,2,0,B|432:111|432:224,1,150
432,256,31707,5,0
400,224,31829,1,0
384,256,31951,1,0
352,224,32073,1,0
336,256,32195,1,0
307,223,32317,1,0
288,256,32439,2,0,B|216:194|343:161|416:192,1,200
400,144,33048,2,0,B|390:119|390:119|336:80,3,50,8|4|8|4
304,64,33658,5,0
272,48,33780,1,0
240,48,33902,1,0
208,64,34024,2,0,B|160:78|112:128,1,100,8|0
112,144,34390,2,0,B|101:167|101:167|96:192,1,50,2|0
96,224,34634,2,0,B|98:251|98:251|112:272,1,50,2|0
136,304,34877,2,0,B|165:320|200:330|234:335|288:336,1,150,10|0
320,336,35365,1,0
352,336,35487,2,0,B|376:338|399:323|399:323|431:299|448:272,1,100
448,256,35853,1,2
416,224,35975,1,2
448,192,36097,1,2
416,160,36219,2,2,B|383:90|295:53|220:63,1,200,2|12
208,144,36951,5,0
240,176,37073,1,0
208,176,37195,1,0
240,144,37317,1,0
256,192,37682,12,14,41280
256,192,49268,5,0
224,160,49390,1,0
256,144,49512,1,0
288,144,49634,1,0
320,160,49756,1,0
336,192,49877,1,0
336,224,49999,1,0
304,256,50121,1,0
269,264,50243,2,0,B|237:261|214:253|172:226|160:208,2,100
393,227,51219,5,0
393,191,51341,1,0
382,157,51463,1,0
366,125,51585,1,0
336,96,51707,2,0,B|308:76|272:64,1,50
256,64,51951,2,0,B|256:144|290:212|368:256,1,200
341,295,52560,5,0
341,295,52682,1,0
323,325,52804,1,0
323,325,52926,1,0
256,288,53170,5,0
224,272,53292,2,0,B|202:259|168:264,1,50
140,261,53536,2,0,B|120:256|111:250|96:232,1,50
80,208,53780,1,0
80,168,53902,1,0
96,136,54024,1,0
120,112,54146,1,0
171,64,54390,1,0
224,112,54634,5,2
246,134,54756,1,2
270,110,54877,1,2
294,86,54999,5,8
326,70,55121,1,8
358,70,55243,1,4
390,86,55365,1,4
414,110,55487,1,2
422,142,55609,1,2
408,210,55853,2,4,B|382:263|349:299|310:323|256:338,1,200,4|0
240,272,56463,5,0
240,272,56585,1,0
240,272,56707,1,0
240,272,56829,1,0
208,320,57073,5,0
240,336,57195,1,0
272,336,57317,1,0
304,320,57439,2,0,B|352:306|400:256,1,100,8|0
400,240,57805,2,0,B|411:217|411:217|416:192,1,50,2|0
416,160,58049,2,0,B|414:133|414:133|400:112,1,50,2|0
376,80,58292,2,0,B|348:66|348:66|312:57|312:57|278:51|278:51|224:48,1,150,10|0
192,48,58780,1,0
160,48,58902,2,0,B|136:46|113:61|113:61|81:85|64:112,1,100
75,130,59268,1,2
75,165,59390,1,2
75,200,59512,1,2
76,234,59634,2,2,B|109:304|169:338|224:336,1,150,2|12
256,304,60121,5,0
256,240,60365,1,0
240,208,60487,1,0
272,208,60609,1,0
256,144,60853,5,2
128,64,61341,5,4
256,144,61829,5,2
368,64,62317,5,4
256,144,62804,5,2
256,288,63292,5,4
256,192,63780,12,4,64634
256,192,64999,5,8
304,144,65243,2,0,B|273:113|224:112,1,50,8|0
224,128,65487,2,0,B|201:134|192:176,1,50,8|0
192,208,65731,2,0,B|240:272|288:256|320:224|320:176,1,150,2|0
320,176,66219,2,0,B|303:108|232:118|208:128,1,100,2|0
208,128,66585,1,10
256,32,66951,5,4
304,80,67195,1,4
336,144,67438,1,4
336,208,67682,1,4
176,208,68170,1,4
256,288,68536,1,4
256,192,68902,5,8
208,240,69146,2,0,B|239:271|288:272,1,50,8|0
288,256,69390,2,0,B|311:250|320:208,1,50,8|0
320,176,69634,2,0,B|272:112|224:128|192:160|192:208,1,150,2|0
192,208,70122,2,0,B|209:276|280:266|304:256,1,100,2|0
304,256,70488,1,10
256,352,70854,5,4
208,304,71098,1,4
176,240,71341,1,4
176,176,71585,1,4
336,176,72073,1,4
256,96,72439,1,4
256,192,72804,5,8
256,128,73048,1,8
192,96,73292,1,8
256,64,73536,2,0,B|319:79|340:95|384:176,1,150,10|0
368,192,74024,2,0,B|367:235|355:281|256:320,1,150,10|0
256,288,74512,5,6
224,256,74634,1,8
256,224,74756,1,6
283,202,74877,1,8
258,176,74999,1,6
231,153,75121,1,8
256,128,75243,1,6
256,96,75365,2,0,B|160:96|128:176|336:192|336:224|336:240|320:240|288:256|256:272|208:288,1,350,14|0
214,285,76402,1,4
256,192,80609,5,0
224,160,80731,1,0
192,160,80853,1,2
160,176,80975,1,0
144,208,81097,1,0
144,240,81219,1,0
160,272,81341,1,2
192,288,81463,1,0
224,272,81585,1,0
256,240,81707,1,0
272,208,81829,1,2
304,176,81951,1,0
336,176,82073,1,0
368,192,82195,1,0
384,224,82317,1,2
368,256,82438,1,0
352,288,82560,1,0
320,304,82682,1,0
288,288,82804,1,2
272,256,82926,1,0
256,224,83048,1,0
240,192,83170,2,0,B|192:160|128:160|96:192|80:256,1,200,14|0
128,272,83780,5,8
160,272,83902,1,4
192,272,84024,1,8
176,240,84146,1,4
224,192,84390,5,8
256,176,84512,2,8,B|283:144|304:144,1,50
336,144,84756,2,8,B|356:142|371:133|384:112,1,50
400,96,84999,2,2,B|404:75|394:45|384:32,1,50
352,32,85243,2,8,B|334:31|315:34|288:48,1,50
272,64,85487,2,2,B|265:84|246:97|208:112,1,50
192,96,85731,2,8,B|180:84|156:50|128:48,1,50
112,80,85975,2,6,B|94:108|112:144,3,50
128,160,86463,2,8,B|127:180|146:200|160:208,1,50
192,208,86707,2,8,B|219:203|219:203|225:193|240:192,1,50
272,192,86951,1,2
304,208,87073,2,14,B|368:256|400:304|304:336|224:336|144:336|112:288|80:240,1,400,14|14
144,224,88292,5,0
128,192,88414,1,0
128,160,88536,1,0
144,128,88658,2,0,B|158:80|208:32,1,100,8|0
224,32,89024,2,0,B|247:21|247:21|272:16,1,50,2|0
304,16,89268,2,0,B|331:18|331:18|352:32,1,50,2|0
384,56,89511,2,0,B|398:84|398:84|407:120|407:120|413:154|413:154|416:208,1,150,10|0
416,240,89999,1,0
416,272,90121,2,0,B|418:296|403:319|403:319|379:351|352:368,1,100
334,357,90487,1,2
299,357,90609,1,2
264,357,90731,1,2
230,356,90853,2,0,B|160:323|126:263|128:208,1,150,14|0
128,208,91341,5,0
192,176,91585,1,0
208,208,91707,1,0
192,240,91829,1,0
240,192,92073,5,2
160,320,92561,5,4
240,192,93049,5,2
160,80,93537,5,4
240,192,94024,5,2
384,192,94512,5,4
256,192,95000,12,4,95854
256,192,96219,5,8
208,240,96463,2,0,B|177:209|176:160,1,50,8|0
192,160,96707,2,0,B|198:137|240:128,1,50,8|0
272,128,96951,2,0,B|336:176|320:224|288:256|240:256,1,150,2|0
240,256,97439,2,0,B|172:239|182:168|192:144,1,100,2|0
192,144,97805,1,10
96,192,98171,5,4
144,240,98415,1,4
208,272,98658,1,4
272,272,98902,1,4
272,112,99390,1,4
352,192,99756,1,4
256,192,100122,5,8
304,240,100366,2,0,B|335:209|336:160,1,50,8|0
320,160,100610,2,0,B|314:137|272:128,1,50,8|0
240,128,100854,2,0,B|176:176|192:224|224:256|272:256,1,150,2|0
272,256,101342,2,0,B|340:239|330:168|320:144,1,100,2|0
320,144,101708,1,10
416,192,102074,5,4
368,240,102318,1,4
304,272,102561,1,4
240,272,102805,1,4
240,112,103293,1,4
160,192,103659,1,4
256,192,104024,5,8
192,192,104268,1,8
160,256,104512,1,8
128,192,104756,2,0,B|143:129|159:108|240:64,1,150,10|0
256,80,105244,2,0,B|299:81|345:93|384:192,1,150,10|0
352,192,105732,5,6
320,224,105854,1,8
288,192,105976,1,6
266,165,106097,1,8
240,190,106219,1,6
217,217,106341,1,8
192,192,106463,1,6
160,192,106585,2,0,B|160:288|240:320|256:112|288:112|304:112|304:128|320:160|336:192|352:240,1,350,14|0
349,234,107621,1,4
256,192,108658,12,0,110609
336,272,111585,5,8
256,336,111829,1,2
256,336,111951,1,0
176,272,112195,1,2
176,272,112317,1,2
256,192,112561,1,2
256,192,112683,1,0
256,80,112927,1,12
224,48,113049,1,12
288,48,113293,1,12
336,112,113536,5,8
256,48,113780,1,2
256,48,113902,1,0
176,112,114146,1,2
176,112,114268,1,2
256,192,114512,1,2
256,192,114634,1,0
256,304,114878,1,12
224,336,115000,1,12
288,336,115244,1,12
320,224,115487,5,8
256,112,115731,1,2
256,112,115853,1,0
192,224,116097,1,2
192,224,116219,1,2
128,112,116463,1,2
128,112,116585,1,0
80,208,116829,1,12
48,176,116951,1,12
48,240,117195,1,12
192,224,117438,5,8
256,112,117682,1,2
256,112,117804,1,0
320,224,118048,1,2
320,224,118170,1,2
384,112,118414,1,2
384,112,118536,1,0
464,176,118780,1,12
501,150,118902,2,14,B|501:214,3,50
128,96,134999,5,0
160,160,135243,1,0
192,96,135487,1,0
224,160,135731,1,0
256,96,135975,1,0
288,160,136219,1,0
352,128,136463,1,4
368,96,136585,1,4
384,128,136707,1,4
368,160,136829,1,4
288,224,137195,5,0
224,192,137439,1,0
224,256,137682,1,0
160,224,137926,1,0
96,192,138170,1,0
96,256,138414,1,0
32,224,138658,1,4
32,224,138780,1,4
48,192,138902,5,4
96,144,139146,1,0
160,112,139390,2,2,B|187:85|231:156|272:96,3,100
320,80,140366,1,4
336,112,140487,1,4
336,144,140610,1,4
320,176,140732,1,4
368,272,141097,6,0,B|414:248|435:193|432:160,1,100,8|2
336,144,141585,2,0,B|338:174|309:208|272:224,1,100,8|2
261,152,142073,1,0
202,112,142317,1,0
144,72,142561,1,4
144,72,142683,1,4
144,112,142804,5,4
160,176,143048,1,0
144,112,143292,1,0
208,96,143536,1,0
272,128,143780,1,0
336,96,144024,1,0
400,128,144268,1,4
368,144,144390,1,4
400,160,144512,1,4
368,176,144634,1,4
352,256,145000,5,0
304,208,145244,1,0
256,160,145487,1,0
304,208,145731,1,0
352,256,145975,1,0
288,272,146219,1,0
240,224,146463,1,4
240,224,146585,1,4
224,192,146707,6,6,B|170:189|269:114|214:106|176:112,5,100
256,192,148170,12,14,150609
384,96,150853,5,8
432,144,151097,2,0,B|401:175|352:176,1,50,8|0
352,160,151341,2,0,B|329:154|320:112,1,50,8|0
320,80,151585,2,0,B|368:16|416:32|448:64|448:112,1,150,2|0
448,112,152073,2,0,B|431:180|360:170|336:160,1,100,2|0
336,160,152439,1,10
336,272,152805,5,4
288,224,153049,1,4
240,272,153292,1,4
176,240,153536,1,4
64,320,154024,1,4
32,224,154390,1,4
96,128,154756,5,8
48,176,155000,2,0,B|79:207|128:208,1,50,8|0
128,192,155244,2,0,B|151:186|160:144,1,50,8|0
160,112,155488,2,0,B|112:48|64:64|32:96|32:144,1,150,2|0
32,144,155976,2,0,B|49:212|120:202|144:192,1,100,2|0
144,192,156342,1,10
256,192,156708,5,4
288,128,156952,1,4
336,176,157195,1,4
304,240,157439,1,4
192,144,157926,1,4
96,176,158293,1,4
32,256,158658,5,8
80,304,158902,1,8
144,320,159146,1,8
208,320,159390,2,0,B|271:305|292:289|336:208,1,150,10|0
336,192,159878,2,0,B|337:149|349:103|448:64,1,150,10|0
416,112,160366,5,6
400,144,160488,1,8
368,160,160609,1,6
336,176,160731,1,8
320,208,160853,1,6
304,240,160975,1,8
304,272,161097,1,6
288,304,161219,2,4,B|288:400|208:432|286:152|160:224|175:327|141:343|128:272|112:304|48:240,1,300,14|14
128,288,162560,5,8
80,240,162804,2,0,B|111:209|160:208,1,50,8|0
160,224,163048,2,0,B|183:230|192:272,1,50,8|0
192,304,163292,2,0,B|144:368|96:352|64:320|64:272,1,150,2|0
64,272,163780,2,0,B|81:204|152:214|176:224,1,100,2|0
176,224,164146,1,10
160,112,164512,5,4
224,160,164756,1,4
272,112,164999,1,4
320,160,165243,1,4
448,64,165731,1,4
480,160,166097,1,4
416,256,166463,5,8
464,208,166707,2,0,B|433:177|384:176,1,50,8|0
384,192,166951,2,0,B|361:198|352:240,1,50,8|0
352,272,167195,2,0,B|400:336|448:320|480:288|480:240,1,150,2|0
480,240,167683,2,0,B|463:172|392:182|368:192,1,100,2|0
368,192,168049,1,10
368,80,168415,5,4
320,128,168659,1,4
256,96,168902,1,4
208,144,169146,1,4
80,64,169633,1,4
256,192,169877,12,0,173048
336,112,174024,5,8
256,48,174268,1,2
256,48,174390,1,0
176,112,174634,1,2
176,112,174756,1,2
256,192,175000,1,2
256,192,175122,1,0
256,304,175366,1,12
224,336,175488,1,12
288,336,175732,1,12
336,224,175976,5,2
256,288,176220,1,2
256,288,176342,1,0
176,224,176585,1,2
176,224,176708,1,2
256,144,176951,1,2
256,144,177074,1,0
256,32,177317,1,2
224,0,177440,1,8
224,0,177561,1,8
288,0,177683,1,8
288,0,177805,1,8
160,112,178170,5,8
256,112,178536,1,8
352,112,178902,1,8
352,112,179267,1,8
224,176,180487,5,2
224,240,180731,1,2
288,240,180975,1,2
288,176,181219,1,2
256,192,181463,12,14,183231
