osu file format v5

[General]
AudioFilename: I Wanna Be Your Man.mp3
AudioLeadIn: 0
PreviewTime: 59957
Countdown: 1
SampleSet: Normal
StackLeniency: 0.7
Mode: 0
LetterboxInBreaks: 1
EditorBookmarks: 19877,25853,49268,64999,80609,92073,111585,134999,150609

[Metadata]
Title:I Wanna Be Your Man
Artist:EndeverafteR
Creator:nardi11011
Version:Pretty Easy
Source:
Tags:

[Difficulty]
HPDrainRate:3
CircleSize:3
OverallDifficulty:3
SliderMultiplier:2
SliderTickRate:3

[Events]
//Background and Video events
1,-640,"iwannabeyourman.avi"
//Break Periods
2,41540,48218
2,76663,79559
2,119467,133949
//Storyboard Layer 0 (Background)
//Storyboard Layer 1 (Failing)
//Storyboard Layer 2 (Passing)
//Storyboard Layer 3 (Foreground)
//Storyboard Sound Samples
//Background Colour Transformations
3,100,0,0,0

[TimingPoints]
19878,487.80487804878,4,1,0,70,1
179487,487.80487804878,4,2,0,100,0
182462,487.80487804878,4,1,0,100,0

[HitObjects]
400,192,19877,1,8
304,96,20243,1,0
272,224,20609,1,2
176,128,20975,1,0
128,256,21341,1,12
128,256,21585,1,12
160,160,21829,5,2
256,48,22195,1,0
352,160,22561,1,2
256,272,22927,1,0
192,144,23292,1,8
96,96,23536,1,8
96,288,24024,5,8
176,224,24390,1,8
272,192,24756,1,8
272,192,24999,1,8
256,128,25243,6,0,B|192:128,3,50
288,64,25975,5,0
368,128,26219,2,8,B|390:244|322:241,2,100
224,112,27073,1,8
128,80,27317,2,4,B|31:116|176:304,1,250
240,224,28170,1,0
368,288,28536,2,6,B|470:152|548:308|400:144,1,200
384,176,29146,6,0,B|364:179|334:161|320:128,3,50
208,80,29877,5,0
112,112,30121,2,0,B|45:142|66:225,2,100
192,240,30976,1,0
288,256,31220,2,0,B|287:336|400:336,1,150
463,148,32073,1,0
398,71,32317,1,0
347,71,32439,2,0,B|285:-1|252:126|283:199,1,200
320,224,33048,2,0,B|310:249|310:249|256:288,3,50,8|4|8|4
320,160,33658,5,0
272,128,33780,1,0
192,64,34024,2,0,B|144:78|128:208,1,150,8|0
64,272,34634,1,0
144,320,34877,2,0,B|173:336|208:346|242:351|296:352,1,150,10|0
384,336,35487,2,0,B|408:338|431:323|431:323|463:299|480:272,1,100
448,192,35975,1,2
432,96,36219,2,2,B|362:129|325:217|335:292,1,200,2|12
256,192,36951,6,4,B|256:128|224:224|192:208|272:224|224:208|240:208|224:192,3,50
256,192,37682,12,14,41280
208,192,49268,5,0
272,128,49512,1,0
368,128,49756,1,0
448,176,49999,1,0
384,256,50243,2,0,B|352:253|329:245|287:218|275:200,2,100
208,144,51219,5,0
128,80,51463,1,0
96,176,51707,1,0
160,256,51951,2,0,B|240:256|308:222|352:144,1,200
352,128,52560,5,0
352,128,52682,2,0,B|416:176,2,50
464,224,53292,5,0
384,288,53536,1,0
288,272,53780,1,0
192,240,54024,1,0
144,208,54146,1,0
64,144,54390,1,0
176,48,54756,1,2
272,96,54999,5,8
320,80,55121,1,8
464,128,55487,1,2
448,176,55609,1,2
368,224,55853,2,4,B|342:277|309:313|270:337|216:352,1,200,4|0
192,320,56463,2,0,B|128:288,3,50
192,224,57073,5,0
240,256,57195,1,0
320,320,57439,2,0,B|368:306|400:192,1,150,8|0
448,112,58049,1,0
368,64,58292,2,0,B|339:48|304:38|270:33|216:32,1,150,10|0
128,48,58902,2,0,B|104:46|81:61|81:61|49:85|32:112,1,100
64,192,59390,1,2
80,288,59634,2,2,B|150:255|187:167|177:92,1,200,2|12
256,64,60365,5,0
320,128,60609,1,0
256,192,60853,5,2
128,272,61341,1,4
256,192,61829,1,2
368,272,62317,1,4
256,192,62804,1,2
256,48,63292,1,4
256,192,63780,12,4,64634
320,208,64999,5,8
288,144,65243,1,8
224,144,65487,1,8
167,184,65731,2,10,B|199:216|263:232|311:216|359:168,1,200
328,281,66585,2,0,B|292:300|229:308|177:282,1,150,10|4
112,256,67195,1,4
112,192,67438,1,4
112,128,67682,1,4
256,96,68170,1,4
256,96,68535,1,4
320,176,68902,5,8
288,240,69146,1,8
224,240,69390,1,8
167,200,69634,2,10,B|199:168|263:152|311:168|359:216,1,200
328,103,70488,2,0,B|292:84|229:76|177:102,1,150,10|4
112,128,71098,1,4
112,192,71341,1,4
112,256,71585,1,4
256,288,72073,1,4
256,288,72438,1,4
256,192,72804,5,8
256,128,73048,1,8
192,96,73292,1,8
256,64,73536,2,0,B|319:79|340:95|368:138|368:208,2,200
208,112,74756,5,6
208,176,74999,1,8
256,272,75365,2,0,B|160:272|128:192|336:176|336:144|336:128|320:128|288:112|256:96|208:80,1,350,14|0
144,80,76463,1,4
256,48,80609,5,0
192,80,80853,1,2
128,112,81097,1,0
160,176,81341,1,2
192,240,81585,1,0
256,208,81829,1,2
320,176,82073,1,0
352,240,82317,1,2
384,304,82560,1,0
320,336,82804,1,2
272,284,83048,1,0
249,257,83170,2,0,B|201:225|137:225|105:257|64:176,1,200,14|0
48,144,83780,5,4
24,46,84024,1,8
74,46,84146,1,4
144,128,84390,5,8
176,224,84634,2,8,B|203:256|224:256,3,50
256,160,85243,1,8
336,224,85487,2,8,B|309:256|288:256,2,50
329,123,85975,1,6
428,126,86219,1,6
429,226,86463,1,8
366,304,86707,1,8
267,323,86951,1,2
217,313,87073,2,14,B|121:345|105:281|73:169|137:153|217:137|313:201,1,400,14|14
320,224,88292,5,0
272,256,88414,1,0
192,320,88658,2,0,B|144:306|112:192,1,150,8|0
64,112,89268,1,0
144,64,89511,2,0,B|173:48|208:38|242:33|296:32,1,150,10|0
384,48,90121,2,0,B|408:46|431:61|431:61|463:85|480:112,1,100
448,192,90609,1,2
432,288,90853,2,2,B|362:255|325:167|335:92,1,200,2|12
240,80,91585,1,0
240,80,91829,1,0
256,192,92072,5,2
384,272,92560,1,4
256,192,93048,1,2
144,272,93536,1,4
256,192,94023,1,2
256,48,94511,1,4
256,192,95000,12,4,95854
272,128,96219,5,8
208,160,96463,1,8
208,224,96707,1,8
248,281,96951,2,10,B|280:249|296:185|280:137|232:89,1,200
345,120,97805,2,0,B|364:156|372:219|346:271,1,150,10|4
320,336,98415,1,4
256,336,98658,1,4
192,336,98902,1,4
160,192,99390,1,4
160,192,99755,1,4
240,256,100121,5,8
304,224,100365,1,8
304,160,100609,1,8
264,103,100853,2,10,B|232:135|216:199|232:247|280:295,1,200
167,264,101707,2,0,B|148:228|140:165|166:113,1,150,10|4
192,48,102317,1,4
256,48,102560,1,4
320,48,102804,1,4
352,192,103292,1,4
352,192,103657,1,4
256,192,104024,5,8
192,192,104268,1,8
160,128,104512,1,8
128,192,104756,2,0,B|143:255|159:276|202:304|272:304,2,200
176,144,105976,5,6
240,144,106219,1,8
336,192,106585,2,0,B|336:96|256:64|240:272|208:272|192:272|192:256|176:224|160:192|144:144,1,350,14|0
144,80,107683,1,4
256,192,108658,12,0,110609
400,192,111585,5,8
304,96,111951,1,0
272,224,112317,1,2
176,128,112683,1,0
128,256,113049,1,12
128,256,113293,1,12
160,176,113537,5,2
256,80,113903,1,0
352,176,114269,1,2
256,272,114635,1,0
208,144,115000,1,12
304,144,115244,1,12
320,224,115487,5,8
240,192,115731,2,2,B|80:192,2,150
80,144,116951,1,12
80,224,117195,1,12
192,224,117438,5,8
272,192,117682,2,2,B|432:192,2,150
489,200,118902,2,12,B|489:220|470:243|448:240,3,50
128,96,134999,5,0
128,224,135487,1,2
240,304,135975,1,0
304,304,136219,1,0
352,256,136463,2,4,B|400:208,3,50
336,128,137195,5,0
272,128,137439,1,2
144,192,137926,1,2
80,128,138414,1,0
48,192,138658,2,14,B|50:226|63:278|96:288,1,100,4|4
208,304,139390,6,2,B|235:277|279:348|320:288,3,100
352,256,140366,1,4
336,192,140610,1,4
368,192,140732,1,4
352,112,141097,6,0,B|328:66|273:45|240:48,3,100
208,160,142317,1,0
144,128,142561,1,4
96,176,142804,5,6
96,240,143048,1,8
96,304,143292,1,2
224,304,143780,1,2
288,304,144024,1,8
336,352,144268,1,4
336,256,144512,1,4
336,208,144634,1,4
432,240,145000,5,0
400,176,145244,1,0
320,128,145731,1,0
272,128,145975,1,0
224,112,146219,1,0
176,128,146463,1,4
144,192,146707,6,6,B|198:195|99:270|154:278|192:272,5,100
256,192,148170,12,14,150121
448,176,150853,5,8
416,112,151097,1,8
352,112,151341,1,8
295,152,151585,2,10,B|327:184|391:200|439:184|487:136,1,200
456,249,152439,2,0,B|420:268|357:276|305:250,1,150,10|4
240,224,153049,1,4
240,160,153292,1,4
240,96,153536,1,4
384,64,154024,1,4
384,64,154389,1,4
208,80,154756,5,8
272,112,155000,1,8
272,176,155244,1,8
232,233,155488,2,10,B|200:201|184:137|200:89|248:41,1,200
135,72,156342,2,0,B|116:108|108:171|134:223,1,150,10|4
160,288,156952,1,4
224,288,157195,1,4
288,288,157439,1,4
320,144,157927,1,4
320,144,158292,1,4
32,256,158658,5,8
80,304,158902,1,8
144,320,159146,1,8
208,320,159390,2,8,B|271:305|292:289|288:160|432:320|448:256|496:160|464:80,1,400,10|0
368,64,160731,5,8
320,80,160853,1,2
224,160,161097,1,8
240,208,161219,2,4,B|240:304|160:336|238:56|112:128|127:231|93:247|80:176|64:208|0:144,1,300,14|14
48,208,162560,5,8
80,272,162804,1,8
144,272,163048,1,8
201,232,163292,2,10,B|169:200|105:184|57:200|9:248,1,200
40,135,164146,2,0,B|76:116|139:108|191:134,1,150,10|4
256,160,164756,1,4
256,224,164999,1,4
256,288,165243,1,4
112,320,165731,1,4
112,320,166096,1,4
272,320,166463,5,8
208,288,166707,1,8
208,224,166951,1,8
248,167,167195,2,10,B|280:199|296:263|280:311|232:359,1,200
345,328,168049,2,0,B|364:292|372:229|346:177,1,150,10|4
400,128,168659,1,4
352,80,168902,1,4
304,128,169146,1,4
160,128,169634,1,4
256,192,169877,12,0,173048
112,192,174024,5,8
208,96,174390,1,0
240,224,174756,1,2
336,128,175122,1,0
384,256,175488,1,12
384,256,175732,1,12
336,144,175976,5,2
256,64,176342,1,0
176,144,176708,1,2
256,224,177074,1,0
336,144,177439,1,8
352,112,177683,1,8
352,192,178170,5,8
256,192,178536,1,8
160,192,178902,1,8
160,192,179267,1,8
224,176,180487,5,2
224,240,180731,1,2
288,240,180975,1,2
288,176,181219,1,2
256,192,181463,12,14,183231
