osu file format v13

[General]
AudioFilename: Hatsune Miku - Silent Night.mp3
AudioLeadIn: 0
PreviewTime: 50588
Countdown: 0
SampleSet: Soft
StackLeniency: 0.7
Mode: 0
LetterboxInBreaks: 0
WidescreenStoryboard: 0

[Editor]
DistanceSpacing: 1
BeatDivisor: 4
GridSize: 4
TimelineZoom: 1

[Metadata]
Title:SilentNight
TitleUnicode:SilentNight
Artist:Enamel-P
ArtistUnicode:エナメルP
Creator:Lust
Version:Normal
Source:
Tags:vocaloid christmas winter hatsune miku
BeatmapID:548995
BeatmapSetID:237147

[Difficulty]
HPDrainRate:4
CircleSize:4
OverallDifficulty:4
ApproachRate:6
SliderMultiplier:1.8
SliderTickRate:1

[Events]
//Background and Video events
0,0,"bgg.jpg",0,0
//Break Periods
//Storyboard Layer 0 (Background)
//Storyboard Layer 1 (Fail)
//Storyboard Layer 2 (Pass)
//Storyboard Layer 3 (Foreground)
//Storyboard Sound Samples

[TimingPoints]
188,600,3,2,1,50,1,0
93788,-100,3,2,1,10,0,0

[Colours]
Combo1 : 0,128,255
Combo2 : 128,255,255

[HitObjects]
97,77,7388,6,0,B|145:78|187:47|187:47|175:113|192:128,1,180,2|0,2:3|0:0,0:0:0:0:
256,192,8288,1,0,0:0:0:0:
320,256,8588,2,0,B|336:270|324:336|324:336|366:305|414:306,1,180,0|2,0:0|0:0,0:0:0:0:
498,341,9488,1,0,0:0:0:0:
414,306,9788,1,0,0:0:0:0:
485,251,10088,1,0,0:0:0:0:
401,217,10388,2,0,P|392:170|405:126,1,90,0|0,0:0|0:0,0:0:0:0:
472,72,10988,2,0,P|395:106|298:80,1,180,2|0,2:3|0:0,0:0:0:0:
256,8,11888,1,0,0:0:0:0:
207,84,12188,2,0,P|121:106|40:72,1,180,0|2,0:0|0:0,0:0:0:0:
94,143,13088,1,0,0:0:0:0:
167,195,13388,1,0,0:0:0:0:
249,234,13688,1,0,0:0:0:0:
335,210,13988,2,0,P|362:163|355:117,1,90,0|0,0:0|0:0,0:0:0:0:
271,147,14588,6,0,P|251:235|315:297,1,180,2|0,2:3|0:0,0:0:0:0:
396,276,15488,1,0,0:0:0:0:
335,210,15788,2,0,P|249:229|220:315,1,180,0|2,0:0|0:0,0:0:0:0:
396,276,16988,2,0,P|419:186|347:120,2,180,0|0|2,0:0|0:0|0:3,0:0:0:0:
271,147,18788,1,0,0:0:0:0:
445,102,19388,1,0,0:0:0:0:
396,276,19988,2,0,L|210:276,1,180,2|0,0:0|0:0,0:0:0:0:
125,276,20888,1,0,0:0:0:0:
61,212,21188,2,0,P|59:168|85:124,1,90,0|0,0:0|0:0,0:0:0:0:
148,189,21788,6,0,P|210:254|189:338,1,180,2|0,2:3|0:0,0:0:0:0:
106,364,22688,1,0,0:0:0:0:
39,303,22988,2,0,P|37:251|63:211,1,90,0|0,0:0|0:0,0:0:0:0:
125,276,23588,2,0,L|308:276,1,180,2|0,0:0|0:0,0:0:0:0:
395,276,24488,1,0,0:0:0:0:
458,212,24788,2,0,P|459:161|437:126,1,90,0|0,0:0|0:0,0:0:0:0:
371,189,25388,2,0,P|313:238|330:339,1,180,2|0,2:3|0:0,0:0:0:0:
409,365,26288,1,0,0:0:0:0:
479,308,26588,2,0,P|485:257|454:210,1,90,0|0,0:0|0:0,0:0:0:0:
395,276,27188,2,0,L|210:276,1,180,2|0,0:0|0:0,0:0:0:0:
54,192,28388,1,0,0:0:0:0:
215,108,28988,6,0,L|395:108,1,180,2|0,2:3|0:0,0:0:0:0:
485,108,29888,1,0,0:0:0:0:
440,186,30188,2,0,L|346:186,1,90,0|0,0:0|0:0,0:0:0:0:
260,186,30788,2,0,L|70:186,1,180,2|0,0:0|0:0,0:0:0:0:
16,122,31688,1,0,0:0:0:0:
102,98,31988,2,0,L|200:98,1,90,0|0,0:0|0:0,0:0:0:0:
282,99,32588,2,0,P|352:173|317:257,1,180,2|0,0:3|0:0,0:0:0:0:
251,276,33488,1,0,0:0:0:0:
187,339,33788,2,0,P|162:298|162:255,1,90,0|0,0:0|0:0,0:0:0:0:
251,276,34388,2,0,L|437:276,2,180,2|0|0,0:0|0:0|0:0,0:0:0:0:
91,192,36188,6,0,P|131:114|209:138,1,180,2|0,0:3|0:3,0:0:0:0:
256,210,37088,1,0,0:0:0:0:
305,134,37388,2,0,P|386:116|421:192,2,180,0|2|0,0:0|0:0|0:0,0:0:0:0:
256,210,38888,1,0,0:0:0:0:
192,273,39188,2,0,L|192:364,1,90,0|0,0:0|0:0,0:0:0:0:
112,319,39788,6,0,B|75:256|110:188|173:188|173:188|215:134|119:134|32:134|168:35|168:35|217:35,1,450,2|0,0:3|0:0,0:0:0:0:
300,35,41588,2,0,B|344:35|344:35|480:134|393:134|297:134|339:188|339:188|402:188|437:256|400:319,1,450,2|0,0:0|0:0,0:0:0:0:
320,273,43388,6,0,P|261:216|267:110,2,180,2|0|0,0:3|0:0|0:0,0:0:0:0:
348,95,45188,2,0,L|137:95,2,180,2|0|0,0:0|0:0|0:0,0:0:0:0:
256,192,46988,12,0,49388,0:0:0:0:
415,307,50588,6,0,B|367:306|325:337|325:337|337:271|320:256,1,180,2|0,0:3|0:0,0:0:0:0:
256,192,51488,1,0,0:0:0:0:
192,128,51788,2,0,B|176:114|188:48|188:48|146:79|98:78,1,180,0|2,0:0|0:0,0:0:0:0:
14,43,52688,1,0,0:0:0:0:
98,78,52988,1,0,0:0:0:0:
27,133,53288,1,0,0:0:0:0:
111,167,53588,2,0,P|120:214|107:258,1,90,0|0,0:0|0:0,0:0:0:0:
40,312,54188,2,0,P|117:278|214:304,1,180,2|0,0:3|0:0,0:0:0:0:
256,376,55088,1,0,0:0:0:0:
305,300,55388,2,0,P|391:278|472:312,1,180,0|2,0:0|0:0,0:0:0:0:
418,241,56288,1,0,0:0:0:0:
345,189,56588,1,0,0:0:0:0:
263,150,56888,1,0,0:0:0:0:
177,174,57188,2,0,P|150:221|157:267,1,90,0|0,0:0|0:0,0:0:0:0:
241,237,57788,6,0,P|261:149|197:87,1,180,2|0,0:3|0:0,0:0:0:0:
116,108,58688,1,0,0:0:0:0:
177,174,58988,2,0,P|263:155|292:69,1,180,0|2,0:0|0:0,0:0:0:0:
116,108,60188,2,0,P|93:198|165:264,2,180,0|0|2,0:0|0:0|0:3,0:0:0:0:
241,237,61988,1,0,0:0:0:0:
67,282,62588,1,0,0:0:0:0:
116,108,63188,2,0,L|302:108,1,180,2|0,0:0|0:0,0:0:0:0:
387,108,64088,1,0,0:0:0:0:
451,172,64388,2,0,P|453:216|427:260,1,90,0|0,0:0|0:0,0:0:0:0:
364,195,64988,6,0,P|302:130|323:46,1,180,2|0,0:3|0:0,0:0:0:0:
406,20,65888,1,0,0:0:0:0:
473,81,66188,2,0,P|475:133|449:173,1,90,0|0,0:0|0:0,0:0:0:0:
387,108,66788,2,0,L|204:108,1,180,2|0,0:0|0:0,0:0:0:0:
117,108,67688,1,0,0:0:0:0:
54,172,67988,2,0,P|53:223|75:258,1,90,0|0,0:0|0:0,0:0:0:0:
141,195,68588,2,0,P|199:146|182:45,1,180,2|0,0:3|0:0,0:0:0:0:
103,19,69488,1,0,0:0:0:0:
33,76,69788,2,0,P|27:127|58:174,1,90,0|0,0:0|0:0,0:0:0:0:
117,108,70388,2,0,L|302:108,1,180,2|0,0:0|0:0,0:0:0:0:
458,192,71588,1,0,0:0:0:0:
297,276,72188,6,0,L|117:276,1,180,2|0,3:0|0:0,0:0:0:0:
27,276,73088,1,0,0:0:0:0:
72,198,73388,2,0,L|166:198,1,90,0|0,0:0|0:0,0:0:0:0:
252,198,73988,2,0,L|442:198,1,180,2|0,0:0|0:0,0:0:0:0:
496,262,74888,1,0,0:0:0:0:
410,286,75188,2,0,L|312:286,1,90,0|0,0:0|0:0,0:0:0:0:
230,285,75788,2,0,P|160:211|195:127,1,180,2|0,0:3|0:0,0:0:0:0:
261,108,76688,1,0,0:0:0:0:
325,45,76988,2,0,P|350:86|350:129,1,90,0|0,0:0|0:0,0:0:0:0:
261,108,77588,2,0,L|75:108,2,180,2|0|0,0:0|0:0|0:0,0:0:0:0:
421,192,79388,6,0,P|381:270|303:246,1,180,2|0,3:0|0:0,0:0:0:0:
256,174,80288,1,0,0:0:0:0:
206,249,80588,2,0,P|125:267|91:192,2,180,0|2|0,0:0|0:0|0:0,0:0:0:0:
256,174,82088,1,0,0:0:0:0:
320,111,82388,2,0,L|320:20,1,90,0|0,0:0|0:0,0:0:0:0:
400,65,82988,6,0,B|437:128|402:196|339:196|339:196|297:250|393:250|480:250|344:349|344:349|295:349,1,450,2|0,0:3|0:0,0:0:0:0:
211,349,84788,2,0,B|168:349|168:349|32:250|119:250|215:250|173:196|173:196|110:196|75:128|112:65,1,450,2|0,0:0|0:0,0:0:0:0:
192,111,86588,6,0,P|251:168|245:274,2,180,2|0|0,0:3|0:0|0:0,0:0:0:0:
164,289,88388,2,0,L|375:289,2,180,2|0|0,0:0|0:0|0:0,0:0:0:0:
256,192,90188,12,0,93788,0:0:0:0:
