osu file format v13

[General]
AudioFilename: Hatsune Miku - Silent Night.mp3
AudioLeadIn: 0
PreviewTime: 50588
Countdown: 0
SampleSet: Soft
StackLeniency: 0.7
Mode: 0
LetterboxInBreaks: 0
WidescreenStoryboard: 0

[Editor]
DistanceSpacing: 1
BeatDivisor: 4
GridSize: 4
TimelineZoom: 1

[Metadata]
Title:SilentNight
TitleUnicode:SilentNight
Artist:Enamel-P
ArtistUnicode:エナメルP
Creator:Lust
Version:Easy
Source:
Tags:vocaloid christmas winter hatsune miku
BeatmapID:548994
BeatmapSetID:237147

[Difficulty]
HPDrainRate:2
CircleSize:3
OverallDifficulty:2
ApproachRate:3
SliderMultiplier:1.4
SliderTickRate:1

[Events]
//Background and Video events
0,0,"bgg.jpg",0,0
//Break Periods
//Storyboard Layer 0 (Background)
//Storyboard Layer 1 (Fail)
//Storyboard Layer 2 (Pass)
//Storyboard Layer 3 (Foreground)
//Storyboard Sound Samples

[TimingPoints]
188,600,3,2,1,50,1,0
93788,-100,3,2,1,10,0,0

[Colours]
Combo1 : 0,128,255
Combo2 : 128,255,255

[HitObjects]
196,100,7388,6,0,P|68:144|88:288,1,280,2|0,2:3|0:0,0:0:0:0:
170,369,9188,2,0,L|463:331,1,280,2|0,0:0|0:0,0:0:0:0:
447,192,10988,2,0,P|327:158|392:38,1,280,2|0,2:3|0:0,0:0:0:0:
239,86,12788,2,0,B|182:104|114:33|114:33|34:83|27:162,1,280,2|0,0:0|0:0,0:0:0:0:
21,277,14588,6,0,P|148:303|276:212,1,280,2|0,2:3|0:0,0:0:0:0:
241,87,16388,2,0,P|353:10|488:34,1,280,2|0,0:0|0:0,0:0:0:0:
389,134,18188,2,0,L|103:134,1,280,2|0,0:3|0:0,0:0:0:0:
10,232,19988,2,0,L|296:232,1,280,2|0,0:0|0:0,0:0:0:0:
388,330,21788,6,0,P|421:197|326:98,1,280,2|0,2:3|0:0,0:0:0:0:
290,232,23588,2,0,P|416:207|468:75,1,280,2|0,0:0|0:0,0:0:0:0:
331,100,25388,2,0,P|196:139|161:277,1,280,2|0,2:3|0:0,0:0:0:0:
248,366,27188,2,0,B|283:314|366:312|366:312|430:273|439:184,1,280,2|0,0:0|0:0,0:0:0:0:
464,54,28988,6,0,L|181:54,1,280,2|0,2:3|0:0,0:0:0:0:
85,152,30788,1,2,0:0:0:0:
219,192,31388,1,0,0:0:0:0:
186,55,31988,1,0,0:0:0:0:
85,152,32588,2,0,P|114:280|268:326,1,280,2|0,0:3|0:0,0:0:0:0:
350,243,34388,2,0,P|317:98|174:61,1,280,2|0,0:0|0:0,0:0:0:0:
219,192,36188,6,0,P|344:245|472:198,1,280,2|0,0:3|0:0,0:0:0:0:
473,59,37988,2,0,P|347:5|219:52,1,280,2|0,0:0|0:0,0:0:0:0:
99,117,39788,1,2,0:3:0:0:
99,117,41588,1,2,0:0:0:0:
99,117,43388,6,0,P|231:91|342:180,1,280,2|0,0:3|0:0,0:0:0:0:
256,288,45188,1,2,0:0:0:0:
124,335,45788,1,0,0:0:0:0:
75,203,46388,1,0,0:0:0:0:
256,192,46988,12,0,49388,0:0:0:0:
316,284,50588,6,0,P|444:240|424:96,1,280,2|0,0:3|0:0,0:0:0:0:
342,15,52388,2,0,L|49:53,1,280,2|0,0:0|0:0,0:0:0:0:
65,192,54188,2,0,P|185:226|120:346,1,280,2|0,0:3|0:0,0:0:0:0:
273,298,55988,2,0,B|330:280|398:351|398:351|478:301|485:222,1,280,2|0,0:0|0:0,0:0:0:0:
491,107,57788,6,0,P|364:81|236:172,1,280,2|0,0:3|0:0,0:0:0:0:
271,297,59588,2,0,P|159:374|24:350,1,280,2|0,0:0|0:0,0:0:0:0:
123,250,61388,2,0,L|409:250,1,280,2|0,0:3|0:0,0:0:0:0:
502,152,63188,2,0,L|216:152,1,280,2|0,0:0|0:0,0:0:0:0:
124,54,64988,6,0,P|91:187|186:286,1,280,2|0,0:3|0:0,0:0:0:0:
222,152,66788,2,0,P|96:177|44:309,1,280,2|0,0:0|0:0,0:0:0:0:
181,284,68588,2,0,P|316:245|351:107,1,280,2|0,0:3|0:0,0:0:0:0:
264,18,70388,2,0,B|229:70|146:72|146:72|82:111|73:200,1,280,2|0,0:0|0:0,0:0:0:0:
48,330,72188,6,0,L|331:330,1,280,2|0,3:0|0:0,0:0:0:0:
427,232,73988,1,2,0:0:0:0:
293,192,74588,1,0,0:0:0:0:
326,329,75188,1,0,0:0:0:0:
427,232,75788,2,0,P|398:104|244:58,1,280,2|0,0:3|0:0,0:0:0:0:
162,141,77588,2,0,P|195:286|338:323,1,280,2|0,0:0|0:0,0:0:0:0:
292,191,79388,6,0,P|167:138|39:185,1,280,2|0,3:0|0:0,0:0:0:0:
39,326,81188,2,0,P|172:380|314:310,1,280,2|0,0:0|0:0,0:0:0:0:
413,267,82988,1,2,0:3:0:0:
413,267,84788,1,2,0:0:0:0:
413,267,86588,6,0,P|281:293|170:204,1,280,2|0,0:3|0:0,0:0:0:0:
256,96,88388,1,2,0:0:0:0:
388,49,88988,1,0,0:0:0:0:
437,181,89588,1,0,0:0:0:0:
256,192,90188,12,0,93788,0:0:0:0:
