osu file format v7

[General]
AudioFilename: video.mp3
AudioLeadIn: 0
PreviewTime: 41726
Countdown: 0
SampleSet: Normal
StackLeniency: 0.5
Mode: 0
LetterboxInBreaks: 0

[Editor]
Bookmarks: 175654
DistanceSpacing: 0.699999988079071
BeatDivisor: 2
GridSize: 8

[Metadata]
Title:Good Morning, Mister Masters
Artist:EmpyreanAria
Creator:Midget
Version:Newbie
Source:
Tags:Capcom Street Fighter Ken Shoryuken Youtube Thunderstorm

[Difficulty]
HPDrainRate:3
CircleSize:4
OverallDifficulty:4
SliderMultiplier:0.7
SliderTickRate:1

[Events]
//Background and Video events
0,0,"BG.png"
Video,0,"video.flv"
//Break Periods
2,59422,59693
2,146586,155514
//Storyboard Layer 0 (Background)
//Storyboard Layer 1 (Fail)
//Storyboard Layer 2 (Pass)
//Storyboard Layer 3 (Foreground)
//Storyboard Sound Samples
//Background Colour Transformations
3,100,255,255,255

[TimingPoints]
3700,298.507462686567,4,1,0,50,1,0

[Colours]
Combo1 : 251,230,174
Combo2 : 255,0,0
Combo3 : 255,128,0

[HitObjects]
32,32,3700,1,0
88,112,4297,1,8
144,32,4894,1,0
168,72,5192,2,4,L|200:112|296:112,1,140
344,192,6386,5,0
344,288,6983,1,0
296,288,7282,2,0,B|240:296|192:264|192:264|192:192,1,140,0|8
96,256,8476,6,0,B|96:176,1,70,4|0
168,112,9371,2,0,B|168:192,1,70
216,184,9968,2,4,B|360:184,1,140
320,96,11162,5,0
416,96,11759,2,0,B|488:96,1,70
488,144,12356,2,0,B|416:144,1,70,0|8
416,192,12953,2,4,B|488:192,1,70
488,240,13550,5,4
416,312,14147,1,0
464,312,14446,1,0
416,312,14744,2,4,B|272:312,2,140,4|4|4
384,224,16535,5,0
336,224,16834,2,0,B|248:224|216:208|216:208|216:160,2,140,0|8|4
336,176,18326,5,0
408,104,18923,2,0,B|408:192,1,70
408,224,19520,1,4
408,320,20117,1,4
256,192,20416,12,0,22207
32,192,22804,5,4
128,192,23401,2,0,B|192:144|320:240|408:176,1,280,8|8
416,280,25192,5,4
320,304,25789,2,8,B|256:352|128:256|40:320,1,280
48,216,27580,5,4
104,136,28177,1,8
160,216,28774,2,0,B|256:216|256:216|288:176|280:128,1,140,0|8
192,128,29968,5,0
192,32,30565,1,8
288,32,31162,1,0
288,128,31759,1,8
376,80,32356,5,4
376,176,32953,1,8
464,128,33550,2,0,B|464:272,2,140,0|8|0
368,128,35341,5,0
368,128,35640,2,0,B|304:176|224:96|144:152,1,210,0|8
163,140,36834,1,4
120,160,37132,1,4
48,232,37729,6,0,B|48:328|136:328,1,140,8|0
136,232,38923,2,0,B|280:232,1,140,8|4
376,224,40117,1,8
376,320,40714,1,4
472,320,41311,1,8
472,224,41908,6,0,B|416:152|496:88|448:16,2,210,4|0|8
376,224,44297,2,0,B|232:224,1,140,0|12
168,152,45491,2,0,B|320:152,1,140,0|12
256,72,46685,5,4
160,72,47282,1,8
64,72,47879,1,0
112,160,48476,1,8
168,240,49073,6,0,B|312:240,1,140,0|12
376,168,50267,2,0,B|232:168,1,140,0|12
136,168,51461,5,0
56,216,52058,2,0,B|136:336,1,140,8|0
160,240,53252,2,0,B|240:360,2,140,8|4|8
256,240,55043,1,0
352,240,55640,1,12
304,328,56237,6,0,B|304:184,1,140,0|12
256,192,57431,12,4,59222
48,80,61013,6,0,B|192:80,1,140,0|12
256,152,62207,2,0,B|112:152,1,140,0|12
104,248,63401,5,0
168,320,63998,1,12
168,320,64297,1,0
240,248,64894,1,4
240,248,65192,1,8
304,320,65789,6,0,B|384:320|384:320|408:304|408:232,1,140,0|12
480,336,66983,2,0,B|480:184,1,140,0|12
480,96,68177,5,0
384,96,68774,1,12
256,192,69371,12,4,70565
256,104,71162,5,8
256,200,71759,2,0,B|248:248|288:288|256:344,2,140,4|8|4
160,200,73550,2,0,B|16:200,1,140,8|0
88,128,74744,2,0,B|248:128,1,140,8|4
328,128,75938,6,0,B|472:128,2,140,8|4|8
328,224,77729,1,0
424,224,78326,1,8
424,320,78923,1,0
328,320,79520,1,12
248,264,80117,6,0,B|104:264,1,140,4|8
40,192,81311,2,0,B|184:192,2,140,0|8|0
104,120,83102,1,8
200,120,83700,1,0
136,48,84297,1,8
232,48,84894,1,4
304,112,85491,6,0,B|344:24|440:80,2,140,8|0|8
384,160,87282,1,4
256,192,87879,12,0,89670
80,192,90565,6,0,B|80:40,2,140
128,192,92058,2,0,B|128:336,2,140,0|8|0
224,192,93849,1,8
256,192,94446,12,8,96237
256,192,96834,6,0,B|408:192,1,140,0|8
464,128,98028,2,0,B|464:272,1,140,0|8
400,336,99222,6,0,B|256:336,1,140,4|8
160,336,100416,1,0
208,256,101013,1,8
144,184,101610,6,0,B|296:184,1,140,0|12
216,112,102804,2,0,B|72:112,1,140,0|12
144,184,103998,5,0
240,184,104595,1,8
192,272,105192,1,0
144,184,105789,1,12
48,184,106386,6,0,B|48:328,1,140,0|12
120,256,107580,2,0,B|264:256,1,140,0|12
320,328,108774,5,0
392,256,109371,1,8
320,192,109968,1,0
392,120,110565,2,0,B|480:120|480:24,2,140,8|0|8
296,120,112356,2,0,B|152:120,1,140,0|8
96,200,113550,6,0,B|96:344,1,140,0|8
176,280,114744,1,0
256,344,115341,1,8
256,248,115938,1,4
256,152,116535,1,8
344,200,117132,1,0
256,64,118326,6,0,B|256:208,1,140,0|12
184,264,119520,2,0,B|184:120,1,140,0|8
96,88,120714,5,0
96,136,121013,1,4
96,232,121610,1,0
96,280,121908,1,4
128,184,122505,2,0,B|272:184,1,140,8|4
368,184,123700,2,0,B|368:40,1,140,8|0
448,96,125192,5,0
448,144,125491,2,0,C|464:152|432:152|472:160|424:160|448:168|448:168|448:288,1,280
408,328,127132,1,0
336,328,127580,1,0
272,256,128177,6,0,B|272:328|240:328|240:328|160:328,1,140
136,328,129073,1,4
64,328,129520,1,4
64,256,129968,6,0,B|64:112,1,140
136,48,131162,2,0,B|136:192,1,140
136,188,132058,1,12
232,192,132655,6,0,B|320:192|320:104,1,140,0|8
376,184,133849,2,0,B|400:128|384:72|384:72|408:40,1,140,0|12
256,192,134744,12,4,136834
400,112,137431,6,0,B|304:112|304:216,1,140,0|8
400,192,138625,2,8,B|400:336,1,140,0|8
304,336,139819,5,4
256,336,140117,1,4
208,336,140416,2,0,B|64:336,2,140,12|0|12
136,264,142207,5,0
72,192,142804,2,0,B|224:192,2,140,8|0|8
112,104,144595,1,0
160,104,144894,2,0,B|232:104,1,70,0|8
280,104,145491,1,0
328,104,145789,6,0,B|440:104|448:192|408:192,1,140,0|12
216,112,156834,6,0,B|216:256,2,140
312,104,158625,5,0
360,104,158923,2,0,B|448:104|448:216,1,140,0|8
368,248,160117,1,0
320,248,160416,2,0,B|232:248|232:336,1,140
184,344,161311,5,4
96,304,161908,1,8
184,264,162505,1,0
96,216,163102,1,8
96,168,163401,2,0,B|96:24,2,140
256,192,164894,12,4,166088
112,192,166983,5,0
160,192,167282,2,0,B|304:192,1,140,0|8
352,192,168177,1,0
400,192,168476,6,0,B|480:192|480:296|408:296|320:296,1,210
304,296,169670,2,0,B|176:296|128:296|88:344,1,210
56,328,170864,5,4
56,232,171461,1,8
144,192,172058,1,0
56,144,172655,1,8
256,192,172953,12,0,175043
