osu file format v7

[General]
AudioFilename: video.mp3
AudioLeadIn: 0
PreviewTime: 41726
Countdown: 0
SampleSet: Normal
StackLeniency: 0.5
Mode: 0
LetterboxInBreaks: 0

[Editor]
Bookmarks: 79520
DistanceSpacing: 0.899999976158142
BeatDivisor: 2
GridSize: 8

[Metadata]
Title:Good Morning, Mister Masters
Artist:EmpyreanAria
Creator:Midget
Version:Master
Source:
Tags:Capcom Street Fighter Ken Shoryuken Youtube Thunderstorm

[Difficulty]
HPDrainRate:6
CircleSize:5
OverallDifficulty:8
SliderMultiplier:1.4
SliderTickRate:1

[Events]
//Background and Video events
Video,0,"video.flv"
0,0,"BG.png"
//Break Periods
2,146884,156084
//Storyboard Layer 0 (Background)
//Storyboard Layer 1 (Fail)
//Storyboard Layer 2 (Pass)
//Storyboard Layer 3 (Foreground)
//Storyboard Sound Samples
//Background Colour Transformations
3,100,255,255,255

[TimingPoints]
3700,298.507462686567,4,1,0,50,1,0

[Colours]
Combo1 : 251,230,174
Combo2 : 255,0,0
Combo3 : 255,128,0

[HitObjects]
128,96,3700,1,0
192,160,3998,2,0,B|152:224|192:296,1,140,0|8
320,224,4595,2,0,B|360:160|320:88,1,140
128,96,5192,5,0
128,288,5491,1,8
384,288,5789,1,0
384,96,6088,1,0
216,192,6386,5,0
256,240,6535,1,0
296,192,6685,1,8
208,104,6983,2,0,B|256:16|312:112,2,140
256,232,7879,1,8
256,344,8177,1,0
256,232,8476,1,0
184,288,8774,5,0
144,336,8923,1,0
104,288,9073,1,8
64,240,9222,1,0
24,288,9371,1,0
104,192,9670,1,0
184,96,9968,5,0
296,40,10267,1,8
368,144,10565,1,0
256,208,10864,1,0
392,280,11162,5,0
352,328,11311,1,0
256,200,11610,1,0
304,240,11759,1,0
208,152,12058,5,0
24,152,12356,1,0
112,288,12655,1,8
208,152,12953,1,0
296,24,13252,1,0
152,88,13550,6,0,B|208:48|248:104|288:88,1,140,0|8
392,96,14147,1,0
440,136,14297,1,0
392,176,14446,1,0
320,312,14744,5,0
368,272,14894,1,0
280,224,15192,1,0
240,176,15341,1,0
280,224,15491,1,0
240,176,15640,1,0
104,176,15938,6,0,B|160:176|168:184|168:184|216:256,1,140,0|8
408,208,16535,2,0,B|352:208|344:200|344:200|296:128,1,140
320,256,17132,5,0
192,256,17431,1,8
192,128,17729,1,0
320,128,18028,1,0
224,192,18326,5,0
288,192,18476,1,0
224,192,18625,1,8
288,192,18774,1,0
256,136,18923,2,0,B|256:280,1,140
360,272,19520,5,0
440,192,19819,1,8
360,112,20117,1,0
280,192,20416,6,0,B|136:192,1,140
120,256,20864,2,0,B|272:256,1,140
320,256,21311,1,0
368,296,21461,1,0
320,336,21610,1,0
184,336,21908,5,0
80,256,22207,1,8
184,184,22505,1,0
296,112,22804,5,0
360,112,22953,1,0
328,168,23102,1,0
432,232,23401,6,0,B|288:232,1,140,8|0
272,296,23849,2,0,B|432:296,2,140
208,296,24595,1,8
80,296,24894,1,0
144,192,25192,5,0
144,256,25341,1,0
144,320,25491,1,0
224,224,25789,5,8
280,192,25938,1,0
224,160,26088,1,0
168,128,26237,1,0
224,96,26386,1,0
288,96,26535,6,0,B|432:96,1,140
488,96,26983,2,0,B|490:162|426:164|415:159|375:159,1,140,8|0
328,192,27431,1,0
384,224,27580,6,0,B|480:224|480:304,1,140
352,304,28177,1,8
416,304,28326,1,0
384,360,28476,1,0
320,360,28625,1,0
256,360,28774,2,0,B|248:312|296:296|296:296|296:224,1,140
232,240,29222,2,0,B|240:264|184:264|184:376,2,140
232,176,29968,5,0
176,144,30117,1,0
232,112,30267,1,0
288,80,30416,1,0
232,48,30565,5,8
176,80,30714,1,0
176,80,30864,2,0,B|104:80|112:168|112:168|64:168,2,140
160,16,31610,2,0,B|72:32|56:104,1,140
88,152,32058,1,0
240,192,32356,5,0
304,192,32505,1,0
272,136,32655,1,0
352,312,32953,6,0,B|416:312|440:296|440:296|440:240,1,140,8|0
408,192,33401,1,0
352,160,33550,1,0
408,128,33700,1,0
464,160,33849,1,0
352,96,33998,6,0,B|296:64|296:64|272:56|216:96,1,140
208,24,34446,1,0
112,112,34744,5,0
168,80,34894,1,0
112,48,35043,1,0
56,80,35192,2,0,B|8:104|16:152|16:152|56:200,1,140
32,256,35640,5,0
96,256,35789,2,0,B|96:304|144:304,2,70
160,240,36237,2,0,B|160:192|112:192,2,70,0|0|8
184,296,36685,1,0
216,352,36834,1,0
248,296,36983,1,0
280,240,37132,5,0
312,296,37282,1,0
336,352,37431,2,0,B|432:352|432:320|432:320|432:288,1,140,0|8
384,248,37879,1,0
480,248,38028,1,0
432,200,38177,6,0,B|392:152|464:120|424:88|424:56,1,140
368,32,38625,1,0
360,96,38774,2,0,B|312:136|384:200|264:192,1,140
296,256,39222,2,0,B|248:264|232:224,1,70
256,80,39520,5,0
200,112,39670,1,0
144,80,39819,1,0
88,112,39968,1,0
144,144,40117,1,8
200,112,40267,1,0
256,144,40416,1,0
312,112,40565,1,0
368,80,40714,5,0
368,144,40864,1,0
480,88,41162,1,0
480,216,41461,1,0
480,216,41610,1,0
256,288,41908,5,0
256,224,42058,1,0
200,256,42207,1,0
144,288,42356,1,0
144,224,42505,1,8
64,120,42804,5,0
24,72,42953,1,0
88,56,43102,2,0,B|128:72|144:128|112:160|112:160|128:184,2,140,0|0|8
136,8,43849,2,0,B|200:56|192:144,1,140
240,176,44297,5,0
192,216,44446,1,0
144,176,44595,1,0
192,296,44894,1,8
192,296,45192,5,0
80,240,45491,5,0
112,296,45640,1,0
80,352,45789,1,0
192,296,46088,1,8
192,296,46386,5,0
320,296,46685,5,0
384,296,46834,1,0
352,352,46983,1,0
320,296,47132,1,0
288,240,47282,1,8
416,240,47580,5,0
480,240,47729,1,0
464,176,47879,2,0,B|432:136|384:168|384:168|328:168,1,140
432,88,48476,1,8
432,88,48774,1,0
312,40,49073,5,0
352,88,49222,1,0
312,136,49371,1,0
432,88,49670,1,8
256,88,49968,5,0
200,40,50267,5,0
160,88,50416,1,0
200,136,50565,1,0
80,88,50864,1,8
256,88,51162,1,0
256,216,51461,5,0
304,256,51610,1,0
256,296,51759,1,0
208,256,51908,1,0
256,216,52058,2,0,B|206:166|152:221|152:221|96:224,1,140,8|0
80,264,52505,1,0
80,328,52655,6,0,B|0:312|24:232|24:232|16:208,1,140
24,160,53102,1,0
80,192,53252,1,8
136,160,53401,1,0
192,192,53550,1,0
136,160,53700,1,0
192,128,53849,2,0,B|272:128|288:88|328:128|368:128,1,140
408,224,54446,6,0,B|480:224|480:304|480:304|504:304,1,140,8|0
416,288,54894,2,0,B|360:312|312:272|272:296,1,140
256,232,55341,2,0,B|336:208|368:248|400:224,2,140,0|8|0
144,184,56237,5,0
104,232,56386,1,0
144,280,56535,1,0
256,232,56834,1,0
384,232,57132,1,0
384,168,57282,6,0,B|464:152|448:80|448:80|464:80,1,140
384,96,57729,2,0,B|240:96,2,140,0|8|0
368,32,58476,1,0
304,32,58625,1,0
240,32,58774,1,0
176,32,58923,1,0
192,96,59073,1,0
192,96,59222,6,0,B|120:104|112:32|112:32|80:32,1,140,8|0
64,88,59670,2,0,B|96:160|184:160,1,140
240,160,60117,1,0
368,192,60267,5,0
400,136,60416,1,8
432,192,60565,1,0
368,192,60714,1,0
304,192,60864,1,0
320,256,61013,5,0
216,328,61311,5,0
112,256,61610,1,8
176,152,61908,1,0
120,120,62058,1,0
176,88,62207,1,0
232,56,62356,1,0
120,120,62655,1,0
240,152,63102,5,0
304,152,63252,1,0
288,88,63401,2,0,B|368:88|368:168|368:168|392:168,1,140
432,208,63849,1,0
376,240,63998,2,0,B|408:288|464:264|464:264|464:336,1,140,8|0
408,336,64446,1,0
344,336,64595,2,0,B|200:336,1,140
192,272,65043,2,0,B|336:272,1,140
320,208,65491,5,0
264,176,65640,1,0
208,208,65789,1,0
152,176,65938,1,0
208,144,66088,1,0
264,176,66237,1,0
320,144,66386,1,8
264,112,66535,1,0
320,80,66685,5,0
264,48,66834,1,0
208,80,66983,1,0
152,112,67132,2,0,B|104:112|88:160|88:160|8:160,1,140
176,288,67879,5,0
216,240,68028,1,0
256,288,68177,2,0,B|290:257|280:216|254:189|254:189|296:160,1,140
336,288,68774,2,0,B|360:240|336:200|336:200|376:168,1,140,8|0
496,200,69371,5,0
256,32,69819,1,0
24,192,70267,2,0,B|80:160|112:216|160:192,1,140
392,192,70864,5,0
256,192,71162,1,8
328,296,71461,1,0
288,344,71610,1,0
248,296,71759,6,0,B|200:272|152:296|120:288|120:288|104:288,1,140
120,224,72207,2,0,B|160:232|200:208|256:232|256:232|264:232,1,140
320,232,72655,1,0
376,200,72804,1,0
320,168,72953,5,0
264,136,73102,1,0
320,104,73252,1,0
376,72,73401,1,0
320,40,73550,5,8
264,72,73700,1,0
320,104,73849,1,0
376,72,73998,1,0
376,136,74147,6,0,B|448:128|440:48|440:48|464:48,1,140
504,88,74595,2,0,B|488:176|408:195,1,140
368,224,75043,6,0,B|384:256|432:256,1,70
488,256,75341,2,0,B|488:312|432:320,1,70
392,312,75640,1,0
344,352,75789,1,0
296,312,75938,2,0,B|288:240|264:232|264:232|208:232,1,140,8|0
216,296,76386,1,0
216,360,76535,2,0,B|144:352|136:328|136:328|136:272,1,140
136,216,76983,1,0
256,72,77431,5,0
376,192,77729,1,0
256,312,78028,1,0
136,192,78326,1,8
256,144,78625,5,0
216,192,78774,1,0
296,192,78923,1,0
136,192,79222,1,0
376,192,79520,1,8
200,304,79968,5,0
120,304,80117,2,0,B|40:304|40:304|8:288|24:208,1,140
72,216,80565,1,0
16,184,80714,2,0,B|39:143|112:128|136:208,1,140,8|0
192,176,81162,5,0
232,128,81311,2,0,B|280:176|226:236|226:236|248:256,1,140
304,232,81759,2,0,B|336:160|288:96,2,140
320,296,82505,5,0
360,344,82655,1,0
400,296,82804,1,0
440,248,82953,1,0
480,296,83102,1,8
440,344,83252,1,0
400,296,83401,1,0
360,248,83550,1,0
400,200,83700,6,0,B|400:56,1,140
336,40,84147,2,0,B|336:184,2,140
272,56,84894,5,0
160,104,85192,2,0,B|232:104|232:104|264:112|264:208,1,140,0|8
296,216,85640,1,0
232,216,85789,2,0,B|184:216|184:168|184:168|80:168,2,140
232,280,86535,6,0,B|88:280,1,140
80,344,86983,1,0
144,344,87132,1,0
208,344,87282,2,0,B|352:344,1,140
256,32,87879,5,8
200,64,88028,1,0
256,96,88177,1,0
312,128,88326,2,0,B|200:216,1,140
184,128,88774,2,0,B|296:216,1,140,0|8
294,214,89222,5,0
294,214,89371,1,0
294,214,89520,1,0
344,256,89670,5,0
392,216,89819,2,0,B|464:216|464:216|496:216|496:304,1,140
432,280,90267,2,0,B|432:352|400:352|400:352|320:352,1,140,8|0
280,352,90714,1,0
240,304,90864,5,0
200,352,91013,1,0
160,304,91162,1,0
200,256,91311,1,0
240,304,91461,1,8
200,352,91610,1,0
160,304,91759,2,0,B|56:200,1,140
56,304,92207,6,0,B|160:200,1,140
154,205,92804,1,0
352,80,93252,6,0,B|456:184,1,140
456,80,93700,2,0,B|352:184,1,140
256,192,94446,12,0,95192
256,136,95640,5,0
192,192,95789,1,0
256,248,95938,1,0
456,208,96237,2,0,B|416:168|384:232|312:184,1,140,8|0
192,192,96834,5,0
128,192,96983,1,0
160,136,97132,1,0
192,192,97282,1,0
224,248,97431,1,8
256,192,97580,1,0
288,136,97729,1,0
320,192,97879,6,0,B|376:256|392:256|392:256|472:256,1,140
432,320,98326,1,0
488,288,98476,1,0
488,224,98625,2,0,B|488:72,1,140,8|0
400,192,99222,5,0
400,256,99371,1,0
344,224,99520,1,0
288,256,99670,1,0
288,192,99819,2,0,B|225:200|224:264|224:264|176:264,1,140,8|0
128,264,100267,5,0
160,208,100416,2,0,B|197:122|298:124,2,140,0|0|8
160,208,101311,1,0
88,120,101610,5,0
48,72,101759,1,0
88,24,101908,1,0
128,72,102058,1,0
256,72,102505,1,0
456,120,102804,5,0
496,72,102953,1,0
456,24,103102,1,0
416,72,103252,1,0
256,72,103700,1,0
256,200,103998,5,0
208,240,104147,2,0,B|128:240,2,70
256,288,104595,1,8
376,248,104894,1,0
376,312,105043,1,0
376,184,105192,5,0
376,56,105491,1,0
248,56,105789,1,8
248,184,106088,1,0
128,208,106386,5,0
88,256,106535,1,0
128,304,106685,1,0
256,304,106983,1,8
256,304,107282,5,0
384,208,107580,5,0
424,256,107729,1,0
384,304,107879,1,0
256,304,108177,1,8
256,304,108476,5,0
256,176,108774,5,0
256,240,108923,1,0
200,208,109073,1,0
200,144,109222,1,0
256,112,109371,1,8
368,176,109670,1,0
312,208,109819,1,0
312,144,109968,6,0,B|331:119|369:94|414:125|420:145|420:145|440:136,1,140
488,120,110416,1,0
440,72,110565,2,0,B|368:32|304:72,2,140,8|0|0
488,120,111311,5,0
488,184,111461,1,0
432,152,111610,1,0
432,216,111759,1,8
488,248,111908,2,0,B|488:320|464:336|464:336|416:336,1,140
288,336,112505,5,0
352,336,112655,2,0,B|352:192,2,140,0|8|0
256,256,113550,5,0
208,208,113700,1,0
256,160,113849,1,0
136,208,114147,5,8
136,80,114446,1,0
264,80,114744,2,0,B|304:56|368:88|408:72,1,140
408,136,115192,2,0,B|352:152|304:112|264:152,1,140
312,200,115640,5,0
376,208,115789,1,0
440,200,115938,2,0,B|480:200|480:320|432:320,1,140
376,320,116386,1,0
312,320,116535,2,0,B|240:320|240:320|192:304|192:248,1,140,8|0
128,272,116983,2,0,B|128:128,1,140
192,152,117431,1,0
192,216,117580,1,0
248,184,117729,5,8
248,120,117879,1,0
304,152,118028,1,0
304,216,118177,1,0
376,184,118326,5,0
128,184,118625,5,0
128,312,118923,1,8
256,312,119222,1,0
304,272,119371,1,0
256,232,119520,1,0
208,272,119670,1,0
256,152,119968,1,0
440,112,120416,5,0
440,48,120565,1,0
376,64,120714,2,0,B|376:208,1,140
328,248,121162,1,0
312,184,121311,2,0,B|312:40,1,140,8|0
248,48,121759,5,0
184,56,121908,2,0,B|112:56|112:128|192:128,1,140
248,128,122356,2,0,B|320:128|320:200|240:200,1,140
184,200,122804,5,0
128,232,122953,1,0
184,264,123102,1,0
240,296,123252,1,0
184,328,123401,1,0
128,296,123550,5,0
184,264,123700,1,8
240,232,123849,1,0
296,264,123998,1,0
296,200,124147,1,0
352,232,124297,1,0
352,296,124446,6,0,B|400:344|416:344|416:344|488:344,1,140
472,280,124894,1,8
472,216,125043,1,0
416,248,125192,1,0
416,184,125341,1,0
416,120,125491,5,0
288,120,125789,1,0
288,248,126088,1,8
160,248,126386,1,0
48,192,126685,5,0
256,64,127132,1,0
464,192,127580,2,0,B|408:168|384:200|336:192|320:192,1,140
128,192,128177,5,0
256,192,128476,1,8
192,304,128774,1,0
192,240,128923,1,0
192,176,129073,2,0,B|192:32,1,140
256,16,129520,2,0,B|256:160,1,140
320,144,129968,5,0
352,88,130117,1,0
384,144,130267,1,0
416,88,130416,1,0
448,144,130565,1,0
416,200,130714,1,0
352,200,130864,1,8
288,200,131013,2,0,B|288:248|328:256,1,70
384,256,131311,6,0,B|384:296|344:312,1,70
360,376,131610,2,0,B|216:376,1,140
256,256,132207,5,0
256,320,132356,1,0
200,288,132505,1,0
144,320,132655,5,0
144,256,132804,1,0
80,272,132953,2,0,B|80:128,1,140,0|8
128,88,133401,1,0
176,48,133550,2,0,B|248:72|248:96|248:96|248:144|248:160,1,140
312,152,133998,1,0
312,152,134147,2,0,B|312:264|248:264|248:184,1,140,0|8
160,280,134744,5,0
352,280,135043,1,0
352,104,135341,1,0
160,104,135640,1,8
208,192,135938,5,0
256,152,136088,1,0
304,192,136237,1,0
256,288,136535,2,0,B|256:144,1,140,0|8
256,48,137431,5,0
232,104,137580,2,0,B|216:184,1,70
280,176,137879,2,0,B|288:264,1,70,0|8
286,245,138326,1,0
416,248,138625,6,0,B|480:256|472:360|392:344,1,140
376,296,139073,2,0,B|232:296,1,140
176,296,139520,1,0
48,296,139819,5,0
112,192,140117,1,0
168,80,140416,2,0,B|248:72|256:160|256:160|288:160,1,140,8|0
320,192,140864,1,0
320,128,141013,2,0,B|296:37|226:23,2,140,0|0|8
320,320,142058,5,0
256,320,142207,2,0,B|216:304|152:344|120:312|104:312,1,140
72,272,142655,1,0
136,256,142804,2,0,B|168:272|224:240|280:264,1,140,8|0
336,264,143252,2,0,B|400:264|400:176|328:176,2,140
248,176,144147,1,0
248,48,144446,5,0
248,48,144595,1,0
216,104,144744,1,0
280,104,144894,1,0
312,48,145043,1,0
248,48,145192,1,8
184,48,145341,5,0
152,104,145491,1,0
120,48,145640,1,0
88,104,145789,2,0,B|88:248,1,140
104,304,146237,1,0
152,264,146386,2,0,B|152:120,1,140,8|0
48,72,156834,6,0,B|128:72|128:152|128:152|184:152,1,140,0|8
240,72,157431,1,0
288,112,157580,1,0
240,152,157729,2,0,B|304:208|360:136|344:112|344:112|352:96,1,140
400,160,158177,2,0,B|376:224|293:237|293:237|276:232,1,140
224,240,158625,1,0
184,288,158774,1,0
224,336,158923,6,0,B|368:336,1,140
416,296,159371,1,0
360,264,159520,2,0,B|216:264,1,140,8|0
160,264,159968,1,0
96,264,160117,2,0,B|32:264|32:176|104:176,1,140
160,176,160565,1,0
288,176,160864,5,0
224,176,161013,1,0
256,120,161162,1,0
288,176,161311,1,0
320,232,161461,1,0
352,176,161610,1,0
384,120,161759,5,0
320,120,161908,1,8
352,176,162058,1,0
384,232,162207,1,0
416,176,162356,1,0
448,120,162505,2,0,B|448:40|352:40,1,140
288,40,162953,2,0,B|200:40|200:128,1,140
136,128,163401,5,0
136,192,163550,1,0
80,160,163700,1,0
80,288,163998,1,0
208,288,164297,1,8
208,160,164595,1,0
256,24,164894,5,0
384,184,165341,1,0
264,352,165789,2,0,B|208:328|160:360|112:344,1,140
48,152,166386,6,0,B|80:200|32:240|64:312,1,140
184,288,166983,1,0
136,248,167132,1,0
192,216,167282,2,0,B|272:216|288:200|288:200|288:152,1,140
224,152,167729,2,0,B|144:152|128:136|128:136|128:88,1,140
96,40,168177,1,0
160,40,168326,1,0
224,48,168476,6,0,B|264:40|288:80,1,70
344,48,168774,2,0,B|360:88|328:120,1,70
400,128,169073,2,0,B|384:176|328:176,1,70,8|0
392,224,169371,2,0,B|360:248|320:232,2,70
456,224,169819,1,0
424,280,169968,2,0,B|400:320|368:328|368:328|280:328,1,140,0|8
176,320,170565,5,0
136,272,170714,1,0
176,224,170864,1,0
216,272,171013,1,0
176,320,171162,1,0
128,360,171311,1,0
88,312,171461,6,0,B|48:288|48:264|48:264|48:152,1,140,8|0
112,192,171908,1,0
80,136,172058,2,0,B|80:-8,2,140,0|0|8
208,136,172953,1,0
320,192,173252,1,0
240,296,173550,1,0
136,224,173849,1,8
256,176,174147,5,0
296,128,174297,1,0
336,80,174446,1,0
256,176,174744,1,0
176,272,175043,1,12
