osu file format v13

[General]
AudioFilename: 04 We Are The People.mp3
AudioLeadIn: 0
PreviewTime: -1
Countdown: 0
SampleSet: Normal
StackLeniency: 0.7
Mode: 0
LetterboxInBreaks: 1
WidescreenStoryboard: 1

[Editor]
DistanceSpacing: 1
BeatDivisor: 4
GridSize: 8
TimelineZoom: 0.3999999

[Metadata]
Title:We Are The People
TitleUnicode:We Are The People
Artist:Empire Of The Sun
ArtistUnicode:Empire Of The Sun
Creator:GaronTheDivine
Version:Normal
Source:
Tags:
BeatmapID:523375
BeatmapSetID:224163

[Difficulty]
HPDrainRate:5
CircleSize:3
OverallDifficulty:5
ApproachRate:5
SliderMultiplier:1.4
SliderTickRate:1

[Events]
//Background and Video events
0,0,"474462.jpg",0,0
//Break Periods
2,116352,121782
2,140743,150807
2,214890,217148
//Storyboard Layer 0 (Background)
//Storyboard Layer 1 (Fail)
//Storyboard Layer 2 (Pass)
//Storyboard Layer 3 (Foreground)
//Storyboard Sound Samples
//Background Colour Transformations
3,100,163,162,255

[TimingPoints]
56,487.80487804878,4,1,0,100,1,0

[HitObjects]
264,56,16641,5,0,0:0:0:0:
288,72,16885,1,0,0:0:0:0:
312,88,17129,1,0,0:0:0:0:
336,104,17373,1,0,0:0:0:0:
384,160,17860,2,0,L|256:240,3,140,0|0|0|0,0:0|0:0|0:0|0:0,0:0:0:0:
272,232,19568,1,4,0:0:0:0:
248,56,20543,1,0,0:0:0:0:
224,72,20787,1,0,0:0:0:0:
200,88,21031,1,0,0:0:0:0:
176,104,21275,1,0,0:0:0:0:
152,120,21519,1,0,0:0:0:0:
128,136,22007,2,0,B|496:136|288:264,1,350,0|0,0:0|0:0,0:0:0:0:
240,232,23470,1,4,0:0:0:0:
224,64,24202,1,0,0:0:0:0:
288,64,24446,1,4,0:0:0:0:
288,160,25177,1,0,0:0:0:0:
288,224,25421,1,4,0:0:0:0:
176,224,25909,1,0,0:0:0:0:
176,160,26397,1,4,0:0:0:0:
176,80,26885,1,0,0:0:0:0:
256,48,27373,6,2,P|304:40|336:128,1,140
344,192,28104,1,2,0:0:0:0:
344,256,28592,1,2,0:0:0:0:
344,336,29080,1,0,0:0:0:0:
256,344,29324,2,6,P|176:320|168:272,1,140
168,192,30055,1,2,0:0:0:0:
168,128,30543,1,6,0:0:0:0:
256,192,31275,5,4,0:0:0:0:
256,192,31763,1,4,0:0:0:0:
328,192,32251,1,4,0:0:0:0:
328,192,32738,1,4,0:0:0:0:
184,192,33226,1,4,0:0:0:0:
184,192,33714,1,4,0:0:0:0:
256,264,34202,1,4,0:0:0:0:
256,264,34690,1,4,0:0:0:0:
208,136,35178,1,4,0:0:0:0:
304,136,35665,1,4,0:0:0:0:
80,192,36153,1,4,0:0:0:0:
424,192,36641,1,4,0:0:0:0:
320,136,37129,1,4,0:0:0:0:
192,136,37616,1,4,0:0:0:0:
192,248,38104,1,4,0:0:0:0:
320,248,38592,1,4,0:0:0:0:
256,192,39080,6,0,L|256:336,3,140,0|0|0|0,0:0|0:0|0:0|0:0,0:0:0:0:
192,248,41031,2,0,L|344:216,1,140
256,176,42007,2,4,L|400:144,1,140,0|0,0:0|0:0,0:0:0:0:
480,192,42982,5,0,0:0:0:0:
424,240,43714,1,0,0:0:0:0:
424,144,44202,1,0,0:0:0:0:
360,192,44690,2,0,B|-96:56|312:352|344:352|248:184,1,490
256,96,46885,6,4,L|424:96,1,140
400,136,47616,1,0,0:0:0:0:
400,176,47860,2,0,L|400:320,1,140
360,320,48592,1,0,0:0:0:0:
328,320,48836,2,0,L|184:320,1,140
160,320,49568,1,0,0:0:0:0:
128,320,49812,2,0,L|128:176,1,140,0|0,0:0|0:0,0:0:0:0:
160,176,50543,1,0,0:0:0:0:
192,176,50787,2,4,L|248:40,1,140
280,48,51519,1,0,0:0:0:0:
320,48,51763,2,0,L|376:184,1,140
304,216,52495,1,0,0:0:0:0:
232,200,52738,6,0,P|80:176|96:272,1,280
160,232,54202,1,0,0:0:0:0:
224,280,54690,5,4,0:0:0:0:
224,280,54934,1,0,0:0:0:0:
224,280,55177,1,8,0:0:0:0:
80,280,55665,1,0,0:0:0:0:
80,280,55909,1,0,0:0:0:0:
80,280,56153,1,8,0:0:0:0:
152,184,56641,1,0,0:0:0:0:
152,184,56885,1,0,0:0:0:0:
152,184,57129,1,8,0:0:0:0:
256,152,57616,5,0,0:0:0:0:
312,176,57860,1,0,0:0:0:0:
360,216,58104,1,8,0:0:0:0:
400,264,58348,1,4,0:0:0:0:
440,320,58592,5,0,0:0:0:0:
440,320,58836,1,0,0:0:0:0:
440,320,59080,1,8,0:0:0:0:
432,192,59568,1,0,0:0:0:0:
432,192,59812,1,0,0:0:0:0:
432,192,60055,1,8,0:0:0:0:
440,96,60543,1,0,0:0:0:0:
440,96,60787,1,0,0:0:0:0:
440,96,61031,1,8,0:0:0:0:
344,80,61519,1,0,0:0:0:0:
344,80,61763,1,0,0:0:0:0:
344,80,62007,1,4,0:0:0:0:
288,160,62495,5,0,0:0:0:0:
288,224,62982,1,0,0:0:0:0:
224,160,63470,1,0,0:0:0:0:
224,224,63958,1,0,0:0:0:0:
288,160,64446,1,0,0:0:0:0:
288,224,64934,1,0,0:0:0:0:
224,160,65421,1,4,0:0:0:0:
224,224,65909,2,0,L|280:168,1,70
328,112,66397,5,4,0:0:0:0:
328,264,66885,1,0,0:0:0:0:
184,112,67373,1,0,0:0:0:0:
184,264,67860,1,0,0:0:0:0:
328,112,68348,1,0,0:0:0:0:
328,264,68836,1,0,0:0:0:0:
184,112,69324,1,0,0:0:0:0:
184,264,69812,2,0,L|240:208,1,70
368,72,70299,5,4,0:0:0:0:
368,304,70787,1,0,0:0:0:0:
144,72,71275,1,0,0:0:0:0:
144,304,71763,1,0,0:0:0:0:
368,72,72251,1,0,0:0:0:0:
368,304,72738,1,0,0:0:0:0:
144,72,73226,1,0,0:0:0:0:
144,192,73714,2,6,L|312:192,1,140
368,192,74690,5,0,0:0:0:0:
368,72,75177,1,4,0:0:0:0:
256,72,75665,1,4,0:0:0:0:
144,72,76153,1,0,0:0:0:0:
144,192,76641,1,0,0:0:0:0:
144,304,77129,1,0,0:0:0:0:
256,304,77616,1,0,0:0:0:0:
368,304,78104,1,4,0:0:0:0:
304,104,80055,5,0,0:0:0:0:
360,64,80543,1,0,0:0:0:0:
424,48,81031,1,0,0:0:0:0:
416,104,81275,1,0,0:0:0:0:
384,144,81519,1,0,0:0:0:0:
336,160,81763,1,0,0:0:0:0:
288,168,82007,1,0,0:0:0:0:
192,224,82982,5,0,0:0:0:0:
160,248,83226,1,0,0:0:0:0:
192,272,83470,1,0,0:0:0:0:
320,288,83958,5,0,0:0:0:0:
352,320,84202,1,0,0:0:0:0:
320,336,84446,1,0,0:0:0:0:
280,216,84934,6,0,L|240:216,2,35,0|0|0,0:0|0:0|0:0,0:0:0:0:
240,152,85421,2,0,L|280:152,2,35,0|0|0,0:0|0:0|0:0,0:0:0:0:
184,88,85909,1,0,0:0:0:0:
304,112,86885,5,0,0:0:0:0:
336,144,87129,1,0,0:0:0:0:
368,176,87373,1,0,0:0:0:0:
400,208,87616,2,0,P|472:232|480:296,1,140
352,296,89080,2,0,L|304:296,1,35
256,296,89446,1,0,0:0:0:0:
192,296,89690,2,0,L|152:296,1,35
416,64,91763,5,0,0:0:0:0:
416,272,92251,5,0,0:0:0:0:
112,88,92738,5,0,0:0:0:0:
96,216,93226,5,0,0:0:0:0:
40,256,93714,6,0,P|136:352|144:352,1,140,0|0,0:0|0:0,0:0:0:0:
184,320,94446,1,0,0:0:0:0:
160,256,94689,6,0,P|192:192|280:208,1,140
312,216,95421,1,0,0:0:0:0:
256,264,95665,6,0,P|376:304|400:320,1,140
440,256,96397,1,0,0:0:0:0:
408,184,96641,6,0,P|408:64|384:24,1,140
320,32,97372,1,0,0:0:0:0:
336,104,97616,6,0,P|280:176|224:160,1,140
176,160,98348,1,0,0:0:0:0:
200,104,98592,6,0,L|128:80|128:80,4,70,0|0|0|0|0,0:0|0:0|0:0|0:0|0:0,0:0:0:0:
272,256,100543,5,0,0:0:0:0:
216,232,100787,1,0,0:0:0:0:
200,176,101031,1,0,0:0:0:0:
216,120,101275,1,0,0:0:0:0:
256,192,101519,2,0,B|256:0|376:360|376:328,2,280,0|0|0,0:0|0:0|0:0,0:0:0:0:
240,136,104446,1,0,0:0:0:0:
296,152,104690,1,0,0:0:0:0:
312,208,104934,1,0,0:0:0:0:
288,256,105177,1,0,0:0:0:0:
256,192,105421,2,0,B|256:384|112:32|120:56,2,280,0|0|0,0:0|0:0|0:0,0:0:0:0:
40,248,109080,5,0,0:0:0:0:
64,304,109324,2,0,P|144:288|160:232,1,140
168,144,110055,5,0,0:0:0:0:
168,64,110299,2,0,P|232:96|232:168,1,140,0|0,0:0|0:0,0:0:0:0:
232,216,111031,5,0,0:0:0:0:
248,272,111275,2,0,P|304:328|368:320,1,140
344,232,112007,5,0,0:0:0:0:
344,144,112251,2,0,P|368:64|432:40,1,140
248,160,113226,1,0,0:0:0:0:
312,304,113714,6,0,P|256:224|288:344,1,350
248,288,115177,2,0,L|248:8,1,280
24,192,122982,5,0,0:0:0:0:
96,88,123470,1,0,0:0:0:0:
136,304,123958,1,0,0:0:0:0:
176,88,124446,1,0,0:0:0:0:
216,304,124934,1,4,0:0:0:0:
256,192,125909,5,0,0:0:0:0:
296,208,126153,1,0,0:0:0:0:
336,224,126397,1,0,0:0:0:0:
400,256,126641,2,0,L|288:160,1,140,0|0,0:0|0:0,0:0:0:0:
256,352,127616,5,0,0:0:0:0:
256,320,127860,1,2,0:0:0:0:
256,280,128104,1,8,0:0:0:0:
256,232,128348,1,2,0:0:0:0:
256,96,128836,1,4,0:0:0:0:
256,192,129812,5,0,0:0:0:0:
216,208,130056,1,0,0:0:0:0:
176,224,130300,1,0,0:0:0:0:
112,256,130543,2,0,L|218:164,4,140,0|0|0|0|0,0:0|0:0|0:0|0:0|0:0,0:0:0:0:
112,256,132738,1,4,0:0:0:0:
328,32,133714,6,0,B|-128:360|656:352|168:24,1,700,0|0,0:0|0:0,0:0:0:0:
256,192,136641,12,0,140543,0:0:0:0:
312,128,152007,5,0,0:0:0:0:
312,128,152251,1,0,0:0:0:0:
328,192,152982,1,0,0:0:0:0:
328,192,153226,1,0,0:0:0:0:
424,192,153958,1,0,0:0:0:0:
424,192,154202,1,0,0:0:0:0:
432,104,154934,1,0,0:0:0:0:
432,104,155177,1,0,0:0:0:0:
344,200,155665,1,4,0:0:0:0:
376,272,156153,5,0,0:0:0:0:
432,152,156641,1,0,0:0:0:0:
432,272,157129,1,0,0:0:0:0:
320,176,157616,1,0,0:0:0:0:
336,264,158104,1,0,0:0:0:0:
408,160,158592,1,0,0:0:0:0:
480,296,159080,1,0,0:0:0:0:
248,136,159568,1,0,0:0:0:0:
128,296,160055,1,0,0:0:0:0:
80,104,160543,1,0,0:0:0:0:
344,248,161031,1,0,0:0:0:0:
352,64,161519,1,0,0:0:0:0:
192,248,162007,1,0,0:0:0:0:
176,96,162495,1,0,0:0:0:0:
304,224,162982,1,0,0:0:0:0:
400,136,163470,1,0,0:0:0:0:
376,344,163958,1,0,0:0:0:0:
208,208,164446,1,0,0:0:0:0:
64,184,164934,1,0,0:0:0:0:
352,168,165421,1,0,0:0:0:0:
312,48,165909,1,0,0:0:0:0:
296,72,166153,1,0,0:0:0:0:
280,96,166397,1,0,0:0:0:0:
264,120,166641,1,0,0:0:0:0:
248,144,166885,1,0,0:0:0:0:
232,168,167129,1,0,0:0:0:0:
216,192,167373,1,0,0:0:0:0:
200,216,167616,1,0,0:0:0:0:
184,240,167860,1,0,0:0:0:0:
168,264,168104,1,0,0:0:0:0:
96,152,168348,1,0,0:0:0:0:
224,192,169812,5,0,0:0:0:0:
288,192,170299,1,0,0:0:0:0:
256,192,170787,2,0,L|256:336|256:320,1,140
256,120,171763,5,4,0:0:0:0:
192,288,172250,1,0,0:0:0:0:
80,192,172739,1,0,0:0:0:0:
344,184,173226,1,0,0:0:0:0:
256,80,173714,1,0,0:0:0:0:
232,240,174201,1,0,0:0:0:0:
112,120,174690,1,0,0:0:0:0:
176,320,175177,1,0,0:0:0:0:
392,176,175666,1,0,0:0:0:0:
192,192,176153,1,0,0:0:0:0:
368,280,176641,1,0,0:0:0:0:
272,88,177129,1,0,0:0:0:0:
272,256,177617,1,0,0:0:0:0:
384,168,178105,1,0,0:0:0:0:
184,112,178592,1,0,0:0:0:0:
184,256,179080,1,0,0:0:0:0:
304,136,179568,1,0,0:0:0:0:
368,264,180056,1,0,0:0:0:0:
232,72,180544,1,0,0:0:0:0:
112,288,181031,1,4,0:0:0:0:
200,48,181519,1,0,0:0:0:0:
216,72,181763,1,0,0:0:0:0:
232,96,182007,1,0,0:0:0:0:
248,120,182251,1,0,0:0:0:0:
264,144,182495,1,0,0:0:0:0:
280,168,182739,1,0,0:0:0:0:
296,192,182983,1,0,0:0:0:0:
312,216,183226,1,0,0:0:0:0:
328,240,183470,1,0,0:0:0:0:
344,264,183714,1,0,0:0:0:0:
416,152,183958,1,0,0:0:0:0:
200,48,187373,6,0,P|400:344|176:296,1,840
224,272,190543,1,0,0:0:0:0:
256,232,190787,1,0,0:0:0:0:
288,192,191031,1,0,0:0:0:0:
312,48,191275,6,0,P|112:344|336:296,1,840
296,272,194445,1,0,0:0:0:0:
264,232,194689,1,0,0:0:0:0:
232,192,194933,1,0,0:0:0:0:
200,152,195177,1,4,0:0:0:0:
80,128,195665,5,0,0:0:0:0:
272,144,196153,1,0,0:0:0:0:
352,208,196641,1,0,0:0:0:0:
288,264,197129,1,0,0:0:0:0:
208,296,197616,1,0,0:0:0:0:
208,216,198104,1,0,0:0:0:0:
296,168,198592,1,0,0:0:0:0:
368,248,199080,1,0,0:0:0:0:
408,168,199568,1,0,0:0:0:0:
352,104,200055,1,0,0:0:0:0:
256,72,200543,1,0,0:0:0:0:
112,208,201031,1,0,0:0:0:0:
136,176,201275,1,0,0:0:0:0:
160,208,201519,1,0,0:0:0:0:
184,176,201763,1,0,0:0:0:0:
208,208,202007,1,0,0:0:0:0:
232,176,202251,1,0,0:0:0:0:
256,208,202495,1,0,0:0:0:0:
280,176,202738,1,0,0:0:0:0:
304,208,202982,2,0,B|488:24|480:336|232:344,1,420,0|0,0:0|0:0,0:0:0:0:
192,344,204934,2,0,B|8:240|96:48|280:88,1,420
272,360,206885,2,0,P|272:8|368:320,1,980
256,192,210787,12,0,214690,0:0:0:0:
96,192,218348,22,0,L|168:144,1,70
208,112,219080,1,0,0:0:0:0:
328,112,219568,1,0,0:0:0:0:
360,208,220055,1,0,0:0:0:0:
312,216,220299,1,0,0:0:0:0:
264,224,220543,1,0,0:0:0:0:
216,232,220787,1,0,0:0:0:0:
168,240,221031,1,0,0:0:0:0:
88,256,221519,1,0,0:0:0:0:
96,216,221763,1,0,0:0:0:0:
120,184,222007,1,0,0:0:0:0:
152,160,222251,1,0,0:0:0:0:
184,144,222494,1,0,0:0:0:0:
224,136,222738,1,0,0:0:0:0:
264,136,222982,2,0,L|384:232,4,140,0|0|0|0|0,0:0|0:0|0:0|0:0|0:0,0:0:0:0:
192,112,225421,5,0,0:0:0:0:
232,136,225665,1,0,0:0:0:0:
192,160,225909,1,0,0:0:0:0:
232,184,226153,1,0,0:0:0:0:
192,208,226397,1,0,0:0:0:0:
232,232,226641,1,0,0:0:0:0:
192,256,226885,1,0,0:0:0:0:
192,304,228348,6,0,P|304:256|240:120,1,280,0|0,0:0|0:0,0:0:0:0:
208,112,229568,1,0,0:0:0:0:
176,120,229812,1,0,0:0:0:0:
152,136,230055,1,0,0:0:0:0:
136,160,230299,1,0,0:0:0:0:
128,192,230543,1,0,0:0:0:0:
136,224,230787,1,0,0:0:0:0:
256,200,232251,5,0,0:0:0:0:
256,312,232738,1,0,0:0:0:0:
184,256,233226,2,0,L|328:256,1,140
328,336,234201,5,0,0:0:0:0:
136,152,234689,1,0,0:0:0:0:
80,128,235177,1,0,0:0:0:0:
88,224,235665,1,0,0:0:0:0:
256,120,236153,1,0,0:0:0:0:
448,296,236640,1,0,0:0:0:0:
208,280,237128,1,0,0:0:0:0:
336,96,237616,1,0,0:0:0:0:
288,288,238104,1,0,0:0:0:0:
168,136,238592,1,0,0:0:0:0:
96,296,239080,1,0,0:0:0:0:
304,80,239567,1,0,0:0:0:0:
384,208,240055,1,0,0:0:0:0:
432,104,240543,1,0,0:0:0:0:
456,272,241031,1,0,0:0:0:0:
136,184,241518,1,0,0:0:0:0:
24,320,242007,1,0,0:0:0:0:
240,80,242495,1,0,0:0:0:0:
304,256,242982,1,0,0:0:0:0:
144,144,243470,1,0,0:0:0:0:
312,96,243958,6,0,L|248:96,4,35,0|0|0|0|0,0:0|0:0|0:0|0:0|0:0,0:0:0:0:
200,168,244934,2,0,L|248:168,4,35,0|0|0|0|0,0:0|0:0|0:0|0:0|0:0,0:0:0:0:
256,192,245909,12,4,248836,0:0:0:0:
40,128,249812,6,0,P|136:32|144:32,1,140,0|0,0:0|0:0,0:0:0:0:
184,64,250544,1,0,0:0:0:0:
160,128,250787,6,0,P|192:192|280:176,1,140
312,168,251519,1,0,0:0:0:0:
256,120,251763,6,0,P|376:80|400:64,1,140
440,128,252495,1,0,0:0:0:0:
408,200,252739,6,0,P|408:320|384:360,1,140
320,352,253470,1,0,0:0:0:0:
336,280,253714,6,0,P|280:208|224:224,1,140
176,224,254446,1,0,0:0:0:0:
200,280,254690,6,0,L|128:304|128:304,4,70,0|0|0|0|0,0:0|0:0|0:0|0:0|0:0,0:0:0:0:
256,192,256641,5,4,0:0:0:0:
