osu file format v13

[General]
AudioFilename: 04 We Are The People.mp3
AudioLeadIn: 0
PreviewTime: -1
Countdown: 0
SampleSet: Normal
StackLeniency: 0.7
Mode: 0
LetterboxInBreaks: 1
WidescreenStoryboard: 0

[Editor]
DistanceSpacing: 1
BeatDivisor: 4
GridSize: 8
TimelineZoom: 0.3999999

[Metadata]
Title:We Are The People
TitleUnicode:We Are The People
Artist:Empire Of The Sun
ArtistUnicode:Empire Of The Sun
Creator:GaronTheDivine
Version:Hard
Source:
Tags:
BeatmapID:523374
BeatmapSetID:224163

[Difficulty]
HPDrainRate:5
CircleSize:3
OverallDifficulty:5
ApproachRate:5
SliderMultiplier:1.4
SliderTickRate:1

[Events]
//Background and Video events
0,0,"474462.jpg",0,0
//Break Periods
2,116352,121782
2,214890,217148
//Storyboard Layer 0 (Background)
//Storyboard Layer 1 (Fail)
//Storyboard Layer 2 (Pass)
//Storyboard Layer 3 (Foreground)
//Storyboard Sound Samples
//Background Colour Transformations
3,100,163,162,255

[TimingPoints]
56,487.80487804878,4,1,0,100,1,0

[Colours]
Combo1 : 255,192,0
Combo2 : 35,232,0
Combo3 : 79,158,255
Combo4 : 242,24,57

[HitObjects]
264,328,16641,5,0,0:0:0:0:
288,312,16885,1,0,0:0:0:0:
312,296,17129,1,0,0:0:0:0:
336,280,17373,1,0,0:0:0:0:
384,224,17860,2,0,L|256:144,3,140,0|0|0|0,0:0|0:0|0:0|0:0,0:0:0:0:
272,152,19568,1,4,0:0:0:0:
248,328,20543,1,0,0:0:0:0:
224,312,20787,1,0,0:0:0:0:
200,296,21031,1,0,0:0:0:0:
176,280,21275,1,0,0:0:0:0:
152,264,21519,1,0,0:0:0:0:
128,248,22007,2,0,B|496:248|288:120,1,350,0|0,0:0|0:0,0:0:0:0:
240,152,23470,1,4,0:0:0:0:
224,320,24202,1,0,0:0:0:0:
288,320,24446,1,4,0:0:0:0:
288,224,25177,1,0,0:0:0:0:
288,160,25421,1,4,0:0:0:0:
40,208,25909,1,0,0:0:0:0:
112,248,26397,1,4,0:0:0:0:
184,288,26885,1,0,0:0:0:0:
256,336,27373,6,2,P|304:344|336:256,1,140
344,192,28104,1,2,0:0:0:0:
344,128,28592,1,2,0:0:0:0:
344,48,29080,1,0,0:0:0:0:
256,40,29324,2,6,P|176:64|168:112,1,140
168,192,30055,1,2,0:0:0:0:
168,256,30543,1,6,0:0:0:0:
256,272,31031,1,0,0:0:0:0:
256,192,31275,5,4,0:0:0:0:
256,192,31763,1,4,0:0:0:0:
328,192,32251,1,4,0:0:0:0:
328,192,32738,1,4,0:0:0:0:
184,192,33226,1,4,0:0:0:0:
184,192,33714,1,4,0:0:0:0:
256,120,34202,1,4,0:0:0:0:
256,120,34690,1,4,0:0:0:0:
208,248,35178,1,4,0:0:0:0:
304,248,35665,1,4,0:0:0:0:
80,192,36153,1,4,0:0:0:0:
424,192,36641,1,4,0:0:0:0:
320,248,37129,1,4,0:0:0:0:
192,248,37616,1,4,0:0:0:0:
192,136,38104,1,4,0:0:0:0:
320,136,38592,1,4,0:0:0:0:
256,192,39080,6,0,L|256:48,3,140,0|0|0|0,0:0|0:0|0:0|0:0,0:0:0:0:
192,136,41031,2,0,L|344:168,1,140
256,208,42007,2,4,L|400:240,1,140,0|0,0:0|0:0,0:0:0:0:
480,192,42982,5,0,0:0:0:0:
424,144,43714,1,0,0:0:0:0:
424,240,44202,1,0,0:0:0:0:
360,192,44690,2,0,B|-96:328|312:32|344:32|248:200,1,490
256,288,46885,6,4,L|424:288,1,140
400,248,47616,1,0,0:0:0:0:
400,208,47860,2,0,L|400:64,1,140
360,64,48592,1,0,0:0:0:0:
328,64,48836,2,0,L|184:64,1,140
160,64,49568,1,0,0:0:0:0:
128,64,49812,2,0,L|128:208,1,140,0|0,0:0|0:0,0:0:0:0:
160,208,50543,1,0,0:0:0:0:
192,208,50787,2,4,L|248:344,1,140
280,336,51519,1,0,0:0:0:0:
320,336,51763,2,0,L|376:200,1,140
304,168,52495,1,0,0:0:0:0:
232,184,52738,6,0,P|80:208|96:112,1,280
160,152,54202,1,0,0:0:0:0:
224,104,54690,5,4,0:0:0:0:
224,104,54934,1,0,0:0:0:0:
224,104,55177,1,8,0:0:0:0:
80,104,55665,1,0,0:0:0:0:
80,104,55909,1,0,0:0:0:0:
80,104,56153,1,8,0:0:0:0:
152,200,56641,1,0,0:0:0:0:
152,200,56885,1,0,0:0:0:0:
152,200,57129,1,8,0:0:0:0:
256,232,57616,5,0,0:0:0:0:
312,208,57860,1,0,0:0:0:0:
360,168,58104,1,8,0:0:0:0:
400,120,58348,1,4,0:0:0:0:
440,64,58592,5,0,0:0:0:0:
440,64,58836,1,0,0:0:0:0:
440,64,59080,1,8,0:0:0:0:
432,192,59568,1,0,0:0:0:0:
432,192,59812,1,0,0:0:0:0:
432,192,60055,1,8,0:0:0:0:
440,288,60543,1,0,0:0:0:0:
440,288,60787,1,0,0:0:0:0:
440,288,61031,1,8,0:0:0:0:
344,304,61519,1,0,0:0:0:0:
344,304,61763,1,0,0:0:0:0:
344,304,62007,1,4,0:0:0:0:
288,224,62495,5,0,0:0:0:0:
288,160,62982,1,0,0:0:0:0:
224,224,63470,1,0,0:0:0:0:
224,160,63958,1,0,0:0:0:0:
288,224,64446,1,0,0:0:0:0:
288,160,64934,1,0,0:0:0:0:
224,224,65421,1,4,0:0:0:0:
224,160,65909,2,0,L|280:216,1,70
328,272,66397,5,4,0:0:0:0:
328,120,66885,1,0,0:0:0:0:
184,272,67373,1,0,0:0:0:0:
184,120,67860,1,0,0:0:0:0:
328,272,68348,1,0,0:0:0:0:
328,120,68836,1,0,0:0:0:0:
184,272,69324,1,0,0:0:0:0:
184,120,69812,2,0,L|240:176,1,70
368,312,70299,5,4,0:0:0:0:
368,80,70787,1,0,0:0:0:0:
144,312,71275,1,0,0:0:0:0:
144,80,71763,1,0,0:0:0:0:
368,312,72251,1,0,0:0:0:0:
368,80,72738,1,0,0:0:0:0:
144,312,73226,1,0,0:0:0:0:
144,192,73714,2,6,L|312:192,1,140
368,192,74690,5,0,0:0:0:0:
368,312,75177,1,4,0:0:0:0:
256,312,75665,1,4,0:0:0:0:
144,312,76153,1,0,0:0:0:0:
144,192,76641,1,0,0:0:0:0:
144,80,77129,1,0,0:0:0:0:
256,80,77616,1,0,0:0:0:0:
368,80,78104,1,4,0:0:0:0:
304,280,80055,5,0,0:0:0:0:
360,320,80543,1,0,0:0:0:0:
424,336,81031,1,0,0:0:0:0:
416,280,81275,1,0,0:0:0:0:
384,240,81519,1,0,0:0:0:0:
336,224,81763,1,0,0:0:0:0:
288,216,82007,1,0,0:0:0:0:
256,104,82495,5,0,0:0:0:0:
192,160,82982,5,0,0:0:0:0:
160,136,83226,1,0,0:0:0:0:
192,112,83470,1,0,0:0:0:0:
320,96,83958,5,0,0:0:0:0:
352,64,84202,1,0,0:0:0:0:
320,48,84446,1,0,0:0:0:0:
280,168,84934,6,0,L|240:168,2,35,0|0|0,0:0|0:0|0:0,0:0:0:0:
240,232,85421,2,0,L|280:232,2,35,0|0|0,0:0|0:0|0:0,0:0:0:0:
184,296,85909,1,0,0:0:0:0:
304,272,86885,5,0,0:0:0:0:
336,240,87129,1,0,0:0:0:0:
368,208,87373,1,0,0:0:0:0:
400,176,87616,2,0,P|472:152|480:88,1,140
352,88,89080,2,0,L|304:88,1,35
256,88,89446,1,0,0:0:0:0:
192,88,89690,2,0,L|152:88,1,35
384,224,91763,2,0,L|344:224,2,35,0|0|0,0:0|0:0|0:0,0:0:0:0:
288,160,92251,2,0,L|336:160,2,35,0|0|0,0:0|0:0|0:0,0:0:0:0:
184,232,92738,2,0,L|232:232,2,35,0|0|0,0:0|0:0|0:0,0:0:0:0:
128,160,93226,2,0,L|88:160,2,35,0|0|0,0:0|0:0|0:0,0:0:0:0:
40,128,93714,6,0,P|136:32|144:32,1,140,0|0,0:0|0:0,0:0:0:0:
184,64,94446,1,0,0:0:0:0:
160,128,94689,6,0,P|192:192|280:176,1,140
312,168,95421,1,0,0:0:0:0:
256,120,95665,6,0,P|376:80|400:64,1,140
440,128,96397,1,0,0:0:0:0:
408,200,96641,6,0,P|408:320|384:360,1,140
320,352,97372,1,0,0:0:0:0:
336,280,97616,6,0,P|280:208|224:224,1,140
176,224,98348,1,0,0:0:0:0:
200,280,98592,6,0,L|128:304|128:304,4,70,0|0|0|0|0,0:0|0:0|0:0|0:0|0:0,0:0:0:0:
272,128,100543,5,0,0:0:0:0:
216,152,100787,1,0,0:0:0:0:
200,208,101031,1,0,0:0:0:0:
216,264,101275,1,0,0:0:0:0:
256,192,101519,2,0,B|256:384|376:24|376:56,2,280,0|0|0,0:0|0:0|0:0,0:0:0:0:
240,248,104446,1,0,0:0:0:0:
296,232,104690,1,0,0:0:0:0:
312,176,104934,1,0,0:0:0:0:
288,128,105177,1,0,0:0:0:0:
256,192,105421,2,0,B|256:0|112:352|120:328,2,280,0|0|0,0:0|0:0|0:0,0:0:0:0:
40,208,108348,5,0,0:0:0:0:
72,192,108592,1,0,0:0:0:0:
40,168,108836,1,0,0:0:0:0:
72,152,109080,1,0,0:0:0:0:
64,80,109324,2,0,P|144:96|160:152,1,140
168,240,110055,5,0,0:0:0:0:
168,320,110299,2,0,P|232:288|232:216,1,140,0|0,0:0|0:0,0:0:0:0:
232,168,111031,5,0,0:0:0:0:
248,112,111275,2,0,P|304:56|368:64,1,140
344,152,112007,5,0,0:0:0:0:
344,240,112251,2,0,P|368:320|432:344,1,140
248,224,113226,1,0,0:0:0:0:
312,80,113714,6,0,P|256:160|288:40,1,350
248,96,115177,2,0,L|248:376,1,280
24,192,122982,5,0,0:0:0:0:
96,296,123470,1,0,0:0:0:0:
136,80,123958,1,0,0:0:0:0:
152,192,124202,1,0,0:0:0:0:
176,296,124446,1,0,0:0:0:0:
200,192,124690,1,0,0:0:0:0:
216,80,124934,1,4,0:0:0:0:
256,192,125909,5,0,0:0:0:0:
296,176,126153,1,0,0:0:0:0:
336,160,126397,1,0,0:0:0:0:
400,128,126641,2,0,L|288:224,1,140,0|0,0:0|0:0,0:0:0:0:
256,32,127616,5,0,0:0:0:0:
256,64,127860,1,2,0:0:0:0:
256,104,128104,1,8,0:0:0:0:
256,152,128348,1,2,0:0:0:0:
256,288,128836,1,4,0:0:0:0:
256,192,129812,5,0,0:0:0:0:
216,176,130056,1,0,0:0:0:0:
176,160,130300,1,0,0:0:0:0:
112,128,130543,2,0,L|218:220,4,140,0|0|0|0|0,0:0|0:0|0:0|0:0|0:0,0:0:0:0:
112,128,132738,1,4,0:0:0:0:
328,352,133714,6,0,B|-128:24|656:32|168:360,1,700,0|0,0:0|0:0,0:0:0:0:
256,192,136641,12,0,139568,0:0:0:0:
240,352,140543,5,0,0:0:0:0:
272,336,140787,1,0,0:0:0:0:
240,320,141031,1,0,0:0:0:0:
272,304,141275,1,0,0:0:0:0:
240,288,141519,1,0,0:0:0:0:
272,272,141763,1,0,0:0:0:0:
240,256,142007,1,0,0:0:0:0:
272,240,142251,1,0,0:0:0:0:
240,224,142494,1,0,0:0:0:0:
272,208,142738,1,0,0:0:0:0:
240,192,142982,1,0,0:0:0:0:
272,176,143226,1,0,0:0:0:0:
240,160,143470,1,0,0:0:0:0:
272,144,143714,1,0,0:0:0:0:
240,128,143958,1,0,0:0:0:0:
272,112,144202,1,0,0:0:0:0:
304,104,144446,1,0,0:0:0:0:
336,128,144690,1,0,0:0:0:0:
360,160,144933,1,0,0:0:0:0:
368,192,145177,1,0,0:0:0:0:
368,224,145421,1,0,0:0:0:0:
360,256,145665,1,0,0:0:0:0:
344,280,145909,1,0,0:0:0:0:
320,296,146153,1,0,0:0:0:0:
288,296,146397,1,0,0:0:0:0:
264,280,146641,1,0,0:0:0:0:
256,248,146885,1,0,0:0:0:0:
264,224,147129,1,0,0:0:0:0:
288,208,147372,1,0,0:0:0:0:
320,208,147616,1,0,0:0:0:0:
344,208,147860,1,0,0:0:0:0:
368,208,148104,1,0,0:0:0:0:
392,200,148348,1,0,0:0:0:0:
408,184,148592,1,0,0:0:0:0:
416,160,148836,1,0,0:0:0:0:
408,136,149080,1,0,0:0:0:0:
392,112,149324,1,0,0:0:0:0:
368,96,149568,1,0,0:0:0:0:
344,88,149811,1,0,0:0:0:0:
320,80,150055,1,0,0:0:0:0:
296,80,150299,1,0,0:0:0:0:
312,256,152007,5,0,0:0:0:0:
312,256,152251,1,0,0:0:0:0:
328,192,152982,1,0,0:0:0:0:
328,192,153226,1,0,0:0:0:0:
424,192,153958,1,0,0:0:0:0:
424,192,154202,1,0,0:0:0:0:
432,280,154934,1,0,0:0:0:0:
432,280,155177,1,0,0:0:0:0:
344,184,155665,1,4,0:0:0:0:
376,112,156153,5,0,0:0:0:0:
432,232,156641,1,0,0:0:0:0:
432,112,157129,1,0,0:0:0:0:
320,208,157616,1,0,0:0:0:0:
336,120,158104,1,0,0:0:0:0:
408,224,158592,1,0,0:0:0:0:
480,88,159080,1,0,0:0:0:0:
248,248,159568,1,0,0:0:0:0:
128,88,160055,1,0,0:0:0:0:
80,280,160543,1,0,0:0:0:0:
344,136,161031,1,0,0:0:0:0:
352,320,161519,1,0,0:0:0:0:
192,136,162007,1,0,0:0:0:0:
176,288,162495,1,0,0:0:0:0:
304,160,162982,1,0,0:0:0:0:
400,248,163470,1,0,0:0:0:0:
376,40,163958,1,0,0:0:0:0:
208,176,164446,1,0,0:0:0:0:
160,296,164934,1,0,0:0:0:0:
424,144,165421,1,0,0:0:0:0:
352,64,165909,1,0,0:0:0:0:
336,88,166153,1,0,0:0:0:0:
320,112,166397,1,0,0:0:0:0:
304,136,166641,1,0,0:0:0:0:
288,160,166885,1,0,0:0:0:0:
272,184,167129,1,0,0:0:0:0:
256,208,167373,1,0,0:0:0:0:
240,232,167616,1,0,0:0:0:0:
224,256,167860,1,0,0:0:0:0:
208,280,168104,1,0,0:0:0:0:
136,168,168348,1,0,0:0:0:0:
224,192,169812,5,0,0:0:0:0:
288,192,170299,1,0,0:0:0:0:
256,192,170787,2,0,L|256:48|256:64,1,140
256,264,171763,5,4,0:0:0:0:
192,96,172250,1,0,0:0:0:0:
80,192,172739,1,0,0:0:0:0:
344,200,173226,1,0,0:0:0:0:
256,304,173714,1,0,0:0:0:0:
232,144,174201,1,0,0:0:0:0:
112,264,174690,1,0,0:0:0:0:
176,64,175177,1,0,0:0:0:0:
392,208,175666,1,0,0:0:0:0:
192,192,176153,1,0,0:0:0:0:
368,104,176641,1,0,0:0:0:0:
272,296,177129,1,0,0:0:0:0:
272,128,177617,1,0,0:0:0:0:
384,216,178105,1,0,0:0:0:0:
184,272,178592,1,0,0:0:0:0:
184,128,179080,1,0,0:0:0:0:
304,248,179568,1,0,0:0:0:0:
368,120,180056,1,0,0:0:0:0:
272,328,180544,1,0,0:0:0:0:
112,96,181031,1,4,0:0:0:0:
200,56,181519,1,0,0:0:0:0:
216,80,181763,1,0,0:0:0:0:
232,104,182007,1,0,0:0:0:0:
248,128,182251,1,0,0:0:0:0:
264,152,182495,1,0,0:0:0:0:
280,176,182739,1,0,0:0:0:0:
296,200,182983,1,0,0:0:0:0:
312,224,183226,1,0,0:0:0:0:
328,248,183470,1,0,0:0:0:0:
344,272,183714,1,0,0:0:0:0:
416,160,183958,1,0,0:0:0:0:
160,320,187373,6,0,P|456:120|408:344,1,840
384,296,190543,1,0,0:0:0:0:
344,264,190787,1,0,0:0:0:0:
304,232,191031,1,0,0:0:0:0:
352,56,191275,6,0,P|56:256|104:32,1,840
160,72,194445,1,0,0:0:0:0:
200,104,194689,1,0,0:0:0:0:
240,136,194933,1,0,0:0:0:0:
280,168,195177,1,4,0:0:0:0:
80,256,195665,5,0,0:0:0:0:
272,240,196153,1,0,0:0:0:0:
352,176,196641,1,0,0:0:0:0:
288,120,197129,1,0,0:0:0:0:
208,88,197616,1,0,0:0:0:0:
208,168,198104,1,0,0:0:0:0:
296,216,198592,1,0,0:0:0:0:
368,136,199080,1,0,0:0:0:0:
408,216,199568,1,0,0:0:0:0:
352,280,200055,1,0,0:0:0:0:
256,312,200543,1,0,0:0:0:0:
112,176,201031,1,0,0:0:0:0:
136,208,201275,1,0,0:0:0:0:
160,176,201519,1,8,0:0:0:0:
184,208,201763,1,0,0:0:0:0:
208,176,202007,1,0,0:0:0:0:
232,208,202251,1,0,0:0:0:0:
256,176,202495,1,8,0:0:0:0:
280,208,202738,1,0,0:0:0:0:
304,176,202982,2,0,B|488:360|480:48|232:40,1,420,0|0,0:0|0:0,0:0:0:0:
192,40,204934,2,0,B|8:144|96:336|280:296,1,420
376,344,206885,2,0,P|384:80|128:328,1,840,0|0,0:0|0:0,0:0:0:0:
256,192,210299,5,0,0:0:0:0:
256,192,210787,12,4,214690,0:0:0:0:
96,192,218348,22,0,L|168:240,1,70
208,272,219080,1,0,0:0:0:0:
328,272,219568,1,0,0:0:0:0:
360,176,220055,1,0,0:0:0:0:
312,168,220299,1,0,0:0:0:0:
264,160,220543,1,0,0:0:0:0:
216,152,220787,1,0,0:0:0:0:
168,144,221031,1,0,0:0:0:0:
88,128,221519,1,0,0:0:0:0:
96,168,221763,1,0,0:0:0:0:
120,200,222007,1,0,0:0:0:0:
152,224,222251,1,0,0:0:0:0:
184,240,222494,1,0,0:0:0:0:
224,248,222738,1,0,0:0:0:0:
264,248,222982,2,4,L|384:152,4,140,0|0|0|0|0,0:0|0:0|0:0|0:0|0:0,0:0:0:0:
192,272,225421,5,0,0:0:0:0:
232,248,225665,1,0,0:0:0:0:
192,224,225909,1,0,0:0:0:0:
232,200,226153,1,0,0:0:0:0:
192,176,226397,1,0,0:0:0:0:
232,152,226641,1,0,0:0:0:0:
192,128,226885,1,4,0:0:0:0:
192,80,228348,6,0,P|304:128|240:264,1,280,0|0,0:0|0:0,0:0:0:0:
208,272,229568,1,0,0:0:0:0:
176,264,229812,1,0,0:0:0:0:
152,248,230055,1,0,0:0:0:0:
136,224,230299,1,0,0:0:0:0:
128,192,230543,1,0,0:0:0:0:
136,160,230787,1,0,0:0:0:0:
256,184,232251,5,0,0:0:0:0:
256,72,232738,1,4,0:0:0:0:
184,128,233226,2,10,L|328:128,1,140
472,128,234202,6,0,P|376:32|368:32,1,140,0|0,0:0|0:0,0:0:0:0:
328,64,234934,1,0,0:0:0:0:
352,128,235177,6,0,P|320:192|232:176,1,140
200,168,235909,1,0,0:0:0:0:
256,120,236153,6,0,P|136:80|112:64,1,140
328,48,237128,5,0,0:0:0:0:
368,64,237373,1,0,0:0:0:0:
408,88,237617,2,0,L|408:160,1,70,0|0,0:0|0:0,0:0:0:0:
312,136,238104,5,0,0:0:0:0:
272,152,238348,1,0,0:0:0:0:
232,168,238592,2,0,P|160:112|96:136,2,140,0|0|0,0:0|0:0|0:0,0:0:0:0:
152,192,240055,2,0,L|248:304,3,140,0|0|0|0,0:0|0:0|0:0|0:0,0:0:0:0:
400,296,242007,5,0,0:0:0:0:
376,152,242495,1,0,0:0:0:0:
224,96,242982,1,0,0:0:0:0:
112,256,243470,1,0,0:0:0:0:
312,288,243958,6,0,L|248:288,4,35,0|0|0|0|0,0:0|0:0|0:0|0:0|0:0,0:0:0:0:
200,216,244934,2,0,L|248:216,4,35,0|0|0|0|0,0:0|0:0|0:0|0:0|0:0,0:0:0:0:
256,192,245909,12,4,248836,0:0:0:0:
40,256,249812,6,0,P|136:352|144:352,1,140,0|0,0:0|0:0,0:0:0:0:
184,320,250544,1,0,0:0:0:0:
160,256,250787,6,0,P|192:192|280:208,1,140
312,216,251519,1,0,0:0:0:0:
256,264,251763,6,0,P|376:304|400:320,1,140
440,256,252495,1,0,0:0:0:0:
408,184,252739,6,0,P|408:64|384:24,1,140
320,40,253470,1,0,0:0:0:0:
336,104,253714,6,0,P|280:176|224:160,1,140
176,160,254446,1,0,0:0:0:0:
200,104,254690,6,0,L|128:80|128:80,4,70,0|0|0|0|0,0:0|0:0|0:0|0:0|0:0,0:0:0:0:
256,192,256641,5,4,0:0:0:0:
