osu file format v12

[General]
AudioFilename: eight.mp3
AudioLeadIn: 0
PreviewTime: 52230
Countdown: 0
SampleSet: Normal
StackLeniency: 0.4
Mode: 0
LetterboxInBreaks: 1
WidescreenStoryboard: 0

[Editor]
Bookmarks: 166386
DistanceSpacing: 1
BeatDivisor: 4
GridSize: 8
TimelineZoom: 5.199997

[Metadata]
Title:eight
TitleUnicode:eight
Artist:Emotional Joystick
ArtistUnicode:Emotional Joystick
Creator:rawrjau
Version:Drum
Source:
Tags:
BeatmapID:134503
BeatmapSetID:42807

[Difficulty]
HPDrainRate:6
CircleSize:4
OverallDifficulty:7
ApproachRate:8
SliderMultiplier:0.800000005960464
SliderTickRate:1

[Events]
//Background and Video events
0,0,"BG.jpg",0,0
//Break Periods
2,62850,71276
2,114743,116195
2,130310,133222
//Storyboard Layer 0 (Background)
//Storyboard Layer 1 (Fail)
//Storyboard Layer 2 (Pass)
//Storyboard Layer 3 (Foreground)
//Storyboard Sound Samples
//Background Colour Transformations
3,100,0,0,0

[TimingPoints]
381,324.324324324324,4,2,0,100,1,0
10759,-100,4,2,0,12,0,0
11083,-100,4,2,0,10,0,0
11408,-100,4,2,0,8,0,0
11732,-100,4,2,0,6,0,0
12056,-100,4,2,0,20,0,0
12380,-100,4,2,0,16,0,0
12705,-100,4,2,0,12,0,0
13029,-100,4,2,0,8,0,0
13353,-100,4,2,0,40,0,0
13678,-100,4,2,0,35,0,0
14002,-100,4,2,0,30,0,0
14326,-100,4,2,0,25,0,0
14651,-100,4,2,0,60,0,0
14975,-100,4,2,0,52,0,0
15299,-100,4,2,0,44,0,0
15624,-100,4,2,0,36,0,0
15948,-100,4,2,0,70,0,0
16272,-100,4,2,0,72,0,0
16597,-100,4,2,0,74,0,0
16921,-100,4,2,0,76,0,0
17245,-100,4,2,0,78,0,0
17570,-100,4,2,0,80,0,0
17894,-100,4,2,0,82,0,0
18218,-100,4,2,0,84,0,0
18543,-100,4,2,0,86,0,0
18867,-100,4,2,0,88,0,0
19191,-100,4,2,0,90,0,0
19516,-100,4,2,0,92,0,0
19840,-100,4,2,0,94,0,0
20164,-100,4,2,0,96,0,0
20489,-100,4,2,0,98,0,0
20813,-100,4,2,0,100,0,0
31516,-100,4,2,0,80,0,0
34435,-100,4,2,0,10,0,0
34759,-100,4,2,0,100,0,0
35408,-100,4,2,0,10,0,0
35732,-100,4,2,0,100,0,0
36705,-100,4,2,0,90,0,0
37029,-100,4,2,0,30,0,0
37353,-100,4,2,0,60,0,0
37678,-100,4,2,0,90,0,0
41894,-100,4,2,0,100,0,0
44813,-100,4,2,0,10,0,0
45137,-100,4,2,0,100,0,0
45786,-100,4,2,0,10,0,0
46435,-100,4,2,0,100,0,0
47408,-100,4,2,0,10,0,0
48705,-100,4,2,0,100,0,0
49759,-100,4,2,0,10,0,0
52270,-100,4,1,0,100,0,0
52759,-100,4,1,0,50,0,0
52921,-100,4,1,0,100,0,0
54867,-100,4,1,0,50,0,0
55516,-100,4,1,0,100,0,0
57462,-100,4,1,0,50,0,0
58110,-100,4,1,0,100,0,0
60056,-100,4,1,0,50,0,0
60543,-100,4,1,0,100,0,0
61029,-55.5555555555556,4,1,0,100,0,0
61353,-100,4,1,0,20,0,0
62001,-166.666666666667,4,1,0,100,0,0
62326,-100,4,1,0,20,0,0
62408,-100,4,1,0,100,0,0
72380,-100,4,2,0,60,0,0
72705,-100,4,2,0,80,0,0
73029,-100,4,1,0,100,0,0
75299,-55.5555555555556,4,1,0,40,0,0
75624,-55.5555555555556,4,2,0,40,0,0
75867,-55.5555555555556,4,2,0,100,0,0
76921,-166.666666666667,4,2,0,10,0,0
78218,-166.666666666667,4,1,0,100,0,0
79516,-55.5555555555556,4,2,0,80,0,0
82111,-100,4,1,0,5,0,0
82150,-166.666666666667,4,2,0,8,0,0
82191,-100,4,2,0,11,0,0
82231,-100,4,2,0,14,0,0
82272,-100,4,2,0,17,0,0
82312,-100,4,2,0,20,0,0
82353,-100,4,2,0,23,0,0
82393,-100,4,2,0,26,0,0
82434,-100,4,2,0,29,0,0
82475,-100,4,2,0,33,0,0
82515,-100,4,2,0,37,0,0
82556,-100,4,2,0,41,0,0
82596,-100,4,2,0,44,0,0
82635,-100,4,2,0,50,0,0
82677,-100,4,2,0,56,0,0
82718,-100,4,2,0,59,0,0
82758,-100,4,2,0,61,0,0
82799,-100,4,2,0,64,0,0
82839,-100,4,2,0,66,0,0
82880,-100,4,2,0,68,0,0
82920,-100,4,2,0,71,0,0
82961,-100,4,2,0,73,0,0
83002,-100,4,2,0,75,0,0
83042,-100,4,2,0,77,0,0
83083,-100,4,2,0,80,0,0
83123,-100,4,2,0,83,0,0
83164,-100,4,2,0,85,0,0
83204,-100,4,2,0,88,0,0
83245,-100,4,2,0,90,0,0
83285,-100,4,2,0,93,0,0
83326,-100,4,2,0,95,0,0
83366,-100,4,2,0,98,0,0
83408,-100,4,1,0,100,0,0
83732,-55.5555555555556,4,1,0,45,0,0
89408,-166.666666666667,4,1,0,30,0,0
89895,-55.5555555555556,4,1,0,45,0,0
92651,-55.5555555555556,4,1,0,20,0,0
92975,-100,4,1,0,80,0,0
93462,-100,4,1,0,30,0,0
93624,-100,4,1,0,60,0,0
93786,-55.5555555555556,4,1,0,90,0,0
96056,-55.5555555555556,4,1,0,50,0,0
96705,-55.5555555555556,4,1,0,100,0,0
98813,-100,4,2,0,55,0,0
99299,-55.5555555555556,4,1,0,75,0,0
102056,-55.5555555555556,4,1,0,45,0,0
103191,-55.5555555555556,4,1,0,50,0,0
104002,-55.5555555555556,4,2,0,40,0,0
104489,-55.5555555555556,4,1,0,40,0,0
107083,-55.5555555555556,4,1,0,70,0,0
108705,-55.5555555555556,4,2,0,70,0,0
109353,-55.5555555555556,4,1,0,70,0,0
109678,-55.5555555555556,4,1,0,20,0,0
109840,-55.5555555555556,4,1,0,70,0,0
111624,-55.5555555555556,4,1,0,20,0,0
111948,-55.5555555555556,4,1,0,100,0,0
114543,-55.5555555555556,4,1,0,70,0,0
119840,-55.5555555555556,4,1,0,60,0,0
122326,-100,4,1,0,20,0,0
124921,-55.5555555555556,4,1,0,100,0,0
125245,-55.5555555555556,4,1,0,60,0,0
126056,-100,4,1,0,80,0,0
127840,-100,4,1,0,60,0,0
128002,-100,4,1,0,80,0,0
135299,-55.5555555555556,4,1,0,80,0,0
135624,-55.5555555555556,4,1,0,65,0,0
165137,-55.5555555555556,4,1,0,20,0,0
165462,-55.5555555555556,4,1,0,40,0,0
165786,-55.5555555555556,4,1,0,60,0,0
166110,-55.5555555555556,4,1,0,80,0,0
166435,-55.5555555555556,4,1,0,100,0,0

[Colours]
Combo1 : 64,0,128
Combo2 : 0,64,0
Combo3 : 0,0,128
Combo4 : 128,64,0

[HitObjects]
72,192,10759,6,0,L|128:128,1,80.0000005960464
184,80,11407,1,0,0:0:0:0:
264,56,11732,1,0,0:0:0:0:
436,195,12056,2,0,L|384:256,1,80.0000005960464,0|0,0:0|0:0,0:0:0:0:
328,304,12705,1,0,0:0:0:0:
248,328,13029,1,0,0:0:0:0:
256,80,13353,6,0,L|192:144,1,80.0000005960464
136,192,14002,1,0,0:0:0:0:
192,256,14326,1,0,0:0:0:0:
256,312,14651,1,0,0:0:0:0:
320,256,14975,1,0,0:0:0:0:
376,192,15299,2,0,L|320:136,1,80.0000005960464
128,192,15948,5,0,0:0:0:0:
208,256,16272,1,0,0:0:0:0:
304,256,16597,1,0,0:0:0:0:
368,192,16921,1,0,0:0:0:0:
256,192,17245,5,0,0:0:0:0:
208,256,17570,1,0,0:0:0:0:
256,328,17894,1,0,0:0:0:0:
304,256,18218,1,0,0:0:0:0:
320,128,18543,5,0,0:0:0:0:
320,256,18867,1,0,0:0:0:0:
192,256,19191,1,0,0:0:0:0:
192,128,19516,1,0,0:0:0:0:
256,64,19840,5,0,0:0:0:0:
384,192,20164,1,0,0:0:0:0:
256,320,20489,1,0,0:0:0:0:
128,192,20813,1,0,0:0:0:0:
200,128,21137,5,0,0:0:0:0:
224,216,21462,1,0,0:0:0:0:
304,264,21786,1,0,0:0:0:0:
288,96,22110,2,0,B|368:128|368:224,1,160.000001192093
288,256,23083,1,0,0:0:0:0:
208,160,23408,1,0,0:0:0:0:
288,80,23732,2,0,B|336:64|368:96,1,80.0000005960464
320,152,24380,2,0,B|272:168|240:136,1,80.0000005960464
176,64,25029,5,0,0:0:0:0:
352,64,25353,1,0,0:0:0:0:
384,192,25678,2,0,B|464:192,1,80.0000005960464
384,192,26326,2,0,B|384:272,1,80.0000005960464
384,192,26975,2,0,B|304:192,1,80.0000005960464
160,112,27624,1,0,0:0:0:0:
352,112,28110,1,0,0:0:0:0:
256,272,28597,1,0,0:0:0:0:
128,192,28921,6,0,B|48:144,1,80.0000005960464
128,192,29570,2,0,B|96:112,1,80.0000005960464
128,192,30218,2,0,B|160:112,1,80.0000005960464
128,192,30867,2,0,B|208:144,1,80.0000005960464
352,192,31516,1,0,0:0:0:0:
352,192,31840,1,0,0:0:0:0:
256,256,32164,1,0,0:0:0:0:
352,320,32489,1,0,0:0:0:0:
176,104,33137,5,0,0:0:0:0:
96,192,33462,1,0,0:0:0:0:
176,288,33786,1,0,0:0:0:0:
224,208,34110,2,0,B|328:208|336:312,1,160.000001192093
432,208,35083,2,0,B|328:208|320:104,1,160.000001192093
256,40,36380,1,0,0:0:0:0:
224,224,36705,2,0,B|192:160|192:160|288:160|288:160|320:224|320:224|240:224,1,320.000002384186
336,288,38326,5,0,0:0:0:0:
256,160,38651,1,0,0:0:0:0:
96,160,38975,1,0,0:0:0:0:
336,224,39299,2,0,B|224:256|224:256|176:144,1,240.000001788139
144,64,40597,1,0,0:0:0:0:
324,116,40921,2,0,B|256:144|256:144|224:64,1,160.000001192093
416,128,41894,5,4,0:0:0:0:
384,208,42218,2,0,P|352:256|320:272,1,80.0000005960464
256,288,42867,1,0,0:0:0:0:
152,280,43191,2,0,P|192:240|224:224,1,80.0000005960464,4|0,0:0|0:0,0:0:0:0:
288,200,43840,1,0,0:0:0:0:
344,128,44164,1,0,0:0:0:0:
64,128,44489,6,0,B|128:48|208:80,1,160.000001192093,4|0,0:0|0:0,0:0:0:0:
288,80,45462,2,0,B|240:176|160:144|160:144|96:192,1,240.000001788139,0|0,0:0|0:0,0:0:0:0:
400,56,47083,2,0,B|344:112|344:112|400:168|400:168|344:232|344:232|408:280|408:280|352:344,1,400.000002980232
256,304,49029,1,0,0:0:0:0:
256,96,49353,1,0,0:0:0:0:
256,320,49678,2,0,B|168:280|152:216|264:200|352:144|344:80|296:56|256:40|216:56|160:88|144:144|248:200|368:216|352:280|256:320,1,640.000004768371
144,144,52759,5,0,0:0:0:0:
144,240,52921,1,0,0:0:0:0:
304,192,53408,2,0,B|272:192,2,20.0000001490116
240,256,53732,1,0,0:0:0:0:
368,256,53894,1,0,0:0:0:0:
368,128,54056,1,0,0:0:0:0:
240,128,54218,1,0,0:0:0:0:
144,192,54543,5,4,0:0:0:0:
64,192,54867,2,0,B|64:112|144:112,1,120.00000089407
224,112,55516,2,0,B|224:192,1,80.0000005960464
224,288,56002,5,0,0:0:0:0:
224,288,56083,1,0,0:0:0:0:
224,288,56164,1,0,0:0:0:0:
336,288,56326,1,0,0:0:0:0:
400,224,56489,1,0,0:0:0:0:
336,160,56651,1,0,0:0:0:0:
400,96,56813,1,0,0:0:0:0:
336,32,57137,5,4,0:0:0:0:
192,32,57462,1,4,0:0:0:0:
256,224,57948,1,0,0:0:0:0:
240,240,58110,2,0,B|168:296,1,80.0000005960464
272,240,58597,5,0,0:0:0:0:
288,256,58678,1,0,0:0:0:0:
304,272,58759,1,0,0:0:0:0:
384,272,58921,1,0,0:0:0:0:
320,176,59083,1,0,0:0:0:0:
192,176,59245,1,0,0:0:0:0:
128,272,59408,1,0,0:0:0:0:
256,176,59732,6,4,B|224:160|288:144|224:112,2,80.0000005960464
160,112,60543,1,0,0:0:0:0:
320,112,60705,1,0,0:0:0:0:
392,280,61029,6,0,B|288:280,1,71.9999971032144
288,224,61353,2,0,B|368:224,1,80.0000005960464
352,176,62002,2,0,B|248:176,1,96.0000030040741
256,192,72218,12,4,73029,0:0:0:0:
192,224,73516,5,0,0:0:0:0:
192,160,73678,1,0,0:0:0:0:
320,160,74164,1,0,0:0:0:0:
320,192,74245,1,0,0:0:0:0:
320,224,74326,1,0,0:0:0:0:
256,96,74489,1,0,0:0:0:0:
256,192,74651,1,0,0:0:0:0:
256,288,74813,1,0,0:0:0:0:
256,192,74975,1,0,0:0:0:0:
160,216,75299,2,0,B|128:200|128:200|144:192|144:192|128:184|128:184|144:176|144:176|128:168|128:168|160:152,1,143.999996678352
288,192,75867,2,0,B|240:192,1,35.9999985516072
368,192,76272,1,0,0:0:0:0:
440,176,76435,2,0,B|440:224,2,35.9999985516072
440,304,76921,2,4,B|424:304|424:304|400:336|400:336|352:264|352:264|336:304|336:304|320:304,1,192.000006008148
248,304,78705,5,0,0:0:0:0:
160,272,78867,2,0,B|160:216|224:216,1,96.0000030040741
328,192,79840,1,0,0:0:0:0:
248,112,80164,1,0,0:0:0:0:
168,192,80570,2,0,B|120:192,3,35.9999985516072
40,160,81056,1,0,0:0:0:0:
40,160,81137,1,0,0:0:0:0:
40,40,81462,5,0,0:0:0:0:
144,96,81624,1,0,0:0:0:0:
144,96,81705,1,0,0:0:0:0:
144,96,81786,1,0,0:0:0:0:
256,192,82110,12,0,83408,0:0:0:0:
80,224,83732,6,0,L|24:160,1,71.9999983391762
160,192,84056,2,0,L|208:248,1,71.9999983391762
256,160,84380,1,0,0:0:0:0:
344,192,84543,2,0,L|297:246,1,71.9999983391762
408,144,84867,6,0,B|408:96,4,35.9999985516072
336,32,85353,2,0,B|256:32,1,71.9999971032144
176,32,85678,1,0,0:0:0:0:
96,96,85921,2,0,B|112:112,2,17.9999992758036
96,192,86326,5,8,0:0:0:0:
96,320,86489,1,8,0:0:0:0:
32,256,86651,1,8,0:0:0:0:
224,344,86813,1,0,0:0:0:0:
256,336,86894,2,0,L|296:336,1,35.9999991695881
256,304,87056,2,0,L|200:304,1,35.9999991695881
256,152,87299,1,0,0:0:0:0:
184,224,87462,5,0,0:0:0:0:
224,224,87543,1,0,0:0:0:0:
256,224,87624,1,0,0:0:0:0:
296,224,87705,1,0,0:0:0:0:
336,224,87786,1,0,0:0:0:0:
416,224,87948,1,8,0:0:0:0:
416,128,88110,1,8,0:0:0:0:
328,128,88272,2,0,L|272:128,1,35.9999991695881
256,128,88435,2,0,L|208:128,1,35.9999991695881
184,128,88597,1,0,0:0:0:0:
208,32,88921,5,0,0:0:0:0:
304,32,89083,1,0,0:0:0:0:
400,32,89408,2,0,B|408:32|408:32|400:40|400:40|408:40|408:40|400:48|400:48|408:48|408:48|400:56|400:56|408:56|408:56|408:64,1,71.9999983391762
400,128,90056,1,0,0:0:0:0:
400,224,90218,1,0,0:0:0:0:
400,320,90380,1,0,0:0:0:0:
304,320,90543,6,0,B|256:304,1,35.9999991695881
240,296,90705,2,0,B|192:280,1,35.9999985516072
144,232,90948,1,0,0:0:0:0:
24,232,91110,1,0,0:0:0:0:
56,232,91191,2,0,B|96:232|96:232|96:304|96:304|56:304,1,143.999996678352
96,192,91678,2,0,B|96:120,1,71.9999971032144
96,96,91921,1,0,0:0:0:0:
96,72,92002,1,0,0:0:0:0:
224,160,92164,1,0,0:0:0:0:
448,32,92489,1,0,0:0:0:0:
440,144,92651,2,0,B|456:144|456:144|448:152|448:152|456:160|456:160|448:168|448:168|456:176|456:176|440:176,1,71.9999983391762
288,128,92975,5,0,0:0:0:0:
224,256,93137,1,0,0:0:0:0:
312,136,93299,1,0,0:0:0:0:
200,248,93462,1,12,0:0:0:0:
320,160,93624,1,12,0:0:0:0:
192,224,93786,1,12,0:0:0:0:
192,136,93948,6,0,B|144:136,2,35.9999985516072
192,104,94191,2,0,B|156:104,2,35.9999985516072
192,72,94435,1,0,0:0:0:0:
144,208,94759,1,0,0:0:0:0:
144,208,94840,5,0,0:0:0:0:
144,208,94921,1,0,0:0:0:0:
224,208,95083,2,0,B|256:176|280:160|320:152|360:152|376:152,1,143.999994206429
432,152,95570,1,0,0:0:0:0:
472,224,95732,1,0,0:0:0:0:
432,296,95894,1,0,0:0:0:0:
328,288,96056,1,8,0:0:0:0:
296,304,96137,1,8,0:0:0:0:
264,320,96218,1,8,0:0:0:0:
232,336,96299,1,12,0:0:0:0:
200,352,96380,2,0,B|152:304|168:240|200:224,1,143.999994206429
240,152,96867,5,0,0:0:0:0:
240,72,97029,2,0,B|336:72|368:152,1,143.999994206429
368,208,97597,2,0,B|336:256,1,35.9999985516072
328,264,97759,2,0,B|296:296|296:288|296:280|296:272|280:296|248:336,1,107.999997508764
144,256,98164,5,0,0:0:0:0:
144,160,98326,1,0,0:0:0:0:
224,208,98489,1,0,0:0:0:0:
224,112,98651,1,0,0:0:0:0:
144,64,98813,1,8,0:0:0:0:
144,64,98894,1,8,0:0:0:0:
144,64,98975,1,12,0:0:0:0:
304,112,99299,5,0,0:0:0:0:
304,112,99462,2,0,B|352:128|368:160|352:192|304:208,1,143.999994206429
432,144,99948,2,0,B|432:208,2,35.9999985516072
432,32,100272,1,0,0:0:0:0:
432,144,100435,1,0,0:0:0:0:
432,256,100597,1,0,0:0:0:0:
432,256,100678,1,0,0:0:0:0:
432,256,100759,1,0,0:0:0:0:
304,256,100921,1,0,0:0:0:0:
368,192,101245,6,0,B|368:336,2,143.999994206429
336,144,102056,5,0,0:0:0:0:
256,96,102218,1,0,0:0:0:0:
176,144,102380,1,0,0:0:0:0:
256,192,102543,1,0,0:0:0:0:
176,240,102705,1,0,0:0:0:0:
256,288,102867,1,0,0:0:0:0:
336,240,103029,1,0,0:0:0:0:
416,224,103191,2,0,B|464:224,1,47.9999980688096
464,176,103408,2,0,L|400:176,1,47.9999988927841
416,128,103624,2,0,B|464:128,1,47.9999980688096
432,96,103840,1,4,0:0:0:0:
256,16,104002,2,0,B|248:24|248:24|264:24|264:24|248:32|248:32|264:32|264:32|248:40,1,71.9999983391762
112,192,104489,1,0,0:0:0:0:
176,288,104651,1,0,0:0:0:0:
240,192,104813,2,0,B|240:160|240:160|272:192|272:192|272:160,1,107.999995654822
272,160,105137,1,0,0:0:0:0:
208,64,105299,1,0,0:0:0:0:
336,64,105462,5,0,0:0:0:0:
208,64,105624,1,0,0:0:0:0:
336,64,105786,1,0,0:0:0:0:
208,64,105948,1,0,0:0:0:0:
96,64,106110,2,0,B|48:80|32:112,2,71.9999971032144
208,64,106597,6,8,B|256:64,2,35.9999985516072
208,168,107083,5,0,0:0:0:0:
304,216,107245,1,0,0:0:0:0:
224,144,107408,1,0,0:0:0:0:
288,240,107570,1,0,0:0:0:0:
256,128,107732,1,0,0:0:0:0:
256,248,107894,1,0,0:0:0:0:
288,144,108056,1,0,0:0:0:0:
224,240,108218,1,0,0:0:0:0:
304,168,108380,1,0,0:0:0:0:
208,216,108543,1,0,0:0:0:0:
312,192,108705,6,0,B|256:288|184:176,1,143.999996678352
56,96,109353,6,0,B|104:88|136:128|104:168|48:168,1,143.999994206429
176,96,109840,1,0,0:0:0:0:
192,112,109921,1,0,0:0:0:0:
208,128,110002,1,0,0:0:0:0:
200,144,110083,1,0,0:0:0:0:
184,160,110164,1,0,0:0:0:0:
256,232,110326,2,0,P|296:216|304:168,1,71.9999983391762
328,104,110651,2,0,B|288:128|288:128|224:48,1,143.999996678352
320,32,111137,1,0,0:0:0:0:
416,72,111299,1,0,0:0:0:0:
384,160,111462,1,0,0:0:0:0:
256,192,111624,6,4,B|264:208|264:208|280:208|280:208|264:224|264:224|272:240|272:240|256:232|256:232|240:240|240:240|248:224|248:224|232:208|232:208|240:208,1,143.999994206429
256,96,112110,1,4,0:0:0:0:
176,32,112272,1,4,0:0:0:0:
128,176,112516,2,0,B|128:224,2,35.9999985516072
128,256,112759,2,0,B|128:304,2,35.9999985516072
256,288,113083,1,0,0:0:0:0:
256,272,113164,1,0,0:0:0:0:
256,256,113245,1,0,0:0:0:0:
368,272,113408,5,0,0:0:0:0:
480,272,113570,1,0,0:0:0:0:
448,96,113894,2,0,B|448:112|448:128|424:152|408:152|400:152,1,71.9999983391762
400,32,114218,1,4,0:0:0:0:
368,48,114299,1,4,0:0:0:0:
336,80,114380,1,4,0:0:0:0:
320,112,114462,1,4,0:0:0:0:
320,144,114543,1,4,0:0:0:0:
384,304,117137,5,4,0:0:0:0:
384,160,117462,1,0,0:0:0:0:
304,80,117624,1,0,0:0:0:0:
288,80,117705,1,0,0:0:0:0:
272,80,117786,1,0,0:0:0:0:
256,80,117867,1,0,0:0:0:0:
240,80,117948,2,0,B|160:80,1,71.9999971032144
88,80,118353,6,0,B|40:80,1,35.9999985516072
56,256,118759,2,0,B|80:256|80:256|56:280|56:280|80:280|80:280|56:304|56:304|80:304|80:304,1,143.999996678352
160,240,119245,1,0,0:0:0:0:
208,320,119408,1,0,0:0:0:0:
304,320,119570,1,0,0:0:0:0:
400,240,119732,2,0,L|400:184,2,47.9999988927841
400,176,120056,1,0,0:0:0:0:
400,160,120164,2,0,L|400:112,2,47.9999988927841
304,32,120624,2,0,B|224:32,1,71.9999971032144
200,32,120867,2,0,B|184:32|184:32|176:40|176:40|176:48|176:48|184:56|184:56|176:64|176:64|168:64|168:64|160:64,1,71.9999983391762
144,192,121191,5,0,0:0:0:0:
208,272,121353,1,0,0:0:0:0:
304,272,121516,1,0,0:0:0:0:
368,192,121678,1,0,0:0:0:0:
304,112,121840,1,0,0:0:0:0:
208,112,122002,1,0,0:0:0:0:
256,192,122164,1,0,0:0:0:0:
230,301,122326,2,0,B|264:288|264:288|248:280|248:280|264:272|264:272|248:264|248:264|264:256|264:256|248:248|248:248|264:240|264:240|248:232|248:232|264:224|264:224|248:216|248:216|264:208|264:208|248:200|248:200|264:192|264:192|248:184|248:184|264:176|264:176|248:168|248:168|264:160|264:160|248:152|248:152|264:144|264:144|248:136|248:136|264:128|264:128|248:120|248:120|264:112|264:112|248:104|248:104|280:96,1,480.000003576278
256,192,124353,12,4,124921,0:0:0:0:
208,272,125245,5,0,0:0:0:0:
304,272,125570,1,0,0:0:0:0:
256,344,125894,1,0,0:0:0:0:
224,208,126056,1,0,0:0:0:0:
256,208,126137,1,0,0:0:0:0:
288,208,126218,1,0,0:0:0:0:
312,128,126380,2,0,L|368:128,1,40.0000002980232
208,128,126705,2,0,L|152:128,1,40.0000002980232
192,32,127191,1,0,0:0:0:0:
104,40,127516,2,0,B|64:40|64:40|64:80,1,80.0000005960464
72,152,128002,5,0,0:0:0:0:
72,232,128164,1,0,0:0:0:0:
152,192,128489,1,0,0:0:0:0:
224,272,128651,2,0,B|224:304,2,20.0000001490116
336,280,128975,1,0,0:0:0:0:
416,192,129137,1,0,0:0:0:0:
336,104,129299,1,0,0:0:0:0:
224,112,129462,1,4,0:0:0:0:
320,192,129786,2,4,B|224:192,1,80.0000005960464
256,192,134164,12,0,135299,0:0:0:0:
160,64,135624,5,0,0:0:0:0:
240,128,135786,2,0,B|320:128,1,71.9999971032144
384,208,136110,1,0,0:0:0:0:
464,288,136272,2,0,B|512:288,2,35.9999985516072
368,288,136597,6,0,B|288:288,1,71.9999971032144
256,288,136840,1,0,0:0:0:0:
208,288,136921,2,0,B|128:288,1,71.9999971032144
176,192,137245,1,0,0:0:0:0:
112,112,137408,1,0,0:0:0:0:
32,176,137570,2,0,B|48:208|48:208|104:208,1,71.9999971032144
168,32,138218,5,4,0:0:0:0:
216,112,138380,1,4,0:0:0:0:
168,192,138543,1,4,0:0:0:0:
112,112,138786,1,0,0:0:0:0:
136,112,138867,1,0,0:0:0:0:
160,112,138948,1,0,0:0:0:0:
192,112,139029,1,0,0:0:0:0:
272,184,139191,5,0,0:0:0:0:
400,184,139353,2,0,L|371:205,2,35.9999991695881
416,168,139597,1,0,0:0:0:0:
440,152,139678,1,0,0:0:0:0:
480,72,139840,2,0,B|480:32|480:32|432:32,1,71.9999971032144
352,32,140164,2,0,B|296:32,2,35.9999985516072
280,32,140408,1,0,0:0:0:0:
248,56,140489,2,0,B|200:88|200:136|264:176,1,143.999994206429
360,192,140975,2,0,L|400:216,1,35.9999991695881
400,256,141137,2,0,L|360:296,1,35.9999991695881
360,240,141299,2,0,B|344:248|344:248|336:240|336:240|328:248|328:248|320:240|320:240|312:248|312:248|304:240|304:240|296:248|296:248|288:240|288:240|280:248|280:248|272:240|272:240|264:248|264:248|256:240|256:240|248:248|248:248|240:240|240:240|232:248|232:248|224:240|224:240|216:248|216:248|208:240|208:240|200:248,1,215.999995017529
88,256,141948,5,0,0:0:0:0:
144,336,142110,1,0,0:0:0:0:
240,352,142272,1,0,0:0:0:0:
344,344,142435,2,0,B|344:296,1,35.9999985516072
344,264,142597,2,0,B|344:216,1,35.9999985516072
344,184,142759,1,0,0:0:0:0:
344,96,142921,1,0,0:0:0:0:
440,96,143083,1,4,0:0:0:0:
168,136,143408,5,0,0:0:0:0:
164,48,143570,2,0,B|128:48,2,35.9999985516072
192,48,143813,2,0,B|240:48,1,35.9999991695881
168,136,144056,1,0,0:0:0:0:
192,208,144299,1,0,0:0:0:0:
168,240,144381,1,0,0:0:0:0:
168,280,144462,2,0,B|152:280|152:280|152:264|152:264|136:264|136:264|136:280|136:280|120:280|120:280|120:264|120:264|104:264,1,107.999995654822
64,192,144867,5,0,0:0:0:0:
32,280,145029,1,0,0:0:0:0:
104,344,145191,2,0,B|152:376,1,35.9999985516072
176,376,145353,1,0,0:0:0:0:
216,376,145435,2,0,B|256:376,2,35.9999985516072
280,376,145678,1,0,0:0:0:0:
392,344,146002,6,0,B|384:256|288:216,1,143.999994206429
232,224,146570,2,0,B|192:224,1,35.9999985516072
120,256,146813,2,0,B|120:328,1,71.9999971032144
120,232,147137,2,0,B|120:152,1,71.9999971032144
120,120,147462,2,0,B|120:40,1,71.9999971032144
160,48,147705,1,0,0:0:0:0:
200,48,147786,2,0,B|240:48,2,35.9999985516072
320,80,148110,5,0,0:0:0:0:
320,112,148191,1,0,0:0:0:0:
320,144,148272,2,0,B|240:144|240:144|240:216,1,143.999994206429
240,288,148759,2,0,B|152:288|152:168,1,143.999994206429
152,80,149245,2,0,B|152:128,2,35.9999985516072
152,64,149489,1,0,0:0:0:0:
152,48,149570,1,0,0:0:0:0:
256,48,149732,1,0,0:0:0:0:
200,120,149894,1,0,0:0:0:0:
256,192,150056,1,0,0:0:0:0:
312,120,150218,2,0,P|360:56|408:120,1,179.99999584794
352,224,150867,5,0,0:0:0:0:
352,312,151191,1,0,0:0:0:0:
256,312,151353,1,0,0:0:0:0:
256,304,151435,1,0,0:0:0:0:
256,296,151516,1,0,0:0:0:0:
256,288,151597,1,0,0:0:0:0:
256,280,151678,1,0,0:0:0:0:
80,248,151840,6,0,B|160:248,1,71.9999971032144
152,248,152164,1,0,0:0:0:0:
80,192,152326,2,0,B|160:192,1,71.9999971032144
152,192,152651,1,0,0:0:0:0:
80,128,152813,2,0,B|168:128,1,71.9999971032144
152,128,153137,1,0,0:0:0:0:
216,168,153299,2,0,B|224:176|224:176|216:184|216:184|224:192|224:192|216:200|216:200|224:208|216:216,1,62.9999985467792
312,192,153624,5,0,0:0:0:0:
400,192,153786,1,0,0:0:0:0:
360,80,154110,1,0,0:0:0:0:
360,176,154353,1,0,0:0:0:0:
360,264,154678,2,0,B|360:304,1,35.9999985516072
272,328,154921,1,0,0:0:0:0:
360,384,155083,1,0,0:0:0:0:
448,328,155245,1,0,0:0:0:0:
448,328,155326,1,0,0:0:0:0:
448,328,155408,1,0,0:0:0:0:
448,232,155570,1,0,0:0:0:0:
360,176,155732,1,0,0:0:0:0:
272,224,155894,2,0,B|240:248,1,35.9999985516072
216,264,156056,6,0,B|136:216|96:296,1,143.999994206429
168,328,156543,1,0,0:0:0:0:
168,328,156624,1,0,0:0:0:0:
168,328,156705,2,0,B|192:368,2,35.9999985516072
32,352,157029,1,0,0:0:0:0:
32,232,157272,2,0,B|32:184,1,35.9999985516072
120,88,157678,5,0,0:0:0:0:
40,40,157840,1,0,0:0:0:0:
40,136,158002,1,0,0:0:0:0:
120,192,158164,1,0,0:0:0:0:
168,280,158326,1,0,0:0:0:0:
208,192,158651,2,0,B|248:64|296:224,1,143.999994206429
408,200,159137,2,0,B|376:224,2,35.9999991695881
352,240,159381,2,0,B|320:264,1,35.9999985516072
300,280,159624,1,0,0:0:0:0:
352,336,159867,5,0,0:0:0:0:
432,336,159948,2,0,B|512:336|512:336|512:248,1,143.999994206429
512,192,160435,1,0,0:0:0:0:
512,160,160516,2,0,B|512:112,2,35.9999985516072
512,96,160759,2,0,B|464:40|424:0|376:40|320:104,1,215.999991309643
424,192,161570,5,0,0:0:0:0:
424,32,161894,1,0,0:0:0:0:
312,104,162218,1,4,0:0:0:0:
248,192,162381,1,0,0:0:0:0:
248,192,162462,1,0,0:0:0:0:
248,192,162543,1,0,0:0:0:0:
248,272,162705,2,0,L|248:312|208:312,1,71.9999983391762
88,320,163110,5,0,0:0:0:0:
48,312,163191,1,0,0:0:0:0:
32,280,163272,1,0,0:0:0:0:
32,248,163353,1,0,0:0:0:0:
80,176,163516,1,0,0:0:0:0:
160,96,163840,1,0,0:0:0:0:
264,56,164164,5,0,0:0:0:0:
256,192,164326,12,0,165056,0:0:0:0:
256,192,165137,12,0,166435,0:0:0:0:
