osu file format v12

[General]
AudioFilename: eight.mp3
AudioLeadIn: 0
PreviewTime: 52230
Countdown: 0
SampleSet: Normal
StackLeniency: 0.8
Mode: 0
LetterboxInBreaks: 1
WidescreenStoryboard: 0

[Editor]
Bookmarks: 166386
DistanceSpacing: 1.4
BeatDivisor: 4
GridSize: 8
TimelineZoom: 6.399996

[Metadata]
Title:eight
TitleUnicode:eight
Artist:Emotional Joystick
ArtistUnicode:Emotional Joystick
Creator:rawrjau
Version:Drum N Bass
Source:
Tags:
BeatmapID:134502
BeatmapSetID:42807

[Difficulty]
HPDrainRate:8
CircleSize:4
OverallDifficulty:8
ApproachRate:9
SliderMultiplier:0.800000005960464
SliderTickRate:1

[Events]
//Background and Video events
0,0,"BG.jpg",0,0
//Break Periods
2,62850,67198
//Storyboard Layer 0 (Background)
//Storyboard Layer 1 (Fail)
//Storyboard Layer 2 (Pass)
//Storyboard Layer 3 (Foreground)
//Storyboard Sound Samples
//Background Colour Transformations
3,100,163,162,255

[TimingPoints]
381,324.324324324324,4,2,0,12,1,0
11083,-100,4,2,0,10,0,0
11408,-100,4,2,0,8,0,0
11732,-100,4,2,0,6,0,0
12056,-100,4,2,0,20,0,0
12380,-100,4,2,0,16,0,0
12705,-100,4,2,0,12,0,0
13029,-100,4,2,0,8,0,0
13353,-100,4,2,0,40,0,0
13678,-100,4,2,0,35,0,0
14002,-100,4,2,0,30,0,0
14326,-100,4,2,0,25,0,0
14651,-100,4,2,0,60,0,0
14975,-100,4,2,0,52,0,0
15299,-100,4,2,0,44,0,0
15624,-100,4,2,0,36,0,0
15948,-100,4,2,0,70,0,0
16272,-100,4,2,0,72,0,0
16598,-100,4,2,0,74,0,0
16921,-100,4,2,0,76,0,0
17245,-100,4,2,0,78,0,0
17570,-100,4,2,0,80,0,0
17894,-100,4,2,0,82,0,0
18218,-100,4,2,0,84,0,0
18543,-100,4,2,0,86,0,0
18867,-100,4,2,0,88,0,0
19209,-100,4,2,0,90,0,0
19516,-100,4,2,0,92,0,0
19840,-100,4,2,0,94,0,0
20164,-100,4,2,0,96,0,0
20489,-100,4,2,0,98,0,0
21137,-100,4,2,0,100,0,0
30543,-100,4,2,0,10,0,0
30867,-100,4,2,0,100,0,0
31516,-100,4,2,0,80,0,0
34435,-100,4,2,0,10,0,0
34759,-100,4,2,0,100,0,0
35408,-100,4,2,0,10,0,0
35732,-100,4,2,0,100,0,0
36705,-100,4,2,0,90,0,0
37029,-100,4,2,0,30,0,0
37353,-100,4,2,0,60,0,0
37678,-100,4,2,0,90,0,0
41894,-100,4,2,0,100,0,0
42218,-100,4,2,0,50,0,0
44813,-100,4,2,0,60,0,0
45137,-100,4,2,0,100,0,0
45786,-100,4,2,0,10,0,0
46435,-100,4,2,0,100,0,0
47408,-100,4,2,0,10,0,0
48705,-100,4,2,0,100,0,0
49029,-100,4,2,0,100,0,0
49678,-100,4,2,0,10,0,0
52272,-100,4,1,0,100,0,0
52759,-100,4,1,0,50,0,0
52921,-100,4,1,0,100,0,0
54867,-100,4,1,0,50,0,0
55516,-100,4,1,0,100,0,0
57462,-100,4,1,0,50,0,0
58110,-100,4,1,0,100,0,0
60056,-100,4,1,0,50,0,0
60543,-100,4,1,0,100,0,0
61029,-55.5555555555556,4,1,0,100,0,0
61353,-100,4,1,0,20,0,0
62002,-166.666666666667,4,1,0,100,0,0
62326,-166.666666666667,4,1,0,20,0,0
62408,-166.666666666667,4,1,0,100,0,0
67840,-55.5555555555556,4,2,0,85,0,0
69786,-55.5555555555556,4,2,0,90,0,0
70435,-55.5555555555556,4,2,0,100,0,0
71732,-55.5555555555556,4,2,0,45,0,0
72056,-55.5555555555556,4,2,0,90,0,0
72380,-55.5555555555556,4,2,0,60,0,0
72705,-55.5555555555556,4,2,0,80,0,0
73029,-100,4,1,0,100,0,0
75299,-55.5555555555556,4,1,0,40,0,0
75624,-55.5555555555556,4,2,0,40,0,0
75867,-55.5555555555556,4,2,0,100,0,0
76921,-166.666666666667,4,2,0,10,0,0
78218,-166.666666666667,4,1,0,100,0,0
79516,-55.5555555555556,4,2,0,80,0,0
82110,-55.5555555555556,4,2,0,5,0,0
82151,-55.5555555555556,4,2,0,8,0,0
82191,-55.5555555555556,4,2,0,11,0,0
82232,-55.5555555555556,4,2,0,14,0,0
82272,-55.5555555555556,4,2,0,17,0,0
82313,-55.5555555555556,4,2,0,20,0,0
82353,-55.5555555555556,4,2,0,23,0,0
82394,-55.5555555555556,4,2,0,26,0,0
82435,-55.5555555555556,4,2,0,29,0,0
82475,-55.5555555555556,4,2,0,33,0,0
82516,-55.5555555555556,4,2,0,37,0,0
82556,-55.5555555555556,4,2,0,41,0,0
82597,-55.5555555555556,4,2,0,44,0,0
82637,-55.5555555555556,4,2,0,50,0,0
82678,-55.5555555555556,4,2,0,56,0,0
82718,-55.5555555555556,4,2,0,59,0,0
82759,-55.5555555555556,4,2,0,61,0,0
82799,-55.5555555555556,4,2,0,64,0,0
82840,-55.5555555555556,4,2,0,66,0,0
82880,-55.5555555555556,4,2,0,68,0,0
82921,-55.5555555555556,4,2,0,71,0,0
82962,-55.5555555555556,4,2,0,73,0,0
83002,-55.5555555555556,4,2,0,75,0,0
83043,-55.5555555555556,4,2,0,77,0,0
83083,-55.5555555555556,4,2,0,80,0,0
83124,-55.5555555555556,4,2,0,83,0,0
83164,-55.5555555555556,4,2,0,85,0,0
83205,-55.5555555555556,4,2,0,88,0,0
83245,-55.5555555555556,4,2,0,90,0,0
83286,-55.5555555555556,4,2,0,93,0,0
83326,-55.5555555555556,4,2,0,95,0,0
83367,-55.5555555555556,4,2,0,98,0,0
83408,-55.5555555555556,4,1,0,100,0,0
83732,-55.5555555555556,4,1,0,45,0,0
89408,-166.666666666667,4,1,0,30,0,0
89894,-55.5555555555556,4,1,0,45,0,0
92651,-55.5555555555556,4,1,0,20,0,0
92975,-55.5555555555556,4,1,0,80,0,0
93462,-55.5555555555556,4,1,0,30,0,0
93624,-55.5555555555556,4,1,0,60,0,0
93786,-55.5555555555556,4,1,0,90,0,0
96056,-55.5555555555556,4,1,0,50,0,0
96705,-55.5555555555556,4,1,0,100,0,0
98813,-55.5555555555556,4,2,0,55,0,0
99299,-55.5555555555556,4,1,0,75,0,0
102056,-55.5555555555556,4,1,0,45,0,0
103191,-55.5555555555556,4,1,0,50,0,0
104002,-55.5555555555556,4,2,0,40,0,0
104489,-55.5555555555556,4,1,0,40,0,0
107083,-55.5555555555556,4,1,0,70,0,0
108705,-55.5555555555556,4,2,0,70,0,0
109353,-55.5555555555556,4,1,0,70,0,0
109678,-55.5555555555556,4,1,0,20,0,0
109840,-55.5555555555556,4,1,0,70,0,0
111624,-55.5555555555556,4,1,0,20,0,0
111948,-55.5555555555556,4,1,0,100,0,0
114543,-55.5555555555556,4,1,0,70,0,0
115029,-55.5555555555556,4,1,0,50,0,0
115191,-55.5555555555556,4,1,0,100,0,0
116002,-55.5555555555556,4,1,0,70,0,0
116164,-55.5555555555556,4,1,0,100,0,0
116326,-55.5555555555556,4,1,0,70,0,0
119840,-55.5555555555556,4,1,0,100,0,0
122326,-100,4,1,0,20,0,0
124921,-100,4,1,0,100,0,0
125245,-100,4,1,0,60,0,0
126056,-100,4,1,0,80,0,0
127840,-100,4,1,0,60,0,0
128002,-100,4,1,0,80,0,0
133678,-166.666666666667,4,1,0,20,0,0
134002,-100,4,1,0,20,0,0
134651,-55.5555555555556,4,1,0,20,0,0
135299,-55.5555555555556,4,1,0,100,0,0
135624,-55.5555555555556,4,1,0,65,0,0
165137,-55.5555555555556,4,1,0,20,0,0
165462,-55.5555555555556,4,1,0,40,0,0
165786,-55.5555555555556,4,1,0,60,0,0
166110,-55.5555555555556,4,1,0,80,0,0
166435,-55.5555555555556,4,1,0,100,0,0

[Colours]
Combo1 : 64,0,0
Combo2 : 0,64,0
Combo3 : 0,0,128
Combo4 : 128,64,0

[HitObjects]
216,104,10759,5,8,0:0:0:0:
344,152,11083,1,0,0:0:0:0:
296,280,11408,1,0,0:0:0:0:
168,232,11732,1,0,0:0:0:0:
368,112,12056,5,8,0:0:0:0:
176,80,12380,1,0,0:0:0:0:
144,272,12705,1,0,0:0:0:0:
336,304,13029,1,0,0:0:0:0:
152,56,13353,5,8,0:0:0:0:
392,88,13678,1,0,0:0:0:0:
368,320,14002,1,0,0:0:0:0:
120,296,14326,1,0,0:0:0:0:
408,192,14651,5,8,0:0:0:0:
256,32,14975,1,0,0:0:0:0:
96,192,15299,1,0,0:0:0:0:
256,352,15624,1,0,0:0:0:0:
408,336,15948,5,8,0:0:0:0:
104,336,16272,1,0,0:0:0:0:
104,48,16597,1,0,0:0:0:0:
408,48,16921,1,0,0:0:0:0:
32,312,17245,2,0,B|72:312|72:312|72:352,1,80.0000005960464,8|0,0:0|0:0,0:0:0:0:
480,64,17894,2,0,B|440:64|440:64|440:24,1,80.0000005960464
184,296,18543,2,8,B|144:296|144:296|144:256,1,80.0000005960464,8|0,0:0|0:0,0:0:0:0:
328,88,19191,2,0,B|368:88|368:88|368:128,1,80.0000005960464
168,152,19840,1,8,0:0:0:0:
136,192,20164,1,8,0:0:0:0:
344,240,20489,1,8,0:0:0:0:
376,192,20813,1,8,0:0:0:0:
256,280,21137,5,0,0:0:0:0:
200,336,21462,1,0,0:0:0:0:
312,344,21786,1,0,0:0:0:0:
200,336,22110,2,0,B|256:280|256:280|312:344,1,160.000001192093
384,48,23083,1,0,0:0:0:0:
136,48,23408,1,0,0:0:0:0:
256,176,23732,2,0,B|256:96,3,80.0000005960464
360,280,25029,5,0,0:0:0:0:
192,112,25353,1,0,0:0:0:0:
88,288,25678,2,0,B|160:328,1,80.0000005960464
160,328,26326,2,0,B|160:240,1,80.0000005960464
88,288,26975,2,0,B|159:252,1,80.0000005960464
80,72,27624,1,0,0:0:0:0:
432,80,28110,1,0,0:0:0:0:
256,336,28597,1,0,0:0:0:0:
440,224,28921,6,0,B|360:208,1,80.0000005960464
368,288,29570,2,0,B|360:208,1,80.0000005960464
480,320,30218,2,0,B|416:264|360:208,1,160.000001192093,0|4,0:0|0:0,0:0:0:0:
112,288,31516,1,4,0:0:0:0:
112,288,31840,1,0,0:0:0:0:
256,64,32164,1,0,0:0:0:0:
408,296,32489,1,0,0:0:0:0:
152,80,33137,5,0,0:0:0:0:
264,32,33462,1,0,0:0:0:0:
368,80,33786,1,0,0:0:0:0:
216,232,34110,2,0,B|216:336|112:344,1,160.000001192093
296,152,35083,2,0,B|296:56|400:40,1,160.000001192093
88,352,36380,1,0,0:0:0:0:
144,304,36705,2,0,B|376:72,1,320.000002384186,0|8,0:0|0:0,0:0:0:0:
288,160,38326,5,0,0:0:0:0:
220,228,38651,1,0,0:0:0:0:
144,304,38975,1,0,0:0:0:0:
388,60,39299,2,0,B|216:232,1,240.000001788139,0|8,0:0|0:0,0:0:0:0:
168,280,40597,1,0,0:0:0:0:
336,116,40921,2,0,B|216:236,1,160.000001192093,0|8,0:0|0:0,0:0:0:0:
256,192,41894,5,2,0:0:0:0:
464,48,42218,1,0,0:0:0:0:
256,192,42543,1,0,0:0:0:0:
48,48,42867,1,0,0:0:0:0:
256,192,43191,1,2,0:0:0:0:
456,336,43516,1,0,0:0:0:0:
256,192,43840,1,0,0:0:0:0:
48,336,44164,1,0,0:0:0:0:
192,152,44489,6,0,P|160:224|96:272,1,160.000001192093,2|0,0:0|0:0,0:0:0:0:
240,96,45462,2,0,B|280:208|400:272,1,240.000001788139
176,136,47083,2,0,B|176:232|176:232|216:144|256:128|296:144|312:168|312:168|312:288,1,400.000002980232
152,128,49029,1,0,0:0:0:0:
368,256,49353,1,0,0:0:0:0:
224,292,49678,2,0,B|184:256|184:256|192:216|192:216|280:152|280:152|304:112|304:112|256:64|256:64|208:112|208:112|240:152|240:152|320:216|320:216|328:256|328:256|280:296,1,640.000004768371
120,128,52759,5,0,0:0:0:0:
248,40,52921,1,0,0:0:0:0:
344,160,53408,1,0,0:0:0:0:
304,192,53489,1,0,0:0:0:0:
256,200,53570,1,0,0:0:0:0:
152,272,53732,1,0,0:0:0:0:
336,288,53894,1,0,0:0:0:0:
352,112,54056,1,0,0:0:0:0:
176,88,54218,1,4,0:0:0:0:
304,224,54543,5,4,0:0:0:0:
408,344,54867,2,0,B|400:280|432:256|488:264|480:264,1,120.00000089407
292,208,55516,2,0,B|208:168,1,80.0000005960464
40,112,56002,5,0,0:0:0:0:
88,88,56083,1,0,0:0:0:0:
120,48,56164,1,0,0:0:0:0:
256,88,56326,1,0,0:0:0:0:
360,192,56489,1,0,0:0:0:0:
152,192,56651,1,0,0:0:0:0:
256,296,56813,1,4,0:0:0:0:
152,280,57137,5,4,0:0:0:0:
440,56,57462,1,0,0:0:0:0:
264,200,57948,1,0,0:0:0:0:
384,112,58110,2,0,B|312:168,1,80.0000005960464
272,152,58597,5,0,0:0:0:0:
248,112,58678,1,0,0:0:0:0:
224,152,58759,1,0,0:0:0:0:
128,40,58921,1,0,0:0:0:0:
128,232,59083,1,0,0:0:0:0:
128,40,59245,1,0,0:0:0:0:
128,232,59408,1,4,0:0:0:0:
256,312,59732,6,0,B|240:296|272:272|240:240|224:232,2,80.0000005960464,4|0|0,0:0|0:0|0:0,0:0:0:0:
256,312,60543,1,0,0:0:0:0:
233,238,60705,1,0,0:0:0:0:
360,64,61029,6,0,B|288:64,1,71.9999971032144
408,144,61353,2,0,B|312:144,1,80.0000005960464
464,232,62002,2,0,B|360:232,1,96.0000030040741
32,128,67840,6,0,B|96:112|152:112,1,107.999995654822
152,144,68164,2,0,B|232:160|288:120,1,107.999995654822
264,104,68489,2,0,B|336:72|392:80,1,107.999995654822
408,88,68813,2,0,B|432:96|448:112|432:136|416:152,1,71.9999971032144
408,184,69056,1,0,0:0:0:0:
432,224,69137,2,0,B|408:256|392:240|392:240|376:256|360:240|360:240|344:256|328:240|328:240|312:256,1,143.999994206429
88,304,69786,6,0,B|104:256|136:256|232:336|48:248|160:240,1,143.999994206429
200,272,70191,1,0,0:0:0:0:
184,328,70272,1,0,0:0:0:0:
128,336,70353,1,0,0:0:0:0:
144,288,70435,2,0,B|104:264|128:240|64:184,1,107.999995654822
56,168,70759,1,0,0:0:0:0:
256,136,71083,1,0,0:0:0:0:
256,96,71245,2,2,B|256:56,2,35.9999985516072
32,96,71732,1,2,0:0:0:0:
480,288,72056,1,2,0:0:0:0:
256,192,72299,12,4,73029,0:0:0:0:
56,288,73516,5,0,0:0:0:0:
56,104,73678,1,0,0:0:0:0:
376,152,74164,1,0,0:0:0:0:
400,192,74245,1,0,0:0:0:0:
376,232,74326,1,0,0:0:0:0:
296,80,74489,1,0,0:0:0:0:
112,192,74651,1,0,0:0:0:0:
296,312,74813,1,0,0:0:0:0:
296,80,74975,1,0,0:0:0:0:
136,240,75299,2,2,B|80:192|80:192|152:136,1,143.999994206429
192,192,75867,5,0,0:0:0:0:
224,192,75948,2,0,B|256:168|296:200|336:176,1,107.999995654822
352,160,76272,1,0,0:0:0:0:
192,64,76435,1,0,0:0:0:0:
168,96,76516,1,0,0:0:0:0:
176,136,76597,1,0,0:0:0:0:
200,288,76921,2,0,B|216:288|216:288|240:320|240:320|288:248|288:248|304:288|304:288|320:288,1,192.000006008148,0|4,0:0|0:0,0:0:0:0:
344,200,78705,5,0,0:0:0:0:
176,120,78867,2,0,B|176:72|176:72|224:72,1,95.9999977855682
432,80,79840,1,0,0:0:0:0:
432,288,80164,1,0,0:0:0:0:
288,352,80570,2,0,B|248:352,1,35.9999991695881
216,352,80732,1,0,0:0:0:0:
168,352,80813,2,0,B|88:352,1,71.9999971032144
56,352,81056,1,0,0:0:0:0:
16,352,81137,1,0,0:0:0:0:
32,32,81462,1,0,0:0:0:0:
136,160,81624,1,0,0:0:0:0:
168,136,81705,1,0,0:0:0:0:
200,112,81786,1,0,0:0:0:0:
232,176,82110,6,0,L|216:160,1,17.999999584794
240,168,82191,2,0,L|232:152,1,17.999999584794
256,160,82272,2,0,L|256:136,1,17.999999584794
272,168,82353,2,0,L|280:144,1,17.999999584794
280,176,82435,2,0,L|296:160,1,17.999999584794
280,208,82516,6,0,L|296:224,1,17.999999584794
272,216,82597,2,0,L|280:232,1,17.999999584794
256,224,82678,2,0,L|256:248,1,17.999999584794
240,216,82759,2,0,L|232:240,1,17.999999584794
232,208,82840,2,0,L|216:224,1,17.999999584794
256,192,82921,6,0,L|256:168,12,17.999999584794,0|0|0|0|0|0|0|0|0|0|0|0|14,0:0|0:0|0:0|0:0|0:0|0:0|0:0|0:0|0:0|0:0|0:0|0:0|0:0,0:0:0:0:
32,32,83732,5,0,0:0:0:0:
104,224,83894,1,0,0:0:0:0:
336,88,84056,1,0,0:0:0:0:
256,192,84218,1,0,0:0:0:0:
176,296,84380,1,0,0:0:0:0:
408,160,84543,1,0,0:0:0:0:
480,352,84705,1,0,0:0:0:0:
464,192,84867,6,0,B|464:152,2,35.9999985516072
456,248,85110,1,0,0:0:0:0:
408,272,85191,1,0,0:0:0:0:
376,112,85353,2,0,B|312:64,1,71.9999971032144
144,128,85678,1,0,0:0:0:0:
216,280,85921,2,0,B|232:296,2,17.9999992758036
368,152,86326,5,0,0:0:0:0:
144,232,86489,1,0,0:0:0:0:
216,40,86651,1,0,0:0:0:0:
344,168,86813,1,0,0:0:0:0:
312,200,86894,2,0,B|344:232,1,35.9999991695881
272,240,87056,2,0,B|304:272,1,35.9999985516072
88,240,87299,1,0,0:0:0:0:
216,96,87462,5,0,0:0:0:0:
200,144,87543,1,0,0:0:0:0:
176,192,87624,1,0,0:0:0:0:
136,224,87705,1,0,0:0:0:0:
88,232,87786,1,0,0:0:0:0:
56,64,87948,1,0,0:0:0:0:
56,64,88110,1,0,0:0:0:0:
240,200,88272,2,0,B|272:224,4,35.9999985516072
392,184,88921,5,0,0:0:0:0:
120,184,89083,1,0,0:0:0:0:
256,336,89245,1,0,0:0:0:0:
256,112,89408,2,0,B|256:128,6,11.999999723196
136,248,90056,1,0,0:0:0:0:
224,88,90218,1,0,0:0:0:0:
48,88,90380,1,0,0:0:0:0:
136,248,90543,5,0,0:0:0:0:
192,224,90624,1,0,0:0:0:0:
240,200,90705,1,0,0:0:0:0:
288,232,90786,1,0,0:0:0:0:
336,256,90867,1,0,0:0:0:0:
448,16,91029,1,0,0:0:0:0:
448,64,91110,1,0,0:0:0:0:
448,112,91191,2,0,B|440:192|440:192|392:248,1,143.999996678352
344,24,91678,6,0,B|344:96,1,71.9999983391762
344,136,91921,1,0,0:0:0:0:
344,136,92002,1,0,0:0:0:0:
168,248,92164,1,0,0:0:0:0:
336,248,92489,5,0,0:0:0:0:
248,64,92651,2,0,B|232:80,4,17.9999992758036
408,48,92975,2,0,L|472:104,1,71.9999983391762
48,96,93299,2,0,L|103:49,1,71.9999983391762
288,320,93624,2,0,L|216:320,1,71.9999983391762
256,128,94029,1,0,0:0:0:0:
304,144,94110,1,0,0:0:0:0:
328,192,94191,1,0,0:0:0:0:
192,272,94353,1,0,0:0:0:0:
192,272,94435,1,0,0:0:0:0:
112,56,94678,5,0,0:0:0:0:
112,56,94759,1,0,0:0:0:0:
400,56,94921,1,0,0:0:0:0:
400,256,95083,2,0,B|376:304|376:304|344:320|344:320|288:320,1,143.999996678352
56,328,95570,1,0,0:0:0:0:
56,56,95732,1,0,0:0:0:0:
304,200,95894,1,0,0:0:0:0:
88,188,96056,1,0,0:0:0:0:
128,224,96137,1,0,0:0:0:0:
168,188,96218,1,0,0:0:0:0:
128,152,96299,1,0,0:0:0:0:
376,296,96705,5,0,0:0:0:0:
256,112,96867,1,0,0:0:0:0:
136,296,97029,2,0,B|136:336|136:336|112:336|88:336|88:336|52:292,1,143.999996678352
64,88,97516,1,0,0:0:0:0:
112,88,97597,1,0,0:0:0:0:
160,88,97678,2,0,B|232:88,1,71.9999971032144
392,96,98002,1,0,0:0:0:0:
120,288,98164,5,0,0:0:0:0:
120,152,98326,2,0,B|144:120,1,35.9999985516072
168,96,98489,1,0,0:0:0:0:
344,96,98651,1,0,0:0:0:0:
344,288,98813,1,8,0:0:0:0:
344,288,98894,1,8,0:0:0:0:
392,288,98975,1,4,0:0:0:0:
320,152,99299,5,0,0:0:0:0:
48,152,99462,2,0,B|64:232|64:232|128:256,1,143.999996678352
112,32,99948,1,0,0:0:0:0:
72,32,100029,1,0,0:0:0:0:
32,32,100110,1,0,0:0:0:0:
192,192,100272,1,0,0:0:0:0:
328,296,100435,1,0,0:0:0:0:
440,224,100597,5,0,0:0:0:0:
440,184,100678,1,0,0:0:0:0:
440,136,100759,1,0,0:0:0:0:
440,72,100921,1,0,0:0:0:0:
256,72,101245,2,0,L|152:152,1,107.999997508764
152,152,101570,2,0,L|253:262,1,143.999996678352
136,40,102056,5,0,0:0:0:0:
184,56,102218,1,0,0:0:0:0:
384,128,102380,1,0,0:0:0:0:
344,152,102543,1,0,0:0:0:0:
104,232,102705,1,0,0:0:0:0:
144,256,102867,1,0,0:0:0:0:
360,360,103029,1,0,0:0:0:0:
472,336,103191,5,0,0:0:0:0:
472,288,103299,1,0,0:0:0:0:
472,240,103408,1,0,0:0:0:0:
472,192,103516,1,0,0:0:0:0:
472,144,103624,1,0,0:0:0:0:
472,96,103732,1,0,0:0:0:0:
472,48,103840,1,0,0:0:0:0:
256,144,104002,6,0,B|280:144,4,17.9999992758036
400,144,104489,1,0,0:0:0:0:
112,144,104651,1,0,0:0:0:0:
400,240,104813,2,0,B|400:320|400:320|360:320,1,107.999997508764
320,320,105137,1,0,0:0:0:0:
112,240,105299,1,0,0:0:0:0:
272,336,105462,5,0,0:0:0:0:
400,240,105624,1,0,0:0:0:0:
400,144,105786,1,0,0:0:0:0:
272,48,105948,1,0,0:0:0:0:
40,32,106110,1,0,0:0:0:0:
56,80,106191,1,0,0:0:0:0:
88,112,106272,1,0,0:0:0:0:
128,144,106353,1,0,0:0:0:0:
176,160,106435,1,0,0:0:0:0:
360,72,106597,6,0,B|408:72,2,35.9999985516072
256,152,107083,2,0,B|256:192|256:192|312:192,1,71.9999983391762
256,232,107408,2,0,B|256:192|256:192|200:192,1,71.9999983391762
168,48,107732,2,0,B|168:88|168:88|112:88,1,71.9999983391762
344,336,108056,2,0,B|344:296|344:296|400:296,1,71.9999983391762
376,88,108380,1,0,0:0:0:0:
136,296,108543,1,0,0:0:0:0:
256,88,108705,2,0,B|240:96|240:96|280:96|280:96|240:120|240:120|280:120|280:120,1,143.999994206429
56,104,109353,6,0,B|96:104|96:104|96:168|96:168|40:168,1,143.999996678352
256,40,109840,1,0,0:0:0:0:
288,88,109921,1,0,0:0:0:0:
312,136,110002,1,0,0:0:0:0:
288,184,110083,1,0,0:0:0:0:
256,232,110164,1,0,0:0:0:0:
152,136,110326,1,0,0:0:0:0:
384,56,110651,1,0,0:0:0:0:
488,192,110813,1,0,0:0:0:0:
384,328,110975,1,0,0:0:0:0:
120,328,111137,5,0,0:0:0:0:
8,192,111299,1,0,0:0:0:0:
120,56,111462,1,0,0:0:0:0:
256,200,111624,2,0,B|264:216|264:216|280:216|280:216|264:232|264:232|272:248|272:248|256:240|256:240|240:248|240:248|248:232|248:232|232:216|232:216|240:216,1,143.999994206429
136,40,112110,1,0,0:0:0:0:
376,40,112272,1,0,0:0:0:0:
72,40,112597,2,0,B|128:56,1,35.9999985516072
112,88,112759,1,0,0:0:0:0:
72,80,112840,2,0,B|40:112,1,35.9999985516072
296,352,113245,5,0,0:0:0:0:
296,192,113408,1,0,0:0:0:0:
296,32,113570,1,0,0:0:0:0:
88,96,113894,1,0,0:0:0:0:
88,288,114056,1,0,0:0:0:0:
32,128,114218,1,0,0:0:0:0:
88,160,114299,1,0,0:0:0:0:
88,224,114380,1,0,0:0:0:0:
32,256,114462,1,0,0:0:0:0:
32,192,114543,5,0,0:0:0:0:
472,104,115029,1,0,0:0:0:0:
472,280,115191,1,0,0:0:0:0:
256,160,115678,1,0,0:0:0:0:
288,216,115759,1,0,0:0:0:0:
224,216,115840,1,0,0:0:0:0:
336,96,116002,1,0,0:0:0:0:
168,256,116164,1,0,0:0:0:0:
336,64,116326,1,0,0:0:0:0:
168,288,116489,1,0,0:0:0:0:
256,32,116813,1,0,0:0:0:0:
256,352,117137,5,0,0:0:0:0:
256,32,117462,1,0,0:0:0:0:
256,144,117624,1,8,0:0:0:0:
208,176,117705,1,0,0:0:0:0:
224,232,117786,1,8,0:0:0:0:
288,232,117867,1,0,0:0:0:0:
304,176,117948,1,8,0:0:0:0:
376,296,118110,5,0,0:0:0:0:
376,88,118353,2,0,B|408:72,1,35.9999985516072
448,192,118597,1,0,0:0:0:0:
240,56,118759,2,0,B|224:56|224:56|224:64|224:64|232:64|232:64|232:72|232:72|216:72|216:72|216:80|216:80|224:80|224:80|224:88|224:88|208:88|208:88|208:96|208:96|216:96|216:96|216:104|216:104|200:104|200:104|200:112|200:112,1,143.999996678352
240,56,119245,1,0,0:0:0:0:
240,312,119408,1,0,0:0:0:0:
104,160,119570,6,0,L|144:128,1,47.9999988927841
176,104,119759,1,0,0:0:0:0:
216,96,119840,1,0,0:0:0:0:
248,104,119948,1,0,0:0:0:0:
272,120,120056,1,0,0:0:0:0:
288,136,120164,1,0,0:0:0:0:
296,144,120272,1,0,0:0:0:0:
296,152,120380,1,0,0:0:0:0:
168,272,120624,2,0,B|120:272,1,35.9999985516072
224,312,120786,1,0,0:0:0:0:
280,352,120867,1,0,0:0:0:0:
328,192,121029,5,2,0:0:0:0:
120,192,121191,1,0,0:0:0:0:
288,192,121353,5,2,0:0:0:0:
400,352,121516,1,0,0:0:0:0:
192,352,121678,1,2,0:0:0:0:
104,192,121840,5,0,0:0:0:0:
304,192,122002,1,2,0:0:0:0:
376,56,122164,1,0,0:0:0:0:
192,56,122326,6,0,B|280:16|280:16|376:56|376:56|280:104|280:104|192:64|192:64|264:64|264:64,1,470.000003501773,2|0,0:0|0:0,0:0:0:0:
256,192,124245,12,4,124921,0:0:0:0:
88,344,125245,5,0,0:0:0:0:
408,344,125570,1,0,0:0:0:0:
256,344,125894,1,0,0:0:0:0:
184,80,126056,1,0,0:0:0:0:
256,48,126137,1,0,0:0:0:0:
328,80,126218,1,0,0:0:0:0:
112,192,126380,1,0,0:0:0:0:
376,248,126543,1,0,0:0:0:0:
136,248,126705,1,0,0:0:0:0:
400,192,126867,1,4,0:0:0:0:
160,32,127191,1,4,0:0:0:0:
320,40,127516,2,0,B|280:40|280:40|280:80|280:80,1,80.0000005960464
320,184,128002,5,0,0:0:0:0:
424,280,128164,1,0,0:0:0:0:
184,176,128489,1,0,0:0:0:0:
168,24,128651,1,0,0:0:0:0:
120,80,128732,1,0,0:0:0:0:
192,96,128813,1,0,0:0:0:0:
352,32,128975,1,0,0:0:0:0:
448,160,129137,1,0,0:0:0:0:
392,296,129299,1,0,0:0:0:0:
296,176,129462,1,4,0:0:0:0:
144,224,129786,6,0,B|128:224|128:224|120:240|120:240|96:240|96:240|96:272,1,80.0000005960464,4|0,0:0|0:0,0:0:0:0:
368,288,130597,1,0,0:0:0:0:
144,96,130759,1,0,0:0:0:0:
448,64,131083,1,0,0:0:0:0:
136,256,131245,2,0,L|168:240,2,20.0000001490116
360,64,131570,2,0,L|360:112,1,40.0000002980232
152,320,131894,2,0,L|152:280,1,40.0000002980232,0|4,0:0|0:0,0:0:0:0:
256,192,132380,1,4,0:0:0:0:
168,40,132705,6,0,B|112:40|112:40|112:112,1,120.00000089407
112,280,133353,1,0,0:0:0:0:
256,88,133678,6,0,B|256:120,1,24.0000007510185
216,192,134002,2,0,B|312:192,1,80.0000005960464
256,192,134489,12,0,135299,0:0:0:0:
416,40,135624,5,0,0:0:0:0:
384,164,135786,1,0,0:0:0:0:
424,216,135867,1,0,0:0:0:0:
464,264,135948,1,0,0:0:0:0:
248,192,136110,1,0,0:0:0:0:
56,136,136272,1,0,0:0:0:0:
96,88,136353,1,0,0:0:0:0:
136,40,136435,1,0,0:0:0:0:
136,328,136597,6,0,B|179:270,1,71.9999983391762
240,268,136840,1,0,0:0:0:0:
260,208,136921,2,0,L|300:160,1,35.9999991695881
344,160,137083,1,0,0:0:0:0:
96,232,137245,1,0,0:0:0:0:
232,80,137408,1,0,0:0:0:0:
464,152,137570,2,0,B|480:120|480:120|448:72,1,71.9999983391762
432,112,137813,2,0,B|424:120|424:120|432:128|432:128|432:120|432:120|424:128,1,35.9999991695881
96,64,138218,5,0,0:0:0:0:
96,320,138380,1,0,0:0:0:0:
352,320,138543,1,0,0:0:0:0:
360,64,138786,1,0,0:0:0:0:
400,112,138867,1,0,0:0:0:0:
356,152,138948,1,0,0:0:0:0:
400,192,139029,1,0,0:0:0:0:
256,224,139191,5,0,0:0:0:0:
448,40,139353,2,0,L|408:72,1,35.9999991695881
376,104,139516,1,0,0:0:0:0:
424,144,139597,2,0,L|452:165,1,35.9999991695881
452,304,139840,2,0,B|452:344|452:344|404:344,1,71.9999971032144
356,344,140164,5,0,0:0:0:0:
356,284,140245,1,0,0:0:0:0:
356,224,140326,1,0,0:0:0:0:
312,184,140408,1,0,0:0:0:0:
264,220,140489,2,0,B|264:252|232:268|232:268|200:268|200:268|168:252|168:196,1,143.999994206429
116,188,140975,1,0,0:0:0:0:
100,128,141056,2,0,L|100:80,2,35.9999991695881
140,40,141299,2,0,B|188:72|188:72|188:80|188:80|180:88|180:88|188:96|188:96|180:104|180:104|188:112|188:112|180:120|180:120|188:128|188:128|180:136|180:136|188:144|188:144|180:152|180:152|188:160|188:160|180:168|180:168|188:176|188:176|180:184|180:184|172:184,1,215.999991309643
344,328,141948,5,0,0:0:0:0:
512,56,142110,1,0,0:0:0:0:
176,56,142272,1,0,0:0:0:0:
416,128,142435,2,0,B|384:160,1,35.9999985516072
428,192,142597,2,0,B|396:224,1,35.9999985516072
440,260,142759,1,0,0:0:0:0:
256,320,142921,1,0,0:0:0:0:
256,64,143083,1,0,0:0:0:0:
32,192,143408,5,0,0:0:0:0:
96,40,143570,2,0,B|144:40,1,35.9999985516072
168,84,143732,1,0,0:0:0:0:
208,128,143813,2,0,B|248:128,1,35.9999985516072
384,160,144056,1,0,0:0:0:0:
220,300,144299,1,0,0:0:0:0:
220,360,144380,1,0,0:0:0:0:
164,328,144462,2,0,B|148:328|148:328|148:312|148:312|132:312|132:312|132:328|132:328|116:328|116:328|116:312|116:312|100:312,1,107.999995654822
256,192,144867,5,0,0:0:0:0:
232,32,145029,1,0,0:0:0:0:
88,72,145191,2,0,B|56:104,1,35.9999985516072
32,148,145353,1,0,0:0:0:0:
24,208,145435,2,0,B|24:256,1,35.9999985516072
56,296,145597,1,0,0:0:0:0:
96,340,145678,1,0,0:0:0:0:
248,344,146002,2,0,B|280:344|280:344|280:296|280:296|320:296|320:296|320:256,1,143.999996678352
408,120,146570,1,0,0:0:0:0:
408,120,146651,1,0,0:0:0:0:
176,48,146813,2,0,B|104:48,1,71.9999971032144
336,48,147137,2,0,B|416:48,1,71.9999971032144
256,48,147462,2,0,B|256:128,1,71.9999971032144
256,160,147705,1,0,0:0:0:0:
256,160,147786,1,0,0:0:0:0:
256,216,147867,1,0,0:0:0:0:
256,216,147948,1,0,0:0:0:0:
420,288,148110,5,0,0:0:0:0:
364,256,148191,1,0,0:0:0:0:
304,288,148272,2,0,B|264:296|264:296|224:240|224:240|264:200,1,143.999996678352
255,136,148759,2,0,B|280:112|280:112|240:56|240:56|200:64,1,143.999996678352
112,352,149245,1,0,0:0:0:0:
56,312,149326,2,0,B|16:280,2,35.9999985516072
88,336,149570,1,0,0:0:0:0:
344,328,149732,1,0,0:0:0:0:
344,64,149894,1,0,0:0:0:0:
88,64,150056,1,0,0:0:0:0:
88,328,150218,1,0,0:0:0:0:
432,192,150543,1,0,0:0:0:0:
256,32,150867,5,0,0:0:0:0:
256,32,151191,1,0,0:0:0:0:
256,352,151353,1,0,0:0:0:0:
292,304,151435,1,0,0:0:0:0:
256,256,151516,1,0,0:0:0:0:
212,208,151597,1,0,0:0:0:0:
256,164,151678,1,0,0:0:0:0:
416,72,151840,6,0,B|448:136,1,71.9999971032144,0|8,0:0|0:0,0:0:0:0:
448,136,152164,1,0,0:0:0:0:
448,136,152326,2,0,B|424:216,1,71.9999971032144,8|0,0:0|0:0,0:0:0:0:
428,204,152651,1,8,0:0:0:0:
416,72,152813,1,0,0:0:0:0:
448,136,152975,1,8,0:0:0:0:
432,208,153137,1,0,0:0:0:0:
384,120,153299,2,0,B|392:124|392:124|384:132|384:132|392:140|392:140|384:148|384:148|392:156|392:156|384:164,1,62.9999985467792,8|0,0:0|0:0,0:0:0:0:
304,56,153624,5,8,0:0:0:0:
304,328,153786,1,8,0:0:0:0:
496,192,154110,1,8,0:0:0:0:
288,192,154353,1,8,0:0:0:0:
48,192,154678,1,8,0:0:0:0:
224,312,154921,1,0,0:0:0:0:
104,240,155083,1,0,0:0:0:0:
216,192,155245,2,0,B|216:152,2,35.9999985516072
104,112,155570,5,0,0:0:0:0:
256,32,155732,1,0,0:0:0:0:
464,56,155894,2,0,B|432:80,1,35.9999985516072
432,136,156056,2,0,B|416:160|416:160|384:184|384:184|336:184|336:184|312:160,1,143.999996678352
296,232,156543,1,0,0:0:0:0:
352,256,156624,1,4,0:0:0:0:
408,280,156705,1,0,0:0:0:0:
452,240,156786,1,4,0:0:0:0:
480,188,156867,1,0,0:0:0:0:
344,112,157029,5,0,0:0:0:0:
464,320,157272,2,0,B|424:336,1,35.9999985516072
144,280,157678,1,0,0:0:0:0:
144,104,157840,2,0,L|144:152,1,35.9999991695881
104,176,158002,2,0,L|104:128,1,35.9999991695881
68,104,158164,1,4,0:0:0:0:
88,336,158326,1,0,0:0:0:0:
256,224,158651,2,0,B|328:232|328:232|336:304,1,143.999996678352
128,212,159137,5,0,0:0:0:0:
180,192,159218,1,0,0:0:0:0:
156,144,159299,1,0,0:0:0:0:
104,160,159380,2,0,B|64:144,1,35.9999985516072
40,32,159624,1,8,0:0:0:0:
252,40,159867,1,0,0:0:0:0:
192,48,159948,2,0,B|120:56|120:56|112:128,1,143.999996678352
148,328,160435,5,0,0:0:0:0:
200,288,160516,1,0,0:0:0:0:
248,248,160597,1,0,0:0:0:0:
296,288,160678,1,0,0:0:0:0:
344,248,160759,2,0,B|360:232|360:232|352:232|352:232|352:240|352:240|360:240|360:240|376:224|376:224|368:224|368:224|368:232|368:232|376:232|376:232|392:216|392:216|384:216|384:216|384:224|384:224|392:224|392:224|408:208|408:208|400:208|400:208|400:216|400:216|408:216|408:216|424:200|424:200|416:200|416:200,1,215.999995017529
112,304,161570,1,0,0:0:0:0:
400,304,161894,1,0,0:0:0:0:
256,24,162218,1,0,0:0:0:0:
216,72,162380,6,0,B|216:16,1,35.9999985516072,4|0,0:0|0:0,0:0:0:0:
216,72,162543,1,4,0:0:0:0:
424,192,162705,1,0,0:0:0:0:
184,264,162867,1,0,0:0:0:0:
328,136,163110,1,0,0:0:0:0:
376,176,163191,1,0,0:0:0:0:
424,136,163272,1,0,0:0:0:0:
376,96,163353,1,0,0:0:0:0:
256,248,163516,1,0,0:0:0:0:
64,320,163759,2,0,B|59:338,2,17.9999992758036
448,56,164164,5,0,0:0:0:0:
256,192,164245,12,0,164975,0:0:0:0:
256,112,165137,6,0,B|272:112,6,17.9999992758036
352,192,165462,6,0,B|352:216,6,17.999999584794
256,280,165786,6,0,B|240:280,6,17.9999992758036
160,200,166110,6,0,B|160:184,6,17.9999992758036
256,192,166435,5,0,0:0:0:0:
