osu file format v13

[General]
AudioFilename: Sanctity.mp3
AudioLeadIn: 0
PreviewTime: -1
Countdown: 0
SampleSet: None
StackLeniency: 0.7
Mode: 3
LetterboxInBreaks: 0
SpecialStyle: 0
WidescreenStoryboard: 1

[Editor]
Bookmarks: 20558,179975
DistanceSpacing: 1.4
BeatDivisor: 4
GridSize: 4
TimelineZoom: 2

[Metadata]
Title:Rewind
TitleUnicode:Rewind
Artist:Emma Hewitt
ArtistUnicode:Emma Hewitt
Creator:DJ Kim
Version:NM (SV)
Source:
Tags:Dubstep Trance Remix Club Techno Armin
BeatmapID:477390
BeatmapSetID:196157

[Difficulty]
HPDrainRate:7
CircleSize:4
OverallDifficulty:5
ApproachRate:5
SliderMultiplier:1.4
SliderTickRate:1

[Events]
//Background and Video events
0,0,"Emma_Hewitt_Rewind_MIkkas_remix.png",0,0
//Break Periods
//Storyboard Layer 0 (Background)
//Storyboard Layer 1 (Fail)
//Storyboard Layer 2 (Pass)
//Storyboard Layer 3 (Foreground)
//Storyboard Sound Samples
//Background Colour Transformations
3,100,163,162,255

[TimingPoints]
-11,428.540818512963,4,1,0,100,1,0
260,-100,4,2,0,5,0,0
18851,-66.6666666666667,4,3,0,100,0,0
20558,428.540818512963,4,2,1,58,1,0
20558,-83.3333333333333,4,2,1,58,0,1
20665,-125,4,2,1,58,0,0
20772,-83.3333333333333,4,2,1,58,0,0
20879,-125,4,2,1,58,0,0
20986,-76.9230769230769,4,2,1,58,0,0
21307,-133.333333333333,4,2,1,58,0,0
21415,-100,4,2,1,58,0,0
22700,-66.6666666666667,4,2,1,58,0,0
22807,-133.333333333333,4,2,1,58,0,0
22914,-76.9230769230769,4,2,1,58,0,0
23772,-133.333333333333,4,2,1,58,0,0
23986,-100,4,3,1,58,0,0
25057,-76.9230769230769,4,2,1,58,0,0
25111,-125,4,2,1,58,0,0
25164,-100,4,2,1,58,0,0
25379,-76.9230769230769,4,2,1,58,0,0
25432,-125,4,2,1,58,0,0
25486,-100,4,2,1,58,0,0
25700,-66.6666666666667,4,2,1,58,0,0
25807,-100,4,2,1,58,0,0
26021,-66.6666666666667,4,2,1,58,0,0
26129,-100,4,2,1,58,0,0
26557,-83.3333333333333,4,3,1,58,0,0
26664,-133.333333333333,4,2,1,58,0,0
26718,-133.333333333333,4,2,1,58,0,0
26771,-200,4,2,1,58,0,0
26878,-100,4,3,1,58,0,0
27414,-50,4,2,1,58,0,0
27628,-66.6666666666667,4,2,1,58,0,0
27843,-100,4,2,1,58,0,0
28057,-133.333333333333,4,2,1,58,0,0
28271,-50,4,2,1,58,0,0
29021,-133.333333333333,4,2,1,58,0,0
29128,-100,4,2,1,58,0,0
29985,-83.3333333333333,4,2,1,58,0,0
30628,-133.333333333333,4,2,1,58,0,0
30842,-100,4,2,1,58,0,0
35342,-50,4,2,1,58,0,0
35556,-66.6666666666667,4,2,1,58,0,0
35771,-133.333333333333,4,2,1,58,0,0
35878,-133.333333333333,4,2,1,58,0,0
35985,-100,4,2,1,58,0,0
36842,-76.9230769230769,4,2,1,58,0,0
37485,-133.333333333333,4,2,1,58,0,0
37699,-100,4,2,1,58,0,0
41127,-76.9230769230769,4,2,1,58,0,0
41288,-125,4,2,1,58,0,0
41449,-100,4,2,1,58,0,0
41985,-76.9230769230769,4,2,1,58,0,0
42092,-125,4,2,1,58,0,0
42199,-66.6666666666667,4,2,1,58,0,0
42306,-200,4,2,1,58,0,0
42413,-66.6666666666667,4,2,1,58,0,0
42520,-200,4,2,1,58,0,0
42627,-66.6666666666667,4,2,1,58,0,0
42734,-200,4,2,1,58,0,0
42842,-100,4,2,1,58,0,0
43806,-83.3333333333333,4,2,1,58,0,0
44342,-133.333333333333,4,2,1,58,0,0
44556,-100,4,2,1,58,0,0
46270,-76.9230769230769,4,2,1,58,0,0
46431,-125,4,2,1,58,0,0
46591,-100,4,2,1,58,0,0
53127,-83.3333333333333,4,2,1,58,0,0
54841,-74.0740740740741,4,2,1,58,0,0
56555,-66.6666666666667,4,2,1,58,0,0
59983,-90.9090909090909,4,2,1,58,0,0
61697,-90.9090909090909,4,2,1,58,0,1
62126,-90.9090909090909,4,2,1,58,0,0
75411,-76.9230769230769,4,2,1,58,0,1
75571,-125,4,2,1,58,0,0
75732,-76.9230769230769,4,2,1,58,0,0
75893,-125,4,2,1,58,0,0
76054,-76.9230769230769,4,2,1,58,0,0
76161,-125,4,2,1,58,0,0
76268,-100,4,2,1,58,0,0
78839,-76.9230769230769,4,2,1,58,0,0
79000,-125,4,2,1,58,0,0
79160,-76.9230769230769,4,2,1,58,0,0
79321,-125,4,2,1,58,0,0
79482,-76.9230769230769,4,2,1,58,0,0
79589,-125,4,2,1,58,0,0
79696,-100,4,2,1,58,0,0
89338,-100,4,2,1,5,0,0
95552,-100,4,3,1,55,0,0
95981,-100,4,2,1,58,0,1
97695,-100,4,2,1,58,0,0
116551,-100,4,3,1,58,0,0
120193,-90.9090909090909,4,2,1,58,0,1
137121,-76.9230769230769,4,2,1,58,0,1
137281,-125,4,2,1,58,0,0
137442,-76.9230769230769,4,2,1,58,0,0
137603,-125,4,2,1,58,0,0
137763,-76.9230769230769,4,2,1,58,0,0
137871,-125,4,2,1,58,0,0
137978,-100,4,2,1,58,0,0
140549,-66.6666666666667,4,2,1,58,0,0
140710,-125,4,2,1,58,0,0
140870,-66.6666666666667,4,2,1,58,0,0
141031,-125,4,2,1,58,0,0
141192,-133.333333333333,4,2,1,58,0,0
141406,-100,4,2,1,58,0,0
154262,-125,4,2,0,5,0,0
163208,-200,4,2,0,5,0,0
163476,-125,4,2,0,5,0,0
173118,-111.111111111111,4,2,0,5,0,0
174832,-100,4,2,0,5,0,0
176546,-89.2857142857143,4,2,0,5,0,0
178261,-86.2068965517241,4,2,0,5,0,0
179975,-83.3333333333333,4,2,0,58,0,0
181689,-33.3333333333333,4,2,1,58,0,1
182225,-66.6666666666667,4,2,1,58,0,0
182439,-100,4,2,1,58,0,0
182546,-100,4,2,1,58,0,0
185117,-33.3333333333333,4,2,1,58,0,0
185224,-66.6666666666667,4,2,1,58,0,0
185331,-133.333333333333,4,2,1,58,0,0
185439,-100,4,2,1,58,0,0
188546,-1000,4,2,1,58,0,0
189188,-50,4,2,1,58,0,0
189242,-66.6666666666667,4,2,1,58,0,0
189295,-100,4,2,1,58,0,0
189403,-100,4,2,1,58,0,0
195402,-33.3333333333333,4,2,1,58,0,1
195938,-58.8235294117647,4,2,1,58,0,0
196152,-100,4,2,1,58,0,0
196259,-100,4,2,1,58,0,0
198830,-58.8235294117647,4,2,1,58,0,0
198938,-133.333333333333,4,2,1,58,0,0
199045,-100,4,2,1,58,0,0
202366,-100,4,2,1,5,0,0
203116,-100,4,2,1,55,0,0
209544,-83.3333333333333,4,2,1,55,0,0
209973,-83.3333333333333,4,2,1,55,0,0
212544,-100,4,3,1,55,0,1
222829,-76.9230769230769,4,3,1,55,0,1
222989,-125,4,3,1,55,0,0
223150,-76.9230769230769,4,3,1,55,0,0
223311,-125,4,3,1,55,0,0
223472,-76.9230769230769,4,3,1,55,0,0
223579,-125,4,3,1,55,0,0
223686,-100,4,3,1,55,0,0
226257,-66.6666666666667,4,3,1,55,0,0
226418,-125,4,3,1,55,0,0
226578,-66.6666666666667,4,3,1,55,0,0
226739,-125,4,3,1,55,0,0
226900,-76.9230769230769,4,3,1,55,0,0
227007,-125,4,3,1,55,0,0
227114,-100,4,3,1,55,0,0
236756,-100,4,2,1,5,0,0

[HitObjects]
64,192,310,5,0,0:0:0:0:
448,192,1917,1,0,0:0:0:0:
192,192,3417,1,0,0:0:0:0:
448,192,5131,1,0,0:0:0:0:
448,192,6845,1,0,0:0:0:0:
448,192,7274,1,0,0:0:0:0:
64,192,8559,1,0,0:0:0:0:
64,192,10273,1,0,0:0:0:0:
64,192,10702,1,0,0:0:0:0:
320,192,11988,1,0,0:0:0:0:
320,192,13702,1,0,0:0:0:0:
320,192,14130,1,0,0:0:0:0:
192,192,15416,1,0,0:0:0:0:
192,192,17130,1,0,0:0:0:0:
192,192,17559,1,0,0:0:0:0:
448,192,18844,128,0,20558:0:0:0:0:
192,192,20558,1,0,0:0:0:0:
320,192,20772,1,0,0:0:0:0:
448,192,20986,128,0,21415:0:0:0:0:
320,192,21415,1,0,0:0:0:0:
64,192,21629,1,0,0:0:0:0:
320,192,21843,1,0,0:0:0:0:
192,192,22057,1,0,0:0:0:0:
320,192,22272,1,0,0:0:0:0:
448,192,22272,1,0,0:0:0:0:
192,192,22486,1,0,0:0:0:0:
64,192,22593,1,0,0:0:0:0:
448,192,22700,128,0,22914:0:0:0:0:
64,192,23129,1,0,0:0:0:0:
192,192,23236,1,0,0:0:0:0:
320,192,23343,1,0,0:0:0:0:
448,192,23450,1,0,0:0:0:0:
320,192,23557,1,0,0:0:0:0:
192,192,23664,1,0,0:0:0:0:
64,192,23772,1,0,0:0:0:0:
448,192,23986,1,0,0:0:0:0:
320,192,23986,1,0,0:0:0:0:
192,192,24200,1,0,0:0:0:0:
448,192,24414,1,0,0:0:0:0:
64,192,24629,1,0,0:0:0:0:
320,192,24843,1,0,0:0:0:0:
320,192,25164,1,0,0:0:0:0:
320,192,25486,1,0,0:0:0:0:
64,192,25700,1,0,0:0:0:0:
192,192,26021,1,0,0:0:0:0:
448,192,26343,1,0,0:0:0:0:
64,192,26557,1,0,0:0:0:0:
192,192,26557,1,0,0:0:0:0:
192,192,26878,1,0,0:0:0:0:
64,192,26878,1,0,0:0:0:0:
320,192,27414,128,0,28271:0:0:0:0:
64,192,28271,128,0,29128:0:0:0:0:
448,192,29128,1,0,0:0:0:0:
320,192,29343,1,0,0:0:0:0:
192,192,29450,1,0,0:0:0:0:
64,192,29557,128,0,29771:0:0:0:0:
192,192,29985,1,0,0:0:0:0:
64,192,30093,1,0,0:0:0:0:
192,192,30200,1,0,0:0:0:0:
320,192,30307,1,0,0:0:0:0:
448,192,30414,1,0,0:0:0:0:
320,192,30521,1,0,0:0:0:0:
64,192,30842,1,0,0:0:0:0:
448,192,31057,1,0,0:0:0:0:
64,192,31271,1,0,0:0:0:0:
320,192,31700,1,0,0:0:0:0:
64,192,31700,1,0,0:0:0:0:
448,192,31700,1,0,0:0:0:0:
192,192,31914,1,0,0:0:0:0:
320,192,32128,1,0,0:0:0:0:
64,192,32557,1,0,0:0:0:0:
448,192,32557,1,0,0:0:0:0:
64,192,32878,1,0,0:0:0:0:
448,192,32878,1,0,0:0:0:0:
192,192,33199,1,0,0:0:0:0:
320,192,33199,1,0,0:0:0:0:
448,192,33414,1,0,0:0:0:0:
64,192,33414,1,0,0:0:0:0:
192,192,33735,1,0,0:0:0:0:
320,192,33735,1,0,0:0:0:0:
64,192,34057,1,0,0:0:0:0:
448,192,34057,1,0,0:0:0:0:
192,192,34271,1,0,0:0:0:0:
320,192,34271,1,0,0:0:0:0:
448,192,34699,1,0,0:0:0:0:
192,192,35128,128,0,35985:0:0:0:0:
448,192,35128,1,0,0:0:0:0:
320,192,35985,1,0,0:0:0:0:
64,192,36306,1,0,0:0:0:0:
192,192,36306,1,0,0:0:0:0:
320,192,36628,1,0,0:0:0:0:
448,192,36628,1,0,0:0:0:0:
64,192,36842,1,0,0:0:0:0:
192,192,36949,1,0,0:0:0:0:
320,192,37056,1,0,0:0:0:0:
448,192,37163,1,0,0:0:0:0:
320,192,37271,1,0,0:0:0:0:
192,192,37378,1,0,0:0:0:0:
64,192,37485,1,0,0:0:0:0:
448,192,37699,1,0,0:0:0:0:
320,192,37699,1,0,0:0:0:0:
320,192,38128,1,0,0:0:0:0:
64,192,38556,1,0,0:0:0:0:
192,192,38556,1,0,0:0:0:0:
448,192,38770,1,0,0:0:0:0:
192,192,38985,1,0,0:0:0:0:
320,192,39092,1,0,0:0:0:0:
192,192,39199,1,0,0:0:0:0:
448,192,39413,1,0,0:0:0:0:
64,192,39413,1,0,0:0:0:0:
448,192,39735,1,0,0:0:0:0:
64,192,39735,1,0,0:0:0:0:
192,192,40056,1,0,0:0:0:0:
320,192,40056,1,0,0:0:0:0:
64,192,40270,1,0,0:0:0:0:
448,192,40270,1,0,0:0:0:0:
192,192,40592,1,0,0:0:0:0:
320,192,40592,1,0,0:0:0:0:
448,192,41127,128,0,41449:0:0:0:0:
192,192,41449,1,0,0:0:0:0:
320,192,41556,1,0,0:0:0:0:
192,192,41663,1,0,0:0:0:0:
320,192,41770,1,0,0:0:0:0:
64,192,41877,1,0,0:0:0:0:
192,192,41877,1,0,0:0:0:0:
448,192,41985,128,0,42842:0:0:0:0:
192,192,42199,1,0,0:0:0:0:
64,192,42413,1,0,0:0:0:0:
320,192,42627,1,0,0:0:0:0:
192,192,42842,1,0,0:0:0:0:
320,192,43056,1,0,0:0:0:0:
192,192,43270,128,0,43484:0:0:0:0:
64,192,43270,128,0,43484:0:0:0:0:
448,192,43270,1,0,0:0:0:0:
320,192,43484,1,0,0:0:0:0:
448,192,43699,1,0,0:0:0:0:
192,192,43806,1,0,0:0:0:0:
320,192,43913,1,0,0:0:0:0:
448,192,44020,1,0,0:0:0:0:
320,192,44127,1,0,0:0:0:0:
192,192,44234,1,0,0:0:0:0:
64,192,44342,128,0,44556:0:0:0:0:
448,192,44556,1,0,0:0:0:0:
320,192,44663,1,0,0:0:0:0:
192,192,44770,1,0,0:0:0:0:
64,192,44877,1,0,0:0:0:0:
448,192,44984,1,0,0:0:0:0:
320,192,45091,1,0,0:0:0:0:
192,192,45199,1,0,0:0:0:0:
320,192,45306,1,0,0:0:0:0:
448,192,45413,1,0,0:0:0:0:
64,192,45627,1,0,0:0:0:0:
192,192,45841,1,0,0:0:0:0:
448,192,46270,1,0,0:0:0:0:
320,192,46270,1,0,0:0:0:0:
64,192,46591,1,0,0:0:0:0:
192,192,46591,1,0,0:0:0:0:
320,192,46913,1,0,0:0:0:0:
448,192,47127,1,0,0:0:0:0:
192,192,47127,1,0,0:0:0:0:
64,192,47448,1,0,0:0:0:0:
320,192,47448,1,0,0:0:0:0:
448,192,47770,1,0,0:0:0:0:
192,192,47770,1,0,0:0:0:0:
64,192,47984,1,0,0:0:0:0:
320,192,47984,1,0,0:0:0:0:
192,192,48413,1,0,0:0:0:0:
320,192,48948,1,0,0:0:0:0:
448,192,49805,1,0,0:0:0:0:
64,192,51412,128,0,59983:0:0:0:0:
320,192,54841,5,0,0:0:0:0:
448,192,56555,1,0,0:0:0:0:
192,192,58269,1,0,0:0:0:0:
448,192,59983,1,0,0:0:0:0:
320,192,60198,1,0,0:0:0:0:
64,192,60412,1,0,0:0:0:0:
192,192,60626,1,0,0:0:0:0:
320,192,60840,1,0,0:0:0:0:
448,192,61055,1,0,0:0:0:0:
192,192,61269,1,0,0:0:0:0:
448,192,61483,1,0,0:0:0:0:
192,192,61697,1,0,0:0:0:0:
64,192,61697,1,0,0:0:0:0:
320,192,62126,1,0,0:0:0:0:
448,192,62555,1,0,0:0:0:0:
192,192,62555,1,0,0:0:0:0:
320,192,62983,1,0,0:0:0:0:
448,192,63412,1,0,0:0:0:0:
64,192,63412,1,0,0:0:0:0:
320,192,63626,1,0,0:0:0:0:
192,192,63840,1,0,0:0:0:0:
64,192,64269,1,0,0:0:0:0:
448,192,64269,1,0,0:0:0:0:
192,192,64483,1,0,0:0:0:0:
320,192,64697,1,0,0:0:0:0:
448,192,64911,1,0,0:0:0:0:
64,192,65126,1,0,0:0:0:0:
320,192,65126,1,0,0:0:0:0:
192,192,65554,1,0,0:0:0:0:
320,192,65983,1,0,0:0:0:0:
64,192,65983,1,0,0:0:0:0:
192,192,66197,1,0,0:0:0:0:
320,192,66411,1,0,0:0:0:0:
448,192,66626,1,0,0:0:0:0:
320,192,66840,1,0,0:0:0:0:
192,192,67054,1,0,0:0:0:0:
320,192,67268,1,0,0:0:0:0:
192,192,67483,1,0,0:0:0:0:
448,192,67697,1,0,0:0:0:0:
64,192,67697,1,0,0:0:0:0:
320,192,67911,1,0,0:0:0:0:
192,192,68126,1,0,0:0:0:0:
64,192,68340,1,0,0:0:0:0:
192,192,68554,1,0,0:0:0:0:
320,192,68554,1,0,0:0:0:0:
320,192,68983,1,0,0:0:0:0:
448,192,69411,1,0,0:0:0:0:
64,192,69411,1,0,0:0:0:0:
192,192,69625,1,0,0:0:0:0:
64,192,69840,1,0,0:0:0:0:
320,192,70054,1,0,0:0:0:0:
448,192,70268,1,0,0:0:0:0:
64,192,70268,1,0,0:0:0:0:
320,192,70697,1,0,0:0:0:0:
64,192,71125,1,0,0:0:0:0:
448,192,71125,1,0,0:0:0:0:
320,192,71340,1,0,0:0:0:0:
448,192,71554,1,0,0:0:0:0:
192,192,71768,1,0,0:0:0:0:
448,192,71982,1,0,0:0:0:0:
64,192,71982,1,0,0:0:0:0:
192,192,72197,1,0,0:0:0:0:
320,192,72411,1,0,0:0:0:0:
192,192,72625,1,0,0:0:0:0:
448,192,72839,1,0,0:0:0:0:
64,192,72839,1,0,0:0:0:0:
320,192,73054,1,0,0:0:0:0:
192,192,73268,1,0,0:0:0:0:
64,192,73268,1,0,0:0:0:0:
320,192,73482,1,0,0:0:0:0:
64,192,73697,1,0,0:0:0:0:
448,192,73697,1,0,0:0:0:0:
320,192,74018,1,0,0:0:0:0:
192,192,74018,1,0,0:0:0:0:
448,192,74339,1,0,0:0:0:0:
64,192,74339,1,0,0:0:0:0:
448,192,74661,1,0,0:0:0:0:
320,192,74661,1,0,0:0:0:0:
64,192,74982,1,0,0:0:0:0:
192,192,75089,1,0,0:0:0:0:
448,192,75196,1,0,0:0:0:0:
64,192,75196,1,0,0:0:0:0:
192,192,75304,1,0,0:0:0:0:
320,192,75304,1,0,0:0:0:0:
448,192,75411,1,0,0:0:0:0:
320,192,75732,1,0,0:0:0:0:
320,192,76054,1,0,0:0:0:0:
192,192,76268,1,0,0:0:0:0:
64,192,76268,1,0,0:0:0:0:
320,192,76482,1,0,0:0:0:0:
448,192,76696,1,0,0:0:0:0:
192,192,76911,1,0,0:0:0:0:
64,192,77125,1,0,0:0:0:0:
320,192,77446,1,0,0:0:0:0:
192,192,77768,1,0,0:0:0:0:
64,192,77982,1,0,0:0:0:0:
448,192,77982,1,0,0:0:0:0:
64,192,78839,1,0,0:0:0:0:
192,192,79160,1,0,0:0:0:0:
192,192,79482,1,0,0:0:0:0:
320,192,79696,1,0,0:0:0:0:
448,192,79696,1,0,0:0:0:0:
192,192,79910,1,0,0:0:0:0:
64,192,80125,1,0,0:0:0:0:
320,192,80339,1,0,0:0:0:0:
448,192,80553,1,0,0:0:0:0:
192,192,80875,1,0,0:0:0:0:
192,192,81196,1,0,0:0:0:0:
448,192,81410,1,0,0:0:0:0:
320,192,81410,1,0,0:0:0:0:
64,192,81839,1,0,0:0:0:0:
192,192,81839,1,0,0:0:0:0:
448,192,82053,1,0,0:0:0:0:
320,192,82160,1,0,0:0:0:0:
192,192,82267,1,0,0:0:0:0:
64,192,82267,1,0,0:0:0:0:
64,192,82910,1,0,0:0:0:0:
192,192,83017,1,0,0:0:0:0:
320,192,83124,1,0,0:0:0:0:
448,192,83124,1,0,0:0:0:0:
192,192,83339,1,0,0:0:0:0:
64,192,83553,1,0,0:0:0:0:
192,192,83767,1,0,0:0:0:0:
448,192,83982,1,0,0:0:0:0:
320,192,83982,1,0,0:0:0:0:
192,192,84303,1,0,0:0:0:0:
320,192,84624,1,0,0:0:0:0:
64,192,84839,1,0,0:0:0:0:
448,192,84839,1,0,0:0:0:0:
192,192,85053,1,0,0:0:0:0:
320,192,85267,1,0,0:0:0:0:
64,192,85481,1,0,0:0:0:0:
192,192,85589,1,0,0:0:0:0:
320,192,85696,1,0,0:0:0:0:
448,192,85696,1,0,0:0:0:0:
64,192,86339,1,0,0:0:0:0:
192,192,86446,1,0,0:0:0:0:
320,192,86446,1,0,0:0:0:0:
448,192,86553,1,0,0:0:0:0:
320,192,86981,1,0,0:0:0:0:
192,192,86981,1,0,0:0:0:0:
64,192,87196,1,0,0:0:0:0:
192,192,87303,1,0,0:0:0:0:
448,192,87410,1,0,0:0:0:0:
320,192,87410,1,0,0:0:0:0:
64,192,87731,1,0,0:0:0:0:
448,192,88053,1,0,0:0:0:0:
320,192,88053,1,0,0:0:0:0:
192,192,88374,1,0,0:0:0:0:
64,192,88695,1,0,0:0:0:0:
192,192,88803,1,0,0:0:0:0:
320,192,88910,1,0,0:0:0:0:
192,192,89017,1,0,0:0:0:0:
320,192,89124,1,0,0:0:0:0:
448,192,89124,1,0,0:0:0:0:
64,192,89338,1,0,0:0:0:0:
192,192,89553,1,0,0:0:0:0:
320,192,89767,1,0,0:0:0:0:
448,192,89981,1,0,0:0:0:0:
192,192,90838,1,0,0:0:0:0:
320,192,91052,1,0,0:0:0:0:
64,192,91267,1,0,0:0:0:0:
448,192,91481,1,0,0:0:0:0:
448,192,91910,1,0,0:0:0:0:
320,192,92124,1,0,0:0:0:0:
192,192,92338,1,0,0:0:0:0:
64,192,92767,1,0,0:0:0:0:
192,192,92981,1,0,0:0:0:0:
320,192,93195,5,0,0:0:0:0:
448,192,93409,1,0,0:0:0:0:
320,192,93838,1,0,0:0:0:0:
64,192,94267,128,0,95552:0:0:0:0:
320,192,95552,1,0,0:0:0:0:
192,192,95659,1,0,0:0:0:0:
320,192,95766,1,0,0:0:0:0:
192,192,95874,1,0,0:0:0:0:
448,192,95981,128,0,96623:0:0:0:0:
320,192,95981,1,0,0:0:0:0:
320,192,96623,1,0,0:0:0:0:
192,192,96838,1,0,0:0:0:0:
64,192,96838,1,0,0:0:0:0:
448,192,97052,1,0,0:0:0:0:
64,192,97266,1,0,0:0:0:0:
320,192,97481,1,0,0:0:0:0:
64,192,97695,1,0,0:0:0:0:
192,192,97695,1,0,0:0:0:0:
64,192,98016,1,0,0:0:0:0:
192,192,98016,1,0,0:0:0:0:
448,192,98123,128,0,98338:0:0:0:0:
64,192,98338,1,0,0:0:0:0:
320,192,98552,1,0,0:0:0:0:
192,192,98659,1,0,0:0:0:0:
64,192,98766,1,0,0:0:0:0:
192,192,98873,1,0,0:0:0:0:
320,192,98980,1,0,0:0:0:0:
448,192,99088,1,0,0:0:0:0:
320,192,99195,1,0,0:0:0:0:
64,192,99409,1,0,0:0:0:0:
192,192,99409,1,0,0:0:0:0:
448,192,100266,1,0,0:0:0:0:
64,192,100266,1,0,0:0:0:0:
64,192,100587,1,0,0:0:0:0:
320,192,100587,1,0,0:0:0:0:
64,192,100909,1,0,0:0:0:0:
192,192,100909,1,0,0:0:0:0:
448,192,101123,1,0,0:0:0:0:
320,192,101445,1,0,0:0:0:0:
192,192,101766,1,0,0:0:0:0:
448,192,101980,1,0,0:0:0:0:
64,192,101980,1,0,0:0:0:0:
192,192,102302,1,0,0:0:0:0:
448,192,102302,1,0,0:0:0:0:
320,192,102623,1,0,0:0:0:0:
448,192,102623,1,0,0:0:0:0:
192,192,102837,128,0,103694:0:0:0:0:
320,192,103694,1,0,0:0:0:0:
64,192,103909,128,0,104552:0:0:0:0:
320,192,104552,1,0,0:0:0:0:
192,192,104766,1,0,0:0:0:0:
320,192,104873,1,0,0:0:0:0:
448,192,104980,128,0,105194:0:0:0:0:
192,192,105194,1,0,0:0:0:0:
320,192,105409,1,0,0:0:0:0:
448,192,105623,1,0,0:0:0:0:
192,192,105837,1,0,0:0:0:0:
64,192,106051,1,0,0:0:0:0:
320,192,106266,1,0,0:0:0:0:
192,192,106266,1,0,0:0:0:0:
448,192,106373,1,0,0:0:0:0:
64,192,106480,1,0,0:0:0:0:
448,192,106587,1,0,0:0:0:0:
192,192,106694,1,0,0:0:0:0:
320,192,106908,1,0,0:0:0:0:
192,192,107123,1,0,0:0:0:0:
64,192,107123,1,0,0:0:0:0:
320,192,107337,1,0,0:0:0:0:
192,192,107551,1,0,0:0:0:0:
320,192,107980,1,0,0:0:0:0:
448,192,107980,1,0,0:0:0:0:
192,192,108301,1,0,0:0:0:0:
192,192,108623,1,0,0:0:0:0:
64,192,108837,1,0,0:0:0:0:
448,192,108837,1,0,0:0:0:0:
64,192,109158,1,0,0:0:0:0:
192,192,109158,1,0,0:0:0:0:
448,192,109480,1,0,0:0:0:0:
320,192,109480,1,0,0:0:0:0:
64,192,109694,128,0,110765:0:0:0:0:
192,192,110551,1,0,0:0:0:0:
320,192,110551,1,0,0:0:0:0:
448,192,110765,128,0,111408:0:0:0:0:
64,192,111408,1,0,0:0:0:0:
320,192,111730,1,0,0:0:0:0:
192,192,112051,1,0,0:0:0:0:
448,192,112265,1,0,0:0:0:0:
320,192,112372,1,0,0:0:0:0:
192,192,112480,1,0,0:0:0:0:
64,192,112587,1,0,0:0:0:0:
192,192,112694,1,0,0:0:0:0:
320,192,112801,1,0,0:0:0:0:
448,192,112908,1,0,0:0:0:0:
320,192,113122,1,0,0:0:0:0:
192,192,113122,1,0,0:0:0:0:
320,192,113551,1,0,0:0:0:0:
64,192,113979,1,0,0:0:0:0:
448,192,113979,1,0,0:0:0:0:
192,192,114408,1,0,0:0:0:0:
448,192,114836,1,0,0:0:0:0:
320,192,114836,1,0,0:0:0:0:
448,192,115158,1,0,0:0:0:0:
192,192,115158,1,0,0:0:0:0:
192,192,115479,1,0,0:0:0:0:
64,192,115694,1,0,0:0:0:0:
448,192,115694,1,0,0:0:0:0:
448,192,116015,1,0,0:0:0:0:
64,192,116015,1,0,0:0:0:0:
192,192,116283,1,0,0:0:0:0:
320,192,116283,1,0,0:0:0:0:
448,192,116551,1,0,0:0:0:0:
64,192,116551,1,0,0:0:0:0:
192,192,118479,1,0,0:0:0:0:
448,192,119336,1,0,0:0:0:0:
448,192,120836,1,0,0:0:0:0:
320,192,120943,1,0,0:0:0:0:
192,192,121050,1,0,0:0:0:0:
320,192,121157,1,0,0:0:0:0:
448,192,121265,1,0,0:0:0:0:
192,192,121372,1,0,0:0:0:0:
320,192,121479,1,0,0:0:0:0:
192,192,121586,1,0,0:0:0:0:
64,192,121693,1,0,0:0:0:0:
448,192,121693,1,0,0:0:0:0:
192,192,122015,1,0,0:0:0:0:
320,192,122015,1,0,0:0:0:0:
448,192,122336,1,0,0:0:0:0:
64,192,122336,1,0,0:0:0:0:
192,192,122550,1,0,0:0:0:0:
320,192,122550,1,0,0:0:0:0:
448,192,122764,1,0,0:0:0:0:
64,192,122764,1,0,0:0:0:0:
192,192,122979,1,0,0:0:0:0:
320,192,123086,1,0,0:0:0:0:
192,192,123193,1,0,0:0:0:0:
320,192,123300,1,0,0:0:0:0:
192,192,123407,128,0,123836:0:0:0:0:
448,192,123836,128,0,124264:0:0:0:0:
320,192,124264,128,0,124479:0:0:0:0:
64,192,124264,1,0,0:0:0:0:
192,192,124479,128,0,124693:0:0:0:0:
320,192,124693,128,0,125121:0:0:0:0:
192,192,125121,128,0,125550:0:0:0:0:
64,192,125550,128,0,125979:0:0:0:0:
192,192,125979,128,0,126193:0:0:0:0:
448,192,125979,1,0,0:0:0:0:
64,192,126193,128,0,126407:0:0:0:0:
192,192,126407,128,0,126621:0:0:0:0:
320,192,126621,128,0,126836:0:0:0:0:
448,192,126836,128,0,127264:0:0:0:0:
320,192,127264,128,0,127693:0:0:0:0:
448,192,127693,1,0,0:0:0:0:
64,192,127693,1,0,0:0:0:0:
192,192,127907,1,0,0:0:0:0:
320,192,128121,1,0,0:0:0:0:
448,192,128336,1,0,0:0:0:0:
320,192,128550,1,0,0:0:0:0:
192,192,128764,1,0,0:0:0:0:
64,192,128978,1,0,0:0:0:0:
192,192,129193,1,0,0:0:0:0:
448,192,129407,128,0,129621:0:0:0:0:
64,192,129407,1,0,0:0:0:0:
320,192,129621,128,0,129835:0:0:0:0:
192,192,129835,128,0,130050:0:0:0:0:
64,192,130050,128,0,130264:0:0:0:0:
448,192,130264,128,0,130692:0:0:0:0:
64,192,130692,128,0,131121:0:0:0:0:
192,192,131121,1,0,0:0:0:0:
320,192,131335,1,0,0:0:0:0:
64,192,131550,1,0,0:0:0:0:
192,192,131764,1,0,0:0:0:0:
320,192,131978,128,0,132407:0:0:0:0:
448,192,131978,1,0,0:0:0:0:
192,192,132407,128,0,132835:0:0:0:0:
320,192,132835,1,0,0:0:0:0:
64,192,133049,1,0,0:0:0:0:
192,192,133264,1,0,0:0:0:0:
448,192,133478,128,0,133692:0:0:0:0:
320,192,133692,1,0,0:0:0:0:
64,192,133907,1,0,0:0:0:0:
192,192,134121,1,0,0:0:0:0:
64,192,134335,1,0,0:0:0:0:
448,192,134549,1,0,0:0:0:0:
192,192,134549,1,0,0:0:0:0:
320,192,134764,1,0,0:0:0:0:
192,192,134978,1,0,0:0:0:0:
448,192,134978,1,0,0:0:0:0:
64,192,135192,1,0,0:0:0:0:
192,192,135299,1,0,0:0:0:0:
448,192,135406,1,0,0:0:0:0:
320,192,135406,1,0,0:0:0:0:
320,192,135728,1,0,0:0:0:0:
192,192,135728,1,0,0:0:0:0:
448,192,136049,1,0,0:0:0:0:
64,192,136049,1,0,0:0:0:0:
192,192,136371,1,0,0:0:0:0:
320,192,136371,1,0,0:0:0:0:
64,192,136692,1,0,0:0:0:0:
448,192,137121,1,0,0:0:0:0:
320,192,137121,1,0,0:0:0:0:
192,192,137442,1,0,0:0:0:0:
192,192,137763,1,0,0:0:0:0:
448,192,137978,1,0,0:0:0:0:
64,192,137978,1,0,0:0:0:0:
192,192,138192,1,0,0:0:0:0:
320,192,138406,1,0,0:0:0:0:
448,192,138620,1,0,0:0:0:0:
64,192,138835,1,0,0:0:0:0:
64,192,139156,1,0,0:0:0:0:
64,192,139478,1,0,0:0:0:0:
320,192,139692,1,0,0:0:0:0:
448,192,139692,1,0,0:0:0:0:
64,192,139906,1,0,0:0:0:0:
448,192,140120,1,0,0:0:0:0:
192,192,140335,1,0,0:0:0:0:
448,192,140549,1,0,0:0:0:0:
320,192,140549,1,0,0:0:0:0:
192,192,140870,1,0,0:0:0:0:
64,192,141192,1,0,0:0:0:0:
320,192,141406,1,0,0:0:0:0:
448,192,141406,1,0,0:0:0:0:
448,192,142049,1,0,0:0:0:0:
320,192,142156,1,0,0:0:0:0:
192,192,142263,1,0,0:0:0:0:
64,192,142263,1,0,0:0:0:0:
192,192,142584,1,0,0:0:0:0:
320,192,142584,1,0,0:0:0:0:
64,192,143120,1,0,0:0:0:0:
192,192,143120,1,0,0:0:0:0:
64,192,143549,1,0,0:0:0:0:
448,192,143549,1,0,0:0:0:0:
64,192,143763,1,0,0:0:0:0:
448,192,143763,1,0,0:0:0:0:
320,192,143870,1,0,0:0:0:0:
192,192,143870,1,0,0:0:0:0:
64,192,143977,1,0,0:0:0:0:
448,192,143977,1,0,0:0:0:0:
64,192,144834,1,0,0:0:0:0:
192,192,144834,1,0,0:0:0:0:
448,192,145263,1,0,0:0:0:0:
64,192,145691,1,0,0:0:0:0:
192,192,145691,1,0,0:0:0:0:
448,192,146013,1,0,0:0:0:0:
320,192,146334,1,0,0:0:0:0:
192,192,146549,1,0,0:0:0:0:
64,192,146549,1,0,0:0:0:0:
448,192,147191,1,0,0:0:0:0:
320,192,147298,1,0,0:0:0:0:
192,192,147298,1,0,0:0:0:0:
64,192,147406,1,0,0:0:0:0:
448,192,148048,1,0,0:0:0:0:
320,192,148156,1,0,0:0:0:0:
192,192,148263,1,0,0:0:0:0:
64,192,148263,1,0,0:0:0:0:
448,192,148691,1,0,0:0:0:0:
64,192,148691,1,0,0:0:0:0:
192,192,148905,1,0,0:0:0:0:
320,192,149013,1,0,0:0:0:0:
64,192,149120,1,0,0:0:0:0:
192,192,149120,1,0,0:0:0:0:
448,192,149441,1,0,0:0:0:0:
320,192,149441,1,0,0:0:0:0:
64,192,149763,5,0,0:0:0:0:
192,192,149763,1,0,0:0:0:0:
448,192,150084,1,0,0:0:0:0:
64,192,150084,1,0,0:0:0:0:
448,192,150405,1,0,0:0:0:0:
320,192,150513,1,0,0:0:0:0:
448,192,150620,1,0,0:0:0:0:
320,192,150727,1,0,0:0:0:0:
192,192,150834,1,0,0:0:0:0:
64,192,150834,1,0,0:0:0:0:
192,192,154262,1,0,0:0:0:0:
320,192,154477,1,0,0:0:0:0:
64,192,154691,1,0,0:0:0:0:
320,192,154905,1,0,0:0:0:0:
448,192,155119,1,0,0:0:0:0:
64,192,155334,1,0,0:0:0:0:
320,192,155548,1,0,0:0:0:0:
192,192,155762,1,0,0:0:0:0:
64,192,155976,1,0,0:0:0:0:
448,192,155976,128,0,156619:0:0:0:0:
192,192,156619,1,0,0:0:0:0:
320,192,157262,1,0,0:0:0:0:
64,192,157476,1,0,0:0:0:0:
448,192,157691,1,0,0:0:0:0:
192,192,157905,1,0,0:0:0:0:
448,192,158119,1,0,0:0:0:0:
64,192,158333,1,0,0:0:0:0:
320,192,158548,1,0,0:0:0:0:
64,192,158762,1,0,0:0:0:0:
320,192,158976,1,0,0:0:0:0:
192,192,159190,1,0,0:0:0:0:
448,192,159405,1,0,0:0:0:0:
64,192,159619,1,0,0:0:0:0:
448,192,159833,1,0,0:0:0:0:
320,192,160048,1,0,0:0:0:0:
64,192,160262,1,0,0:0:0:0:
448,192,160476,1,0,0:0:0:0:
192,192,160690,1,0,0:0:0:0:
320,192,160905,1,0,0:0:0:0:
448,192,161119,128,0,162833:0:0:0:0:
64,192,161119,1,0,0:0:0:0:
320,192,161333,1,0,0:0:0:0:
64,192,161547,1,0,0:0:0:0:
192,192,161762,1,0,0:0:0:0:
320,192,161976,1,0,0:0:0:0:
64,192,162190,1,0,0:0:0:0:
320,192,162405,1,0,0:0:0:0:
192,192,162619,1,0,0:0:0:0:
64,192,162833,128,0,163476:0:0:0:0:
320,192,163476,128,0,164119:0:0:0:0:
192,192,164119,128,0,167976:0:0:0:0:
64,192,164547,1,0,0:0:0:0:
448,192,164761,1,0,0:0:0:0:
64,192,164976,1,0,0:0:0:0:
320,192,165404,1,0,0:0:0:0:
64,192,165619,1,0,0:0:0:0:
448,192,165833,1,0,0:0:0:0:
320,192,166261,1,0,0:0:0:0:
64,192,166476,1,0,0:0:0:0:
448,192,166690,1,0,0:0:0:0:
448,192,167118,1,0,0:0:0:0:
64,192,167333,1,0,0:0:0:0:
320,192,167547,1,0,0:0:0:0:
448,192,167761,1,0,0:0:0:0:
64,192,167976,1,0,0:0:0:0:
64,192,168833,1,0,0:0:0:0:
192,192,169047,1,0,0:0:0:0:
448,192,169261,1,0,0:0:0:0:
320,192,169475,1,0,0:0:0:0:
64,192,169690,1,0,0:0:0:0:
320,192,169904,1,0,0:0:0:0:
192,192,170118,1,0,0:0:0:0:
448,192,170333,1,0,0:0:0:0:
64,192,170547,1,0,0:0:0:0:
320,192,170761,1,0,0:0:0:0:
64,192,170975,1,0,0:0:0:0:
320,192,171190,1,0,0:0:0:0:
192,192,171404,1,0,0:0:0:0:
448,192,171832,1,0,0:0:0:0:
64,192,172047,1,0,0:0:0:0:
448,192,172261,1,0,0:0:0:0:
192,192,172475,1,0,0:0:0:0:
448,192,172689,1,0,0:0:0:0:
320,192,172904,1,0,0:0:0:0:
448,192,173118,1,0,0:0:0:0:
448,192,173547,1,0,0:0:0:0:
320,192,173761,1,0,0:0:0:0:
448,192,173975,1,0,0:0:0:0:
192,192,174189,1,0,0:0:0:0:
448,192,174404,1,0,0:0:0:0:
64,192,174618,1,0,0:0:0:0:
448,192,174832,1,0,0:0:0:0:
448,192,175261,1,0,0:0:0:0:
64,192,175475,1,0,0:0:0:0:
448,192,175689,1,0,0:0:0:0:
192,192,175904,1,0,0:0:0:0:
448,192,176118,1,0,0:0:0:0:
320,192,176332,1,0,0:0:0:0:
448,192,176546,1,0,0:0:0:0:
192,192,176761,1,0,0:0:0:0:
448,192,176975,1,0,0:0:0:0:
64,192,177189,1,0,0:0:0:0:
448,192,177403,1,0,0:0:0:0:
192,192,177618,1,0,0:0:0:0:
448,192,177832,1,0,0:0:0:0:
320,192,178046,1,0,0:0:0:0:
64,192,178261,1,0,0:0:0:0:
192,192,178689,1,0,0:0:0:0:
320,192,178903,1,0,0:0:0:0:
64,192,179118,1,0,0:0:0:0:
448,192,179332,1,0,0:0:0:0:
192,192,179546,1,0,0:0:0:0:
448,192,179760,1,0,0:0:0:0:
64,192,179975,1,0,0:0:0:0:
192,192,180082,1,0,0:0:0:0:
64,192,180189,1,0,0:0:0:0:
192,192,180296,1,0,0:0:0:0:
448,192,180403,1,0,0:0:0:0:
320,192,180510,1,0,0:0:0:0:
448,192,180617,1,0,0:0:0:0:
320,192,180725,1,0,0:0:0:0:
192,192,180832,1,0,0:0:0:0:
64,192,180939,1,0,0:0:0:0:
192,192,181046,1,0,0:0:0:0:
320,192,181153,1,0,0:0:0:0:
448,192,181260,1,0,0:0:0:0:
320,192,181367,1,0,0:0:0:0:
192,192,181475,1,0,0:0:0:0:
64,192,181582,1,0,0:0:0:0:
448,192,181689,128,0,182546:0:0:0:0:
192,192,181689,1,0,0:0:0:0:
64,192,182546,1,0,0:0:0:0:
192,192,182546,1,0,0:0:0:0:
320,192,182760,1,0,0:0:0:0:
192,192,182867,1,0,0:0:0:0:
448,192,183082,1,0,0:0:0:0:
320,192,183189,1,0,0:0:0:0:
64,192,183403,1,0,0:0:0:0:
192,192,183403,1,0,0:0:0:0:
448,192,183617,1,0,0:0:0:0:
320,192,183724,1,0,0:0:0:0:
320,192,183939,1,0,0:0:0:0:
192,192,184046,1,0,0:0:0:0:
64,192,184260,1,0,0:0:0:0:
192,192,184260,1,0,0:0:0:0:
448,192,184581,1,0,0:0:0:0:
320,192,184689,1,0,0:0:0:0:
320,192,184903,1,0,0:0:0:0:
64,192,185010,1,0,0:0:0:0:
192,192,185010,1,0,0:0:0:0:
448,192,185117,128,0,185974:0:0:0:0:
64,192,185546,1,0,0:0:0:0:
64,192,185706,1,0,0:0:0:0:
64,192,185867,1,0,0:0:0:0:
320,192,185974,1,0,0:0:0:0:
64,192,186189,1,0,0:0:0:0:
192,192,186296,1,0,0:0:0:0:
448,192,186510,1,0,0:0:0:0:
320,192,186617,1,0,0:0:0:0:
64,192,186724,1,0,0:0:0:0:
192,192,186831,1,0,0:0:0:0:
448,192,187046,1,0,0:0:0:0:
320,192,187153,1,0,0:0:0:0:
64,192,187367,1,0,0:0:0:0:
192,192,187474,1,0,0:0:0:0:
448,192,187688,1,0,0:0:0:0:
64,192,187688,1,0,0:0:0:0:
64,192,188010,1,0,0:0:0:0:
320,192,188010,1,0,0:0:0:0:
64,192,188331,1,0,0:0:0:0:
192,192,188331,1,0,0:0:0:0:
320,192,188546,1,0,0:0:0:0:
64,192,189403,1,0,0:0:0:0:
448,192,189403,1,0,0:0:0:0:
192,192,189617,1,0,0:0:0:0:
64,192,189724,1,0,0:0:0:0:
320,192,189938,1,0,0:0:0:0:
448,192,190045,1,0,0:0:0:0:
192,192,190260,1,0,0:0:0:0:
64,192,190260,1,0,0:0:0:0:
320,192,190474,1,0,0:0:0:0:
448,192,190581,1,0,0:0:0:0:
192,192,190795,1,0,0:0:0:0:
64,192,190902,1,0,0:0:0:0:
448,192,191117,1,0,0:0:0:0:
192,192,191117,1,0,0:0:0:0:
192,192,191438,1,0,0:0:0:0:
64,192,191545,1,0,0:0:0:0:
320,192,191760,1,0,0:0:0:0:
448,192,191867,1,0,0:0:0:0:
192,192,191974,1,0,0:0:0:0:
64,192,191974,1,0,0:0:0:0:
64,192,192295,1,0,0:0:0:0:
448,192,192295,1,0,0:0:0:0:
64,192,192617,1,0,0:0:0:0:
320,192,192617,1,0,0:0:0:0:
192,192,192831,1,0,0:0:0:0:
64,192,192831,1,0,0:0:0:0:
320,192,193045,1,0,0:0:0:0:
448,192,193152,1,0,0:0:0:0:
192,192,193259,1,0,0:0:0:0:
320,192,193259,1,0,0:0:0:0:
64,192,193367,1,0,0:0:0:0:
192,192,193474,1,0,0:0:0:0:
448,192,193688,1,0,0:0:0:0:
320,192,193795,1,0,0:0:0:0:
64,192,193902,1,0,0:0:0:0:
192,192,194009,1,0,0:0:0:0:
320,192,194224,1,0,0:0:0:0:
192,192,194331,1,0,0:0:0:0:
64,192,194438,1,0,0:0:0:0:
320,192,194545,128,0,195402:0:0:0:0:
192,192,194545,1,0,0:0:0:0:
448,192,194652,1,0,0:0:0:0:
64,192,194759,1,0,0:0:0:0:
192,192,194866,1,0,0:0:0:0:
448,192,194974,1,0,0:0:0:0:
192,192,195188,1,0,0:0:0:0:
448,192,195402,128,0,196259:0:0:0:0:
64,192,195402,128,0,196259:0:0:0:0:
320,192,196259,1,0,0:0:0:0:
192,192,196366,1,0,0:0:0:0:
448,192,196474,1,0,0:0:0:0:
320,192,196581,1,0,0:0:0:0:
64,192,196795,1,0,0:0:0:0:
192,192,196902,1,0,0:0:0:0:
448,192,197116,1,0,0:0:0:0:
320,192,197116,1,0,0:0:0:0:
64,192,197331,1,0,0:0:0:0:
192,192,197438,1,0,0:0:0:0:
448,192,197545,1,0,0:0:0:0:
320,192,197652,1,0,0:0:0:0:
192,192,197759,1,0,0:0:0:0:
64,192,197759,1,0,0:0:0:0:
448,192,197973,1,0,0:0:0:0:
320,192,197973,1,0,0:0:0:0:
64,192,198295,1,0,0:0:0:0:
448,192,198616,1,0,0:0:0:0:
192,192,198723,1,0,0:0:0:0:
320,192,198723,1,0,0:0:0:0:
64,192,198830,128,0,199688:0:0:0:0:
192,192,199152,1,0,0:0:0:0:
448,192,199259,1,0,0:0:0:0:
448,192,199420,1,0,0:0:0:0:
448,192,199580,1,0,0:0:0:0:
192,192,199688,1,0,0:0:0:0:
320,192,199902,1,0,0:0:0:0:
64,192,200009,1,0,0:0:0:0:
192,192,200223,1,0,0:0:0:0:
448,192,200330,1,0,0:0:0:0:
64,192,200545,1,0,0:0:0:0:
192,192,200545,1,0,0:0:0:0:
320,192,200759,1,0,0:0:0:0:
64,192,200866,1,0,0:0:0:0:
192,192,201080,1,0,0:0:0:0:
448,192,201187,1,0,0:0:0:0:
64,192,201402,1,0,0:0:0:0:
320,192,201402,1,0,0:0:0:0:
448,192,201723,1,0,0:0:0:0:
192,192,201723,1,0,0:0:0:0:
448,192,202045,1,0,0:0:0:0:
320,192,202045,1,0,0:0:0:0:
192,192,202259,1,0,0:0:0:0:
320,192,202259,1,0,0:0:0:0:
448,192,202366,1,0,0:0:0:0:
320,192,202473,1,0,0:0:0:0:
192,192,202580,1,0,0:0:0:0:
64,192,202687,1,0,0:0:0:0:
448,192,203116,1,0,0:0:0:0:
320,192,203116,1,0,0:0:0:0:
192,192,203330,1,0,0:0:0:0:
448,192,203437,1,0,0:0:0:0:
320,192,203652,1,0,0:0:0:0:
64,192,203759,1,0,0:0:0:0:
320,192,203973,1,0,0:0:0:0:
192,192,203973,1,0,0:0:0:0:
448,192,204187,1,0,0:0:0:0:
320,192,204294,1,0,0:0:0:0:
64,192,204509,1,0,0:0:0:0:
192,192,204616,1,0,0:0:0:0:
448,192,204830,1,0,0:0:0:0:
320,192,204830,1,0,0:0:0:0:
192,192,205044,1,0,0:0:0:0:
320,192,205044,1,0,0:0:0:0:
64,192,205151,1,0,0:0:0:0:
192,192,205259,1,0,0:0:0:0:
320,192,205366,1,0,0:0:0:0:
448,192,205473,1,0,0:0:0:0:
320,192,205580,1,0,0:0:0:0:
192,192,205687,1,0,0:0:0:0:
64,192,205687,1,0,0:0:0:0:
448,192,206009,1,0,0:0:0:0:
64,192,206009,1,0,0:0:0:0:
192,192,206330,1,0,0:0:0:0:
320,192,206330,1,0,0:0:0:0:
64,192,206544,1,0,0:0:0:0:
192,192,206544,1,0,0:0:0:0:
320,192,206651,1,0,0:0:0:0:
448,192,206758,1,0,0:0:0:0:
448,192,206973,1,0,0:0:0:0:
320,192,206973,1,0,0:0:0:0:
192,192,207080,1,0,0:0:0:0:
64,192,207187,1,0,0:0:0:0:
320,192,207401,1,0,0:0:0:0:
448,192,207401,1,0,0:0:0:0:
64,192,207616,1,0,0:0:0:0:
192,192,207616,1,0,0:0:0:0:
448,192,207830,1,0,0:0:0:0:
320,192,207937,1,0,0:0:0:0:
64,192,208044,1,0,0:0:0:0:
448,192,208044,1,0,0:0:0:0:
192,192,208151,1,0,0:0:0:0:
320,192,208151,1,0,0:0:0:0:
448,192,208258,1,0,0:0:0:0:
64,192,208258,1,0,0:0:0:0:
64,192,208580,1,0,0:0:0:0:
448,192,208580,1,0,0:0:0:0:
192,192,208901,1,0,0:0:0:0:
320,192,209115,128,0,210830:0:0:0:0:
448,192,209115,1,0,0:0:0:0:
192,192,210830,1,0,0:0:0:0:
64,192,210937,1,0,0:0:0:0:
320,192,211151,1,0,0:0:0:0:
448,192,211258,1,0,0:0:0:0:
320,192,211472,1,0,0:0:0:0:
192,192,211580,1,0,0:0:0:0:
64,192,211687,1,0,0:0:0:0:
448,192,211687,1,0,0:0:0:0:
448,192,212008,1,0,0:0:0:0:
320,192,212115,1,0,0:0:0:0:
192,192,212222,1,0,0:0:0:0:
64,192,212330,1,0,0:0:0:0:
192,192,212437,1,0,0:0:0:0:
448,192,212544,1,0,0:0:0:0:
320,192,212544,1,0,0:0:0:0:
192,192,212972,1,0,0:0:0:0:
448,192,213401,1,0,0:0:0:0:
64,192,213401,1,0,0:0:0:0:
192,192,213615,1,0,0:0:0:0:
320,192,213829,1,0,0:0:0:0:
448,192,214044,1,0,0:0:0:0:
64,192,214044,1,0,0:0:0:0:
320,192,214258,1,0,0:0:0:0:
320,192,214579,1,0,0:0:0:0:
192,192,214901,1,0,0:0:0:0:
448,192,215115,1,0,0:0:0:0:
64,192,215115,1,0,0:0:0:0:
448,192,215436,1,0,0:0:0:0:
192,192,215436,1,0,0:0:0:0:
448,192,215758,1,0,0:0:0:0:
320,192,215758,1,0,0:0:0:0:
64,192,215972,1,0,0:0:0:0:
448,192,216186,1,0,0:0:0:0:
192,192,216401,1,0,0:0:0:0:
320,192,216615,1,0,0:0:0:0:
448,192,216829,1,0,0:0:0:0:
64,192,216829,1,0,0:0:0:0:
320,192,217043,1,0,0:0:0:0:
192,192,217258,1,0,0:0:0:0:
64,192,217472,1,0,0:0:0:0:
320,192,217686,1,0,0:0:0:0:
448,192,217686,1,0,0:0:0:0:
192,192,218008,1,0,0:0:0:0:
320,192,218329,1,0,0:0:0:0:
64,192,218543,1,0,0:0:0:0:
192,192,218543,1,0,0:0:0:0:
448,192,219186,1,0,0:0:0:0:
320,192,219293,1,0,0:0:0:0:
192,192,219293,1,0,0:0:0:0:
64,192,219400,1,0,0:0:0:0:
320,192,219615,1,0,0:0:0:0:
448,192,219829,1,0,0:0:0:0:
320,192,220043,1,0,0:0:0:0:
192,192,220258,1,0,0:0:0:0:
64,192,220258,1,0,0:0:0:0:
320,192,220472,1,0,0:0:0:0:
64,192,220686,1,0,0:0:0:0:
192,192,220686,1,0,0:0:0:0:
448,192,220900,1,0,0:0:0:0:
64,192,221115,1,0,0:0:0:0:
192,192,221115,1,0,0:0:0:0:
448,192,221329,1,0,0:0:0:0:
320,192,221436,1,0,0:0:0:0:
64,192,221543,1,0,0:0:0:0:
192,192,221543,1,0,0:0:0:0:
320,192,221757,1,0,0:0:0:0:
64,192,221757,1,0,0:0:0:0:
192,192,221972,1,0,0:0:0:0:
64,192,222186,1,0,0:0:0:0:
448,192,222186,1,0,0:0:0:0:
448,192,222400,1,0,0:0:0:0:
192,192,222400,1,0,0:0:0:0:
320,192,222507,1,0,0:0:0:0:
448,192,222614,1,0,0:0:0:0:
320,192,222722,1,0,0:0:0:0:
448,192,222829,1,0,0:0:0:0:
64,192,222829,1,0,0:0:0:0:
448,192,223150,1,0,0:0:0:0:
320,192,223150,1,0,0:0:0:0:
64,192,223472,1,0,0:0:0:0:
192,192,223472,1,0,0:0:0:0:
448,192,223686,1,0,0:0:0:0:
320,192,223686,1,0,0:0:0:0:
192,192,223900,1,0,0:0:0:0:
64,192,224114,1,0,0:0:0:0:
192,192,224329,1,0,0:0:0:0:
320,192,224543,1,0,0:0:0:0:
448,192,224543,1,0,0:0:0:0:
64,192,224864,1,0,0:0:0:0:
448,192,225186,1,0,0:0:0:0:
64,192,225400,1,0,0:0:0:0:
192,192,225400,1,0,0:0:0:0:
320,192,225400,1,0,0:0:0:0:
64,192,226043,1,0,0:0:0:0:
192,192,226150,1,0,0:0:0:0:
320,192,226150,1,0,0:0:0:0:
448,192,226257,1,0,0:0:0:0:
192,192,226578,1,0,0:0:0:0:
320,192,226578,1,0,0:0:0:0:
192,192,226900,1,0,0:0:0:0:
320,192,226900,1,0,0:0:0:0:
64,192,227114,1,0,0:0:0:0:
448,192,227114,1,0,0:0:0:0:
64,192,227757,1,0,0:0:0:0:
192,192,227864,1,0,0:0:0:0:
448,192,227971,1,0,0:0:0:0:
320,192,227971,1,0,0:0:0:0:
448,192,228293,1,0,0:0:0:0:
64,192,228828,1,0,0:0:0:0:
448,192,228828,1,0,0:0:0:0:
192,192,229043,1,0,0:0:0:0:
320,192,229043,1,0,0:0:0:0:
448,192,229257,1,0,0:0:0:0:
64,192,229257,1,0,0:0:0:0:
448,192,229471,1,0,0:0:0:0:
320,192,229578,1,0,0:0:0:0:
64,192,229685,1,0,0:0:0:0:
192,192,229685,1,0,0:0:0:0:
448,192,230543,1,0,0:0:0:0:
320,192,230543,1,0,0:0:0:0:
320,192,231400,1,0,0:0:0:0:
64,192,231400,1,0,0:0:0:0:
320,192,231721,1,0,0:0:0:0:
448,192,231721,1,0,0:0:0:0:
192,192,232042,1,0,0:0:0:0:
448,192,232257,1,0,0:0:0:0:
64,192,232257,1,0,0:0:0:0:
320,192,232257,1,0,0:0:0:0:
192,192,232899,1,0,0:0:0:0:
64,192,233007,1,0,0:0:0:0:
192,192,233114,1,0,0:0:0:0:
320,192,233114,1,0,0:0:0:0:
320,192,233757,1,0,0:0:0:0:
448,192,233864,1,0,0:0:0:0:
192,192,233971,1,0,0:0:0:0:
64,192,233971,1,0,0:0:0:0:
448,192,234399,1,0,0:0:0:0:
320,192,234399,1,0,0:0:0:0:
192,192,234614,1,0,0:0:0:0:
64,192,234828,1,0,0:0:0:0:
448,192,234828,1,0,0:0:0:0:
320,192,235042,1,0,0:0:0:0:
192,192,235149,1,0,0:0:0:0:
64,192,235256,1,0,0:0:0:0:
448,192,235471,5,0,0:0:0:0:
320,192,235471,1,0,0:0:0:0:
64,192,235685,1,0,0:0:0:0:
192,192,235792,1,0,0:0:0:0:
320,192,235899,1,0,0:0:0:0:
64,192,236114,1,0,0:0:0:0:
448,192,236221,1,0,0:0:0:0:
64,192,236328,1,0,0:0:0:0:
448,192,236435,1,0,0:0:0:0:
192,192,236542,1,0,0:0:0:0:
64,192,236542,1,0,0:0:0:0:
320,192,236756,1,0,0:0:0:0:
64,192,236971,1,0,0:0:0:0:
448,192,237185,1,0,0:0:0:0:
192,192,237399,1,0,0:0:0:0:
448,192,238471,1,0,0:0:0:0:
64,192,238685,1,0,0:0:0:0:
448,192,238899,1,0,0:0:0:0:
192,192,239328,1,0,0:0:0:0:
320,192,239542,1,0,0:0:0:0:
448,192,239756,1,0,0:0:0:0:
192,192,240185,1,0,0:0:0:0:
320,192,240399,1,0,0:0:0:0:
192,192,240613,1,0,0:0:0:0:
64,192,240827,1,0,0:0:0:0:
320,192,241042,128,0,243399:0:0:0:0:
