osu file format v8

[General]
AudioFilename: love the way u lie.mp3
AudioLeadIn: 0
PreviewTime: 69300
Countdown: 0
SampleSet: Soft
StackLeniency: 0.7
Mode: 0
LetterboxInBreaks: 1

[Editor]
Bookmarks: 47662
DistanceSpacing: 1.20000004768372
BeatDivisor: 4
GridSize: 8

[Metadata]
Title:Love The Way You Lie
Artist:Eminem ft. Rihanna
Creator:uranuss8600
Version:Lie
Source:
Tags:Recovery Hardcore Rap Roddie Rukarioman

[Difficulty]
HPDrainRate:6
CircleSize:4
OverallDifficulty:7
ApproachRate:8
SliderMultiplier:1.6
SliderTickRate:2

[Events]
//Background and Video events
0,0,"recovery.jpg"
//Break Periods
2,92689,102775
2,169930,179326
//Storyboard Layer 0 (Background)
//Storyboard Layer 1 (Fail)
//Storyboard Layer 2 (Pass)
//Storyboard Layer 3 (Foreground)
//Storyboard Sound Samples
//Background Colour Transformations
3,100,0,0,0

[TimingPoints]
26283.6870119937,344.827586206897,4,2,1,50,1,0
70421,-100,4,2,1,50,0,1
91973,-142.857142857143,4,2,1,50,0,1
92490,-100,4,2,1,50,0,0
147662,-100,4,2,1,50,0,1
169335,-142.857142857143,4,2,1,50,0,1
169731,-100,4,2,1,50,0,0
227662,-100,4,2,1,50,0,1
249300,-142.857142857143,4,2,1,50,0,1
249731,-100,4,2,1,50,0,0
254818,-142.857142857143,4,2,1,50,0,0

[Colours]
Combo1 : 141,145,209
Combo2 : 169,222,254
Combo3 : 255,51,51

[HitObjects]
224,64,26283,6,0,B|136:24|56:112,1,160,4|2
80,168,26800,2,0,B|104:209|154:219,1,80,8|8
164,138,27145,1,2
248,136,27318,2,0,B|243:183|202:213,1,80,8|8
184,280,27662,5,0
184,280,27835,1,0
248,328,28007,2,0,B|296:336|336:304,1,80,2|0
392,272,28352,1,8
392,272,28525,1,0
448,328,28697,1,0
400,136,29042,6,0,B|424:88|376:56,1,80,4|2
304,64,29387,1,0
288,144,29559,2,0,B|256:184|208:152,1,80,2|8
152,112,29904,1,0
128,32,30076,2,0,B|40:72|88:176,1,160,2|2
112,240,30594,1,0
112,240,30766,5,0
184,280,30939,1,0
264,304,31111,2,0,B|312:310|352:316,2,80,8|0|2
376,192,31800,6,0,B|390:96|268:63,1,160,4|2
216,64,32317,1,0
136,64,32489,2,0,B|82:60|64:124,2,80,8|2|10
176,136,33007,2,0,B|208:192|144:216,1,80,8|2
96,248,33351,1,0
96,248,33524,5,0
96,248,33696,1,0
144,312,33870,2,0,B|186:343|232:304,1,80,8|2
264,248,34214,1,0
120,176,34559,6,0,B|200:120|256:208,1,160,4|2
312,264,35076,1,0
384,304,35249,2,0,B|424:320|464:336,3,80,8|0|0|8
384,304,35938,5,2
384,304,36110,1,0
312,264,36283,1,0
264,328,36455,1,0
184,344,36628,2,0,B|120:336|168:280,1,80,8|2
232,256,36972,1,0
344,56,37490,6,0,B|368:168|240:168,1,160,2|2
200,120,38007,1,8
136,168,38180,2,0,B|152:216|224:200,1,80,2|2
280,200,38525,1,8
280,120,38697,2,0,B|312:80|360:112,1,80,2|0
488,184,39214,5,0
488,184,39387,1,8
464,264,39559,2,0,B|432:288|392:304,1,80,2|2
336,248,39904,1,0
296,320,40076,2,0,B|240:400|136:336,1,160,4|2
80,312,40594,1,0
88,232,40766,5,8
168,216,40938,2,0,B|256:200,1,80,2|0
168,72,41456,2,0,B|256:88,1,80,2|0
408,96,41973,1,0
408,96,42145,1,8
408,176,42318,2,0,B|368:184|320:192,1,80,0|2
136,104,43007,5,0
216,96,43180,1,2
184,168,43352,1,0
256,208,43525,2,0,B|239:259|180:244,1,80,8|2
184,168,43869,2,0,B|168:120|104:144,1,80,0|8
72,200,44214,6,0,B|48:304|176:336,1,160,2|0
200,264,44731,1,2
200,264,44904,1,8
248,200,45076,1,0
328,224,45249,2,0,B|352:272|304:320,1,80,2|2
322,300,45766,6,0,B|346:340|394:324,1,80,2|2
376,248,46111,2,0,B|456:208|416:104,1,160,2|2
360,56,46628,1,0
360,56,46973,1,2
88,168,47318,6,0,B|110:122|138:94,1,80,2|0
132,101,47662,2,0,B|180:85|220:85,1,80,8|2
210,85,48007,1,0
351,279,48525,5,0
271,287,48698,1,2
303,215,48870,1,0
232,175,49043,2,0,B|249:124|308:139,1,80,8|2
303,215,49387,2,0,B|319:263|383:239,1,80,0|8
360,164,49731,1,2
184,256,50421,6,0,B|216:216|280:256,1,80,8|2
320,296,50766,1,0
320,296,50938,1,0
368,232,51111,6,0,B|416:208|400:144,1,80,4|2
288,56,51629,2,0,B|248:24|200:64,1,80,8|8
248,128,51973,1,2
232,208,52146,1,0
168,152,52318,1,8
96,120,52491,2,0,B|40:96|16:152,1,80,2|0
72,200,52836,5,0
56,280,53008,2,0,B|96:304|136:248,1,80,2|8
208,280,53353,1,2
264,336,53525,1,0
440,248,53869,6,0,B|472:224|464:168,1,80,4|0
440,96,54214,1,0
440,96,54386,1,0
376,48,54559,1,8
296,72,54731,6,0,B|256:112|216:80,1,80,2|0
152,48,55076,2,0,B|100:24|74:67,2,80,8|2|2
128,128,55593,1,0
128,128,55766,2,0,B|128:176|128:216,1,80,2|8
200,248,56111,2,0,B|200:216|200:160,1,80,2|2
328,184,56628,5,6
288,256,56800,2,0,B|240:328|128:296,1,160,2|0
80,256,57317,1,8
48,184,57489,1,2
40,144,57576,1,0
48,104,57662,2,0,B|72:64|128:64,3,80,0|8|0|2
320,240,58524,5,0
240,248,58697,1,8
176,296,58869,1,2
104,256,59041,2,0,B|136:208|104:168,1,80,8|0
56,128,59386,1,4
56,128,59559,1,0
96,64,59731,6,0,B|128:24|184:72,1,80,2|2
216,120,60076,1,8
216,120,60249,1,2
296,104,60422,2,0,B|352:88|368:160,1,80,0|8
440,136,60767,1,2
256,224,61111,6,0,B|344:176,1,80,2|0
392,232,61456,2,0,B|352:256|320:272,1,80,8|2
280,336,61800,2,0,B|160:344|176:216,1,160,0|6
240,200,62318,5,0
312,240,62490,1,2
272,310,62663,1,0
202,270,62835,1,8
242,201,63008,1,2
242,201,63180,1,0
264,40,63525,5,0
344,48,63697,1,2
392,112,63869,2,0,B|368:160|416:184,1,80,2|0
344,232,64213,1,8
368,312,64387,1,0
336,336,64473,1,0
296,344,64559,2,0,B|248:360|200:304,1,80,2|0
144,256,64904,6,0,B|88:256|112:184,1,80,4|2
152,136,65249,2,0,B|248:88,1,80,8|0
256,176,65594,2,0,B|344:136,1,80,8|2
328,142,65938,1,0
408,128,66111,5,8
448,192,66283,1,2
368,192,66456,2,0,B|328:176|288:216,1,80,0|2
296,208,66800,1,0
296,208,66973,2,0,B|264:248|219:231,1,80,8|2
224,232,67318,1,0
168,80,67662,6,0,B|80:104|112:216,1,160,0|2
152,272,68180,1,0
224,312,68353,1,8
224,232,68525,1,2
152,272,68698,1,0
224,312,68870,1,8
224,232,69042,1,2
224,232,69387,5,0
456,296,69731,1,0
392,64,70076,1,0
152,32,70421,6,0,B|-8:72|96:232,1,240,6|0
144,288,71111,1,8
232,328,71283,1,0
328,344,71455,2,0,B|374:344|413:331,2,80,2|8|2
416,120,72145,6,0,B|336:112|248:120,1,160,0|8
72,56,72835,1,2
24,136,73007,1,0
80,208,73180,1,6
256,288,73525,1,2
424,192,73869,1,8
416,96,74042,2,0,B|368:120|336:152,1,80,2|0
424,192,74386,1,8
424,192,74559,5,0
376,272,74731,2,0,B|280:384|136:288,1,240,0|2
48,152,75594,6,0,B|16:48|144:32,1,160,2|4
312,32,76283,2,0,B|351:34|392:47,1,80,2|10
400,336,76973,2,0,B|365:357|317:366,1,80,2|8
182,113,77662,5,0
182,113,77834,2,0,B|267:152|233:262,1,160,2|0
150,206,78352,1,2
65,167,78525,2,0,B|41:261|133:301,1,160,0|2
416,304,79387,5,8
400,208,79560,2,0,B|320:272|320:272,1,80,2|0
416,304,79904,1,8
400,208,80077,1,2
400,208,80421,5,0
208,72,80765,1,8
176,312,81110,1,0
400,208,81456,6,0,B|472:59|282:36,1,240,6|0
208,48,82145,1,8
208,48,82317,1,0
120,80,82489,2,0,B|72:112|56:144,1,80,2|8
128,208,82835,2,0,B|80:200|48:160,1,80,2|8
248,136,83352,6,0,B|336:136,1,80,0|8
168,248,83869,2,0,B|160:288|144:328,1,80,2|0
216,264,84214,1,4
352,136,84559,1,2
352,136,84904,2,0,B|400:112|432:168,3,80,8|2|0|8
352,136,85594,5,2
280,72,85766,2,0,B|144:-24|80:112,1,240,2|2
88,304,86629,6,0,B|130:404|238:334,1,160,2|6
392,272,87318,1,2
392,176,87490,1,0
144,32,88007,1,2
240,32,88180,1,8
64,184,88696,6,0,B|8:264|112:344,1,160,0|8
240,280,89387,2,0,B|288:184|184:120,1,160,2|4
392,72,90938,5,8
456,144,91111,1,2
456,144,91455,2,0,B|480:192|440:232,1,80,0|2
376,280,91800,1,8
376,280,92145,6,0,B|256:304|256:304,1,111.999997329712,2|4
192,304,103525,5,6
256,352,103697,1,0
256,352,103869,2,0,B|336:336,1,80,0|2
440,216,104387,1,0
440,216,104473,1,0
440,216,104559,2,0,B|440:152|408:112,1,80,0|8
376,72,104904,6,0,B|304:16|208:32,1,160,2|0
144,40,105421,1,0
80,96,105594,1,8
144,40,105766,1,0
160,120,105938,1,0
80,96,106111,1,2
104,256,106456,6,0,B|142:307|195:286,1,80,2|0
173,216,106800,1,0
242,176,106973,2,0,B|267:235|222:270,1,80,8|2
248,336,107318,1,0
248,336,107662,6,0,B|331:344,1,80,2|0
408,320,108007,2,0,B|472:264,1,80,0|2
440,192,108352,2,0,B|336:168,1,80,8|0
288,200,108697,2,0,B|216:264,1,80,2|0
168,304,109042,5,6
56,192,109387,2,0,B|64:128|104:88,1,80
136,64,109731,1,0
232,40,109904,1,8
344,48,110076,1,2
432,144,110249,1,0
432,144,110421,5,8
344,272,110766,2,0,B|416:256|424:216,1,80,0|2
432,144,111111,1,8
344,48,111283,1,0
232,40,111456,1,0
136,64,111628,1,2
136,64,111800,5,4
80,200,112145,2,0,B|48:240|80:288,1,80
72,275,112490,2,0,B|112:307|160:275,1,80,8|2
146,283,112835,2,0,B|177:242|146:194,1,80,0|8
153,208,113180,2,0,B|113:176|65:208,1,80,2|0
296,280,113697,5,2
360,232,113869,1,4
368,312,114042,1,0
320,248,114214,1,0
392,280,114387,1,0
328,328,114559,6,0,B|352:248,1,80,4|0
328,328,114904,2,0,B|296:224,1,80
328,328,115249,1,8
408,328,115421,2,0,B|224:328,1,160,2|8
168,328,115938,1,2
48,224,116283,6,0,B|16:192|16:136,1,80,0|2
32,72,116628,2,0,B|80:32|136:32,3,80,8|0|0|0
248,32,117318,6,0,B|312:32|344:64,1,80,4|0
392,96,117662,1,0
448,160,117835,1,0
368,176,118007,1,8
392,96,118180,1,2
448,160,118352,2,0,B|432:256,1,80,0|8
440,320,118697,1,2
280,344,119042,1,0
200,352,119214,1,0
120,336,119387,2,0,B|80:320,2,40,8|0|0
184,192,119904,5,0
184,192,120076,2,0,B|208:152|280:144,1,80,6|0
328,144,120421,1,0
328,144,120594,2,0,B|400:160|416:192,3,80,0|8|2|0
424,336,121456,5,2
264,320,121800,1,2
128,248,122145,1,0
72,184,122318,1,0
152,168,122490,2,0,B|184:144,1,40,0|2
320,56,122835,5,4
464,128,123180,1,0
440,208,123352,1,0
376,264,123525,1,8
296,248,123697,2,0,B|216:192,1,80,2|0
296,248,124042,1,8
376,264,124214,6,0,B|352:176,1,80,2|0
376,264,124559,2,0,B|464:296,1,80,0|2
376,264,124904,2,0,B|304:312,1,80,8|0
232,336,125249,1,2
152,328,125421,1,2
96,272,125594,5,4
88,112,125938,1,0
88,112,126111,1,0
88,112,126283,2,0,B|120:80|176:64,1,80,8|2
312,56,126800,5,8
392,48,126973,2,0,B|456:104,1,80,2|0
456,184,127318,1,0
368,320,127662,6,0,B|376:256|360:224,1,80
296,200,128007,2,0,B|232:216|200:200,1,80
160,152,128352,6,0,B|144:96|152:64,3,80,6|0|0|0
160,152,129042,1,8
160,152,129214,1,2
104,208,129387,1,0
104,208,129731,6,0,B|112:264|128:288,1,80,2|0
192,328,130076,1,0
192,328,130249,1,2
272,344,130421,2,0,B|344:344|368:320,1,80,8|0
416,288,130766,1,0
416,288,130938,1,0
416,288,131111,5,4
416,128,131456,1,0
360,72,131628,1,0
280,56,131800,2,0,B|232:56|200:88,2,80,8|2|0
112,176,132490,5,2
72,104,132662,1,0
72,104,132835,2,0,B|104:192|192:240,1,160,0|8
248,256,133352,1,0
328,256,133525,2,0,B|384:256|408:232,1,80,2|2
456,176,133869,6,0,B|480:136|472:96,2,80,4|2|0
376,312,134559,2,0,B|312:336|272:336,1,80,8|2
299,333,134904,2,0,B|224:344|192:328,1,80,0|8
219,335,135249,1,2
219,335,135421,1,0
219,335,135594,2,0,B|112:328|64:264,1,160,2|0
74,276,136111,1,0
32,208,136283,2,0,B|16:152|24:128,1,80
64,64,136628,6,0,B|96:32|144:32,1,80,6|0
216,32,136973,1,0
376,56,137318,1,8
432,112,137490,1,2
464,184,137662,2,0,B|464:240|440:272,1,80,0|8
392,320,138007,2,0,B|344:344|304:344,1,80,2|0
232,344,138352,1,0
232,344,138697,5,8
168,296,138869,1,0
240,264,139042,2,0,B|288:200,1,80,0|2
360,168,139387,1,4
296,120,139559,1,2
288,200,139731,1,0
144,128,140076,6,0,B|104:160|96:192,1,80,8|2
136,264,140421,2,0,B|183:282|215:273,1,80,0|8
256,208,140766,2,0,B|248:157|224:134,1,80,2|0
144,128,141111,2,0,B|176:72|216:64,1,80,0|2
272,40,141456,6,0,B|320:24|376:64,2,80,8|0|0
144,128,142145,1,4
112,288,142490,5,0
112,288,142662,1,0
184,320,142835,2,0,B|256:344|288:328,1,80,8|2
344,320,143180,1,0
408,280,143352,1,8
408,280,143525,2,0,B|448:248|464:208,1,80,2|0
456,136,143869,6,0,B|432:80|400:64,1,80,0|2
411,70,144214,2,0,B|335:47|303:55,1,80,8|0
332,54,144559,2,0,B|255:55|239:79,1,80,0|2
254,67,144904,2,0,B|191:103|183:143,1,80
194,119,145249,1,0
136,176,145421,1,0
216,200,145594,1,8
194,119,145766,1,2
216,200,145938,1,0
216,200,146628,5,0
448,264,146972,1,0
384,32,147317,1,0
336,216,147662,6,0,B|200:310|148:127,1,240,6|2
112,64,148352,1,8
40,120,148524,1,2
40,216,148696,2,0,B|40:264|80:280,2,80,0|8|2
192,336,149386,6,0,B|264:384|360:328,1,160,0|8
456,184,150076,1,0
456,184,150248,1,2
456,184,150421,1,4
304,72,150766,1,2
120,112,151110,1,8
120,112,151283,1,2
64,192,151456,2,0,B|104:232|160:208,1,80,0|8
224,184,151800,5,2
224,88,151973,2,0,B|352:8|448:144,1,240,0|2
424,320,152835,6,0,B|343:392|274:283,1,160,2|4
360,128,153524,2,0,B|399:130|440:143,1,80,2|0
152,128,154214,2,0,B|113:130|72:143,1,80,8|2
312,304,154903,5,0
312,304,155075,2,0,B|400:272|376:160,1,160,2|0
288,208,155593,1,2
200,240,155766,2,0,B|184:144|280:112,1,160,0|2
416,304,156628,5,8
416,304,156800,1,2
400,208,156973,2,0,B|320:272|320:272,1,80,0|8
400,208,157318,1,2
400,208,157662,5,0
208,72,158006,1,8
176,312,158351,1,0
400,208,158696,6,0,B|472:59|282:36,1,240,6|0
208,48,159386,1,8
120,80,159559,1,2
120,80,159730,2,0,B|72:112|56:144,1,80,0|8
64,232,160076,2,0,B|100:263|152:262,1,80,2|8
328,280,160593,6,0,B|416:280,1,80,0|8
216,272,161110,2,0,B|176:264|136:248,1,80,2|2
200,176,161455,1,4
368,88,161800,1,2
472,248,162145,2,0,B|496:296|440:328,3,80,8|2|0|8
384,256,162835,5,2
312,320,163007,2,0,B|168:384|112:232,1,240,2|2
80,88,163870,6,0,B|122:-12|230:58,1,160,2|4
360,168,164559,1,2
432,104,164731,1,0
184,256,165248,1,2
112,320,165421,1,8
56,40,165937,6,0,B|0:120|104:200,1,160,0|8
216,320,166628,2,0,B|264:224|160:160,1,160,2|4
272,88,168179,5,0
240,176,168352,1,2
240,176,168696,2,0,B|288:200|328:160,1,80,2|0
272,88,169041,1,8
272,88,169386,6,0,B|152:112|152:112,1,111.999997329712,2|4
280,120,180076,5,0
360,136,180249,1,0
392,208,180421,1,2
360,136,180594,1,0
408,72,180766,6,0,B|296:216,1,160,6|2
152,176,181456,5,8
152,176,181800,1,0
216,320,182145,6,0,B|272:352|320:320,2,80,2|0|2
376,312,182835,1,8
440,160,183180,5,0
440,80,183352,1,0
368,48,183525,2,0,B|256:80|328:192,1,160,4|0
344,248,184042,1,0
288,304,184214,2,0,B|240:336|184:328,2,80,2|8|0
264,144,184904,2,0,B|208:136|160:168,1,80,2|0
416,216,185594,5,8
464,280,185766,1,0
384,288,185938,1,0
240,360,186283,5,4
160,336,186456,1,0
96,288,186628,2,0,B|64:248|72:184,1,80,2|0
80,136,186973,1,8
128,72,187145,1,2
200,40,187318,2,0,B|264:32|304:40,1,80,0|8
352,64,187662,1,2
352,64,187835,1,0
408,216,188180,5,0
332,243,188352,1,2
392,289,188525,1,2
378,252,188611,1,2
364,214,188697,1,0
224,288,189042,6,0,B|160:312|128:312,1,80,4|2
224,288,189387,2,0,B|288:312|320:312,1,80
224,288,189731,2,0,B|224:224|216:200,1,80,8|2
218,208,190076,2,0,B|208:144|168:120,1,80,0|8
187,135,190421,1,2
187,135,190594,1,0
416,64,191111,5,8
416,64,191283,1,0
384,144,191456,2,0,B|368:184,2,40,0|2|0
352,216,191800,1,4
352,216,191973,1,2
200,272,192318,5,0
120,248,192490,2,0,B|64:216|64:168,1,80,8|2
64,112,192835,1,0
208,48,193180,6,0,B|264:48|320:64,1,80,2|0
368,80,193525,2,0,B|408:96,2,40,2|0|0
440,112,193869,1,2
440,112,194214,5,0
440,112,194387,1,0
472,184,194559,2,0,B|472:232|432:272,1,80,4|2
444,257,194904,2,0,B|392:312|352:312,1,80
381,305,195249,1,8
381,305,195421,2,0,B|312:328|272:312,1,80,2|0
302,318,195766,1,8
302,318,195938,2,0,B|232:312|208:272,3,80,2|0|2|0
168,248,196628,1,8
24,184,196973,6,0,B|48:128|88:112,1,80
136,72,197318,1,6
192,128,197490,1,0
208,48,197662,1,2
192,128,197835,1,0
264,168,198007,2,0,B|312:184|344:176,1,80,8|2
312,104,198352,2,0,B|368:96|416:120,1,80,0|8
448,168,198697,5,2
448,168,198869,1,0
464,248,199042,2,0,B|456:312|416:328,2,80,0|2|8
464,248,199731,5,0
464,248,199904,1,0
392,224,200076,2,0,B|336:240|304:240,1,80,4|0
232,248,200421,1,0
168,200,200594,1,0
240,168,200766,1,8
176,120,200938,1,2
168,200,201111,1,0
240,168,201283,1,8
240,168,201456,2,2,B|320:128,1,80,2|0
440,40,201973,5,0
440,40,202145,2,0,B|464:96|464:144,1,80,8|0
464,200,202490,1,0
464,200,202662,1,2
464,200,203007,6,0,B|456:272|432:288,1,80,0|2
400,344,203352,1,0
240,344,203697,2,0,B|168:320|152:280,1,80,2|0
170,306,204042,2,0,B|120:256|120:208,1,80,8|0
125,240,204559,2,0,B|96:176|112:144,1,80
104,80,204904,1,8
104,80,205249,1,2
264,48,205594,6,0,B|320:24|368:32,1,80
288,88,205938,2,0,B|344:120|360:168,1,80,0|2
264,136,206283,1,8
264,136,206628,1,0
198,91,206800,2,0,B|149:99|117:138,1,80,8|2
128,288,207318,2,0,B|160:320,2,40
200,256,207662,1,8
200,256,208007,1,2
352,40,208352,5,4
432,144,208525,1,2
416,256,208697,1,0
336,312,208869,1,0
256,336,209042,2,0,B|160:344|96:304,1,160,8|2
101,307,209731,5,0
83,176,209904,1,2
153,87,210076,1,0
250,79,210248,1,0
324,110,210421,1,8
324,110,210766,1,2
288,264,211111,5,4
325,191,211283,1,2
396,227,211456,1,2
360,299,211628,1,0
336,223,211800,1,8
301,294,211973,1,2
373,329,212145,1,0
408,258,212318,1,8
338,287,212490,5,2
373,215,212662,1,2
446,248,212835,1,0
412,321,213007,1,0
412,321,213180,1,8
412,321,213525,1,2
256,336,213869,6,0,B|192:336,2,40
176,336,214214,1,2
104,192,214559,2,0,B|120:136|176:128,3,80,8|2|0|8
232,112,215249,2,0,B|272:112,2,40,2|0|0
312,112,215594,1,2
416,232,215938,5,8
416,232,216283,2,0,B|424:304|376:328,1,80
336,256,216628,1,2
184,208,216973,2,0,B|136:168|136:120,1,80
168,72,217318,2,0,B|216:40|264:40,1,80,8|2
241,41,217662,2,0,B|304:48|336:96,1,80,0|8
314,71,218007,1,2
128,216,218525,6,0,B|160:248,1,40,0|0
184,272,218697,1,2
344,288,219042,2,0,B|400:272|432:240,1,80,0|2
464,192,219387,1,4
368,64,219731,5,0
368,64,219904,1,0
288,56,220076,2,0,B|224:56|192:72,1,80,8|2
136,96,220421,1,0
136,96,220766,5,2
136,96,220938,1,0
80,152,221111,2,0,B|56:208|64:240,1,80,2|0
88,304,221456,2,0,B|144:336|176:336|256:328,1,160,8|2
320,304,221973,1,2
392,264,222145,1,0
384,184,222318,1,0
304,168,222490,1,2
264,240,222662,1,2
224,168,222835,1,0
271,105,223007,1,0
346,134,223180,1,2
340,215,223352,1,2
264,240,223525,1,0
104,264,223869,6,0,B|144:296|184:312,1,80,2|0
248,336,224214,1,0
248,336,224559,2,0,B|320:344|352:320,1,80
400,296,224904,2,0,B|448:264|456:216,1,80,2|0
416,168,225249,2,0,B|352:168|320:176,1,80
264,200,225594,2,0,B|216:240|200:280,1,80,8|2
168,320,225938,1,0
168,320,226283,1,2
176,160,226628,5,0
372,299,226972,1,0
391,59,227317,1,0
377,250,227662,6,0,B|224:313|211:123,1,240,6|2
197,51,228352,1,8
197,51,228524,1,2
102,35,228696,2,0,B|56:51|55:94,2,80,0|8|2
54,221,229386,6,0,B|89:299|200:303,1,160,2|8
368,256,230076,1,2
384,160,230248,1,2
296,192,230421,1,4
296,192,230766,1,0
200,360,231110,1,8
120,304,231283,1,2
200,256,231456,2,0,B|240:216|216:160,1,80,0|8
224,184,231800,5,2
264,96,231973,2,0,B|416:48|456:208,1,240,2|0
344,344,232835,6,0,B|242:384|208:256,1,160,2|4
360,152,233524,2,0,B|399:154|440:167,1,80,2|0
152,152,234214,2,0,B|113:154|72:167,1,80,2|8
264,344,234903,5,0
344,296,235075,2,0,B|432:264|408:152,1,160,2|0
392,72,235593,1,0
312,120,235766,2,0,B|219:150|248:248,1,160,2|0
40,40,236628,5,8
96,120,236800,1,2
96,120,236973,2,0,B|160:32|160:32,1,80,0|8
144,56,237318,1,2
144,56,237662,5,0
122,289,238006,1,8
346,197,238351,1,0
168,120,238696,6,0,B|96:269|286:292,1,240,6|2
360,288,239386,1,8
360,288,239559,1,2
360,288,239730,2,0,B|408:256|424:224,1,80,0|8
416,136,240076,2,0,B|380:105|328:106,1,80,2|0
152,80,240593,6,0,B|240:80,1,80,0|8
200,272,241110,2,0,B|160:264|120:248,1,80,0|2
80,160,241455,1,4
256,80,241800,1,2
416,192,242145,2,0,B|465:203|456:249,3,80,8|2|0|8
368,288,242835,5,2
280,336,243007,2,0,B|136:400|72:256,1,240,0|0
48,104,243870,6,0,B|90:4|198:74,1,160,2|6
368,56,244559,1,0
272,56,244731,1,2
368,328,245248,1,2
272,328,245421,1,8
72,120,245937,6,0,B|16:200|120:280,1,160,0|8
280,200,246628,2,0,B|328:104|224:40,1,160,2|4
328,184,248179,5,8
296,280,248352,1,0
296,280,248696,2,0,B|344:304|384:264,1,80,0|2
371,274,249042,1,8
371,274,249387,6,0,B|456:192,1,111.999997329712,2|4
96,96,253697,5,2
96,96,253870,1,0
72,288,254214,6,0,B|120:312|160:272,1,80,2|0
232,232,254560,1,0
232,232,254905,6,0,B|320:144,1,111.999997329712,0|2
