osu file format v8

[General]
AudioFilename: love the way u lie.mp3
AudioLeadIn: 0
PreviewTime: 69300
Countdown: 0
SampleSet: Soft
StackLeniency: 0.7
Mode: 0
LetterboxInBreaks: 1

[Editor]
Bookmarks: 47662
DistanceSpacing: 0.800000011920929
BeatDivisor: 4
GridSize: 8

[Metadata]
Title:Love The Way You Lie
Artist:Eminem ft. Rihanna
Creator:uranuss8600
Version:Intro
Source:
Tags:Recovery Hardcore Rap Roddie Rukarioman

[Difficulty]
HPDrainRate:2
CircleSize:3
OverallDifficulty:2
ApproachRate:2
SliderMultiplier:0.8
SliderTickRate:1

[Events]
//Background and Video events
0,0,"recovery.jpg"
//Break Periods
2,92690,101965
//Storyboard Layer 0 (Background)
//Storyboard Layer 1 (Fail)
//Storyboard Layer 2 (Pass)
//Storyboard Layer 3 (Foreground)
//Storyboard Sound Samples
//Background Colour Transformations
3,100,0,0,0

[TimingPoints]
26283.6870119937,344.827586206897,4,2,1,61,1,0
70421,-100,4,2,1,61,0,1
92490,-100,4,2,1,61,0,0
147662,-100,4,2,1,61,0,1
169731,-100,4,2,1,61,0,0

[Colours]
Combo1 : 141,145,209
Combo2 : 169,222,254
Combo3 : 255,51,51

[HitObjects]
240,168,26283,5,4
448,328,27662,1,0
360,88,29042,6,0,B|224:76|150:150|162:297,1,320,2|0
48,48,31800,5,4
168,96,32490,1,8
256,192,33180,1,0
464,56,34559,5,2
344,96,35249,1,8
256,192,35938,1,0
344,96,36628,1,0
392,216,37318,6,0,B|287:303|184:285|109:158,1,320,4|2
376,152,40076,5,4
256,200,40766,1,8
360,280,41456,1,2
136,152,42835,5,4
240,80,43525,1,8
312,184,44214,2,0,B|312:252|255:291|186:248,1,160,0|8
136,152,45594,5,2
80,272,46283,1,8
208,264,46973,2,0,B|230:328|297:345|348:281,1,160,0|8
296,184,48352,5,4
392,96,49042,1,8
272,40,49731,1,0
176,128,50421,1,8
176,256,51111,5,6
296,304,51800,1,8
384,208,52490,1,0
264,168,53180,1,8
376,104,53869,6,0,B|328:-72|176:224|120:32,1,320,4|0
48,176,55938,1,8
120,280,56628,5,2
192,176,57318,1,8
264,280,58007,1,0
432,88,59387,5,4
336,168,60076,1,8
240,256,60766,1,0
88,56,62145,5,2
216,56,62835,1,8
304,152,63525,1,0
96,296,64904,6,0,B|272:296,1,160,2|8
160,208,66283,2,0,B|328:208,1,160,0|8
232,120,67662,5,0
360,120,68352,1,8
456,208,69042,1,2
432,264,69387,5,0
384,304,69731,1,0
320,320,70076,1,0
256,320,70421,6,0,B|152:328|160:208,1,160,4|0
40,160,71800,2,0,B|32:56|152:64,1,160,0|8
256,64,73180,6,0,B|360:56|352:176,1,160,4|0
224,192,74559,1,0
272,144,74904,1,0
184,232,75594,1,0
136,280,75938,6,0,B|197:365|284:282,1,160,4|0
368,208,77318,2,0,B|453:147|370:60,1,160,0|8
256,40,78697,5,4
144,104,79387,1,0
96,224,80076,1,8
128,280,80421,5,0
184,304,80766,1,0
248,312,81111,1,8
312,304,81456,6,0,B|416:312|408:192,1,160,4|0
408,80,82835,2,0,B|304:72|312:192,1,160,0|8
184,176,84214,6,0,B|192:72|72:80,1,160,4|0
88,208,85594,1,0
88,272,85938,1,0
216,240,86628,1,0
280,248,86973,6,0,B|366:307|419:199,1,160,4|0
304,144,88352,2,0,B|275:43|165:91,1,160,0|8
200,208,89731,5,0
144,328,90421,1,8
256,192,90938,12,4,92490
384,184,103525,5,4
168,40,104904,1,0
88,280,106283,6,0,B|224:292|298:218|286:71,1,320,2|0
440,296,109042,5,4
424,168,109731,1,8
320,88,110421,1,0
72,136,111800,5,2
128,248,112490,1,8
208,152,113180,1,0
264,264,113869,1,0
208,152,114559,6,0,B|313:65|416:83|491:210,1,320,4|2
240,288,117318,5,4
320,192,118007,1,8
192,168,118697,1,2
424,72,120076,5,4
304,112,120766,1,8
400,200,121456,2,0,B|400:268|343:307|274:264,1,160,0|8
176,216,122835,5,2
296,168,123525,1,8
192,96,124214,2,0,B|170:32|103:15|52:79,1,160,0|8
112,184,125594,5,4
144,304,126283,1,8
264,344,126973,1,0
384,296,127662,1,8
416,176,128352,5,6
320,88,129042,1,8
200,120,129731,1,0
296,200,130421,1,8
176,248,131111,6,0,B|224:424|376:128|432:320,1,320,4|0
424,176,133180,1,8
336,80,133869,5,2
296,200,134559,1,8
208,112,135249,1,0
80,336,136628,5,4
184,256,137318,1,8
280,176,138007,1,0
40,88,139387,5,2
144,168,140076,1,8
248,240,140766,1,0
432,56,142145,6,0,B|256:56,1,160,2|8
192,152,143525,2,0,B|360:152,1,160,0|8
408,264,144904,5,0
280,264,145594,1,8
152,240,146283,1,2
112,184,146628,5,0
112,120,146973,1,0
152,72,147318,1,0
208,48,147662,6,0,B|302:4|336:120,1,160,4|0
336,232,149042,2,0,B|307:332|197:283,1,160,0|8
200,160,150421,6,0,B|96:168|104:48,1,160,4|0
232,64,151800,1,0
296,64,152145,1,0
408,128,152835,1,0
408,192,153180,6,0,B|347:277|260:194,1,160,4|0
168,280,154559,2,8,B|83:218|166:132,1,160,0|8
264,208,155938,5,4
384,248,156628,1,0
352,120,157318,1,8
312,72,157662,5,0
248,56,158007,1,0
184,64,158352,1,8
128,88,158697,6,0,B|27:116|76:226,1,160,4|0
192,256,160076,2,0,B|292:227|243:117,1,160,0|8
376,96,161456,6,0,B|368:200|488:192,1,160,4|0
344,216,162835,1,0
384,168,163180,1,0
304,264,163869,1,0
240,280,164214,6,0,B|154:339|101:231,1,160,4|0
200,152,165594,2,0,B|171:51|61:99,1,160,0|8
96,216,166973,5,0
208,280,167662,1,8
256,192,168180,12,4,169731
