osu file format v8

[General]
AudioFilename: love the way u lie.mp3
AudioLeadIn: 0
PreviewTime: 68697
Countdown: 0
SampleSet: Soft
StackLeniency: 0.7
Mode: 0
LetterboxInBreaks: 1

[Editor]
Bookmarks: 227662,228352,249731
DistanceSpacing: 1
BeatDivisor: 2
GridSize: 8

[Metadata]
Title:Love The Way You Lie
Artist:Eminem ft. Rihanna
Creator:nickopet2007
Version:Burn
Source:
Tags:Recovery Sander-Don SanderCohen

[Difficulty]
HPDrainRate:6
CircleSize:5
OverallDifficulty:8
ApproachRate:8
SliderMultiplier:1.4
SliderTickRate:2

[Events]
//Background and Video events
Video,-1089,"Eminem - Love The Way You Lie ft. Rihanna.flv"
//Break Periods
2,92727,98674
2,169969,175915
2,221693,225915
//Storyboard Layer 0 (Background)
//Storyboard Layer 1 (Fail)
//Storyboard Layer 2 (Pass)
//Storyboard Layer 3 (Foreground)
//Storyboard Sound Samples
//Background Colour Transformations
3,100,255,0,0

[TimingPoints]
26321,344.827586206897,4,2,1,40,1,0
70431,-100,4,2,0,40,0,1
92490,-100,4,2,0,100,0,0
99387,-100,4,2,0,0,0,0
101628,-100,4,2,0,100,0,0
147662,-100,4,2,0,100,0,1
169731,-100,4,2,0,100,0,0
176628,-100,4,2,0,0,0,0
179042,-100,4,2,0,100,0,0
227662,-100,4,2,0,100,0,1
249731,-100,4,2,0,100,0,0

[Colours]
Combo1 : 160,46,209
Combo2 : 5,216,239
Combo3 : 255,128,0
Combo4 : 29,5,239

[HitObjects]
256,192,26321,5,2
256,192,26493,1,0
256,192,26665,1,0
368,112,27010,5,8
408,168,27183,1,0
408,240,27355,1,0
352,280,27527,1,8
280,288,27700,6,0,B|192:288,1,70
136,288,28045,2,0,B|80:280|56:232,1,70
74,258,28389,1,8
72,120,28734,1,0
216,120,29079,6,0,B|160:48,2,70,2|0|0
256,176,29596,1,0
256,176,29769,1,8
304,232,29941,1,0
304,232,30114,1,0
400,336,30458,5,0
256,336,30803,2,0,B|192:280,1,70
203,289,31148,1,10
112,184,31493,1,0
248,184,31838,5,2
248,184,32010,1,0
360,104,32355,1,0
472,184,32700,2,0,B|504:240,2,35
360,104,33217,1,0
216,104,33562,5,0
216,104,33734,1,0
216,104,33907,1,8
104,184,34252,1,0
144,320,34596,6,0,B|208:360|296:312,1,140,2|0
376,224,35286,1,8
376,224,35631,1,0
464,120,35976,2,0,B|440:40|328:40,1,140
216,40,36665,1,8
216,40,37010,1,0
104,216,37527,6,0,B|176:256,1,70
165,249,37872,1,0
165,249,38045,2,0,B|256:200,1,70,8|0
226,216,38389,1,0
226,216,38562,2,0,B|320:264,1,70,8|0
288,248,38907,1,0
400,160,39252,5,0
368,96,39424,1,8
312,56,39596,1,0
240,56,39769,1,0
240,128,39941,1,0
240,128,40114,1,2
240,272,40458,6,0,B|176:320|96:272,1,140,0|8
64,224,40976,1,0
64,152,41148,2,0,B|104:80|208:64,1,140
240,56,41665,1,0
336,160,42010,5,0
336,160,42183,1,8
336,160,42355,1,0
384,216,42527,1,0
240,224,42872,5,2
240,224,43045,2,0,B|168:264,1,70
120,288,43389,1,0
120,288,43562,2,0,B|56:224,1,70,8|0
24,184,43907,1,0
24,184,44079,2,0,B|96:120,1,70,8|0
184,48,44596,6,0,B|216:24|264:56,1,70
250,47,44941,2,0,B|288:80|232:128,1,70,8|0
192,144,45286,1,0
416,304,45803,5,0
328,192,46148,1,0
296,256,46321,1,0
256,192,46493,1,0
224,256,46665,1,0
128,256,47010,1,0
160,144,47355,5,0
160,144,47527,1,0
160,144,47700,2,0,B|208:88|296:56,1,140,8|0
384,240,48562,6,0,B|384:320,2,70
384,96,49252,1,0
320,120,49424,1,0
256,96,49596,1,8
192,120,49769,1,0
72,136,50458,5,8
72,136,50631,1,0
72,136,50803,1,0
136,264,51148,6,0,B|136:360,2,70,2|0|0
160,200,51665,2,0,B|248:112|336:232|224:288,1,210
136,336,52527,1,0
160,200,52872,6,0,B|160:120,3,70,0|0|8|0
160,56,53562,1,0
296,56,53907,5,2
352,96,54079,1,0
376,160,54252,1,0
376,232,54424,1,0
336,288,54596,1,8
264,280,54769,6,0,B|216:280|192:248,1,70
160,200,55114,1,8
136,136,55286,2,0,B|112:96|64:96,1,70
80,97,55631,1,0
80,97,55803,2,0,B|32:96|16:160,1,70,0|8
25,133,56148,1,0
24,200,56321,1,0
136,288,56665,5,2
192,248,56838,1,0
248,288,57010,1,0
304,328,57183,2,0,B|368:360|448:320,1,140
480,272,57700,1,0
488,200,57872,2,0,B|512:112|408:72,1,140,8|0
296,56,58562,5,0
296,56,58734,1,8
296,56,58907,1,0
224,56,59079,1,0
312,168,59424,5,2
240,168,59596,1,0
168,168,59769,1,0
104,200,59941,1,0
104,272,60114,1,8
168,296,60286,2,0,B|240:296|320:256,1,140,0|8
360,224,60803,1,0
240,168,61148,5,0
192,120,61321,1,0
144,72,61493,2,0,B|88:48|64:96,2,70,8|0|0
288,64,62183,6,0,B|376:72|432:152,1,140,2|0
448,184,62700,1,0
448,184,62872,1,8
448,328,63217,1,0
336,248,63562,6,0,B|288:192,3,70
290,194,64252,1,8
232,160,64424,1,0
160,160,64596,1,0
88,280,64941,5,2
120,216,65114,1,0
200,96,65458,1,0
272,216,65803,1,0
304,280,65976,1,0
376,280,66148,6,0,B|440:232,1,70,8|0
432,238,66493,2,0,B|376:160,1,70
391,181,66838,2,0,B|448:120,1,70,0|8
438,129,67183,1,0
438,129,67355,1,0
304,96,67700,6,0,B|272:184|176:184,3,140,0|0|8|0
112,48,69079,1,0
112,48,69424,5,0
144,184,69769,1,0
200,312,70114,1,0
256,184,70458,6,0,B|296:72|424:56,1,210,6|0
272,304,71838,2,0,B|184:320|112:296,2,140,0|0|8
392,224,72872,1,0
464,104,73217,1,2
144,56,74424,5,8
144,56,74596,1,0
144,200,74941,2,0,B|200:288|256:184,2,140,0|8|0
144,56,75976,1,2
256,136,76321,5,0
256,136,76493,1,0
256,344,77010,5,0
256,344,77183,1,8
440,240,77700,5,0
440,240,77872,1,0
344,136,78217,5,0
272,136,78389,1,0
256,192,78562,12,0,80114
400,48,80458,5,0
368,184,80803,1,8
312,312,81148,1,0
320,168,81493,6,0,B|160:80|40:200,1,280,2|0
240,304,82872,2,0,B|328:320|400:296,2,140,0|0|8
120,224,83907,1,0
48,104,84252,1,2
368,56,85458,5,8
368,56,85631,1,0
368,200,85976,2,0,B|312:288|256:184,2,140,0|8|0
368,56,87010,1,2
256,136,87355,5,0
256,136,87527,1,0
256,344,88045,5,0
256,344,88217,1,8
72,240,88734,5,0
72,240,88907,1,0
168,136,89252,5,0
240,136,89424,1,0
256,192,89596,12,0,90803
152,64,91148,6,0,B|88:104|32:176,1,140
47,156,91665,1,0
47,156,91838,2,0,B|56:240|136:296,1,140,8|0
111,277,92355,1,0
168,320,92527,1,6
256,192,99424,12,0,101665
256,192,101838,6,0,B|256:112,2,70
296,248,102355,2,0,B|360:312,2,70
224,248,102872,2,0,B|160:304,2,70
176,200,103389,1,0
216,144,103562,1,2
264,96,103734,2,0,B|336:64|424:112,1,140
456,232,104424,5,0
392,264,104596,1,0
328,296,104769,2,0,B|272:344|168:288,1,140,8|0
144,256,105286,5,0
120,192,105458,1,0
144,128,105631,1,8
200,88,105803,1,0
272,88,105976,2,0,B|376:104|376:200,1,140
416,232,106493,6,0,B|480:168,2,70
360,280,107010,1,8
304,232,107183,2,0,B|240:176,2,70,0|0|8
360,280,107700,6,0,B|296:336|224:336,1,140
168,320,108217,1,0
112,280,108389,2,0,B|48:224|112:128,1,140,8|0
144,104,108907,5,0
200,64,109079,1,2
344,64,109424,1,0
392,112,109596,1,0
424,176,109769,6,0,B|384:256|296:264,1,140,8|0
256,288,110286,2,0,B|256:368,2,70,8|0|0
256,216,110803,1,0
256,216,110976,1,0
256,144,111148,6,0,B|208:72|112:72,2,140,8|0|0
304,192,112010,1,0
352,144,112183,2,0,B|384:72|496:72,2,140,0|8|0
304,192,113045,1,8
304,264,113217,1,0
304,336,113389,1,0
160,336,113734,5,0
160,264,113907,1,8
160,192,114079,1,0
200,136,114252,2,0,B|256:136|272:96,2,70,0|2|2
160,192,114769,1,0
120,136,114941,6,0,B|64:136|48:96,2,70,0|0|8
160,192,115458,1,0
160,264,115631,1,0
160,336,115803,1,8
160,336,115976,1,0
160,336,116148,1,0
232,336,116321,6,0,B|408:336,1,140,0|8
372,336,116838,1,0
440,336,117010,2,0,B|440:168,1,140,0|2
432,56,117700,6,0,B|368:32|272:56,1,140,0|8
232,80,118217,1,0
168,56,118389,2,0,B|96:24|16:64,1,140
32,200,119079,5,0
32,200,119252,1,0
32,272,119424,1,8
32,272,119596,1,0
160,328,119941,5,0
160,328,120114,2,0,B|304:328,3,140,0|0|8|0
440,328,121493,5,0
376,200,121838,1,0
296,80,122183,2,0,B|296:-8,2,70,8|0|0
296,152,122700,2,0,B|296:240,1,70,0|2
296,360,123217,5,0
296,360,123389,1,0
296,360,123562,2,0,B|208:360|160:280,1,140,8|0
174,301,124079,1,8
174,301,124252,2,0,B|112:240|168:152,1,140
156,173,124769,1,0
156,173,124941,2,0,B|184:104|272:72,1,140,8|0
254,78,125458,1,2
328,80,125631,5,2
432,176,125976,1,0
432,248,126148,1,0
376,288,126321,2,0,B|280:352,2,105,8|0|8
432,248,127010,1,0
432,176,127183,1,0
432,104,127355,1,0
304,56,127700,5,8
240,80,127872,1,0
176,56,128045,1,0
120,96,128217,1,0
80,152,128389,6,0,B|24:224|104:288,1,140,2|0
144,320,128907,1,0
216,328,129079,2,0,B|288:328,1,70,8|0
360,328,129424,1,0
360,192,129769,6,0,B|360:104,2,70
288,192,130286,2,0,B|288:288,2,70,0|8|0
216,192,130803,2,0,B|216:96,2,70
216,336,131493,5,0
216,336,131665,2,0,B|144:336|80:296,1,140
83,297,132183,1,0
104,160,132527,6,0,B|48:96,2,70
152,208,133045,1,0
200,160,133217,2,0,B|248:112|352:88,1,140,8|0
392,80,133734,1,0
464,96,133907,6,0,B|496:168|456:232,1,140,2|0
344,312,134596,1,8
280,280,134769,1,0
216,312,134941,1,0
144,312,135114,1,8
104,256,135286,6,0,B|64:176|144:112,1,140
232,40,135976,1,8
232,40,136148,1,0
272,96,136321,1,0
272,96,136493,1,0
312,40,136665,1,2
312,40,136838,1,0
352,96,137010,1,0
416,224,137355,5,8
304,312,137700,1,0
248,272,137872,2,0,B|192:264|176:224,1,70,8|0
186,242,138217,1,0
136,192,138389,1,0
256,120,138734,6,0,B|256:24,2,70,8|0|0
256,192,139252,1,0
256,264,139424,2,0,B|256:344,2,70,2|0|0
136,192,140114,6,0,B|48:216|32:296,1,140,8|0
16,352,140631,1,8
80,328,140803,1,0
144,352,140976,1,0
208,328,141148,1,0
296,216,141493,5,8
344,168,141665,1,0
312,104,141838,1,0
248,72,142010,1,0
184,104,142183,1,2
80,200,142527,6,0,B|88:280|192:280,1,140,0|8
248,280,143045,1,0
320,280,143217,2,0,B|416:280|424:208,1,140
424,72,143907,5,0
424,72,144079,1,0
424,72,144252,1,8
424,72,144424,1,0
424,72,144596,6,0,B|352:72|272:120,1,140
248,168,145114,1,0
240,240,145286,2,0,B|328:272|408:224,1,140,0|8
448,192,145803,2,0,B|448:120,2,70,0|0|8
448,192,146321,1,0
448,192,146665,5,0
304,192,147010,1,0
160,192,147355,1,0
72,80,147700,6,0,B|192:48|272:136,1,210,6|0
304,192,148389,1,8
168,288,148734,1,0
80,360,149079,6,0,B|32:296|80:224,2,140,0|0|8
200,288,150114,1,0
304,192,150458,1,2
184,112,151665,5,8
184,112,151838,1,0
184,112,152183,2,0,B|128:48|56:120,2,140,0|8|0
264,224,153217,1,2
352,112,153562,5,0
352,112,153734,1,0
352,320,154252,5,0
352,320,154424,1,8
176,208,154941,5,0
176,208,155114,1,0
320,208,155458,5,0
240,96,155803,1,0
280,152,155976,1,2
72,344,156665,5,8
216,344,157010,1,0
216,344,157183,1,8
216,344,157355,1,0
336,272,157700,6,0,B|416:216|384:128,1,140,0|8
296,48,158389,1,0
160,56,158734,6,0,B|56:96|56:240,1,210,2|0
56,223,159424,1,8
176,296,159769,1,0
296,224,160114,2,0,B|344:152|264:80,2,140,0|0|8
176,152,161148,1,0
176,296,161493,1,2
432,288,162700,5,8
376,240,162872,1,0
256,168,163217,2,0,B|176:176|104:240,1,140,0|8
128,220,163907,1,0
48,336,164252,1,0
192,336,164596,5,0
264,336,164769,1,0
264,128,165286,5,0
264,200,165458,1,8
456,280,165976,5,0
384,280,166148,1,0
240,280,166493,5,0
168,280,166665,1,0
256,192,166838,12,6,169769
256,192,176665,12,0,179079
112,80,180114,5,0
192,80,180286,1,0
152,144,180458,1,0
112,80,180631,1,0
192,80,180803,1,0
272,216,181148,1,0
376,104,181493,5,0
376,256,181838,1,0
240,328,182183,5,0
240,248,182355,1,0
160,248,182527,1,0
160,96,182872,1,0
128,152,183217,5,0
208,152,183389,1,0
288,152,183562,1,0
192,272,183907,1,0
272,272,184079,1,0
352,272,184252,1,0
432,272,184424,1,0
432,192,184596,1,0
280,192,184941,2,0,B|384:192,1,70
216,112,185458,6,0,B|328:112,1,70
440,120,185976,1,0
328,224,186321,1,0
248,224,186493,2,0,B|168:224,3,70
176,224,187183,1,0
176,144,187355,1,0
256,144,187527,1,0
256,64,187700,1,0
176,64,187872,1,0
176,216,188217,5,0
176,296,188389,1,0
96,296,188562,1,0
96,216,188734,1,0
176,88,189079,1,0
256,88,189252,1,0
336,88,189424,1,0
336,168,189596,1,0
256,168,189769,1,0
224,248,189941,5,0
312,248,190114,1,0
224,248,190286,1,0
144,248,190458,1,0
184,176,190631,1,0
224,0,191148,6,0,B|296:0,1,70
256,80,191493,1,0
296,192,191838,1,0
216,192,192010,1,0
64,288,192355,5,0
128,288,192527,1,0
192,288,192700,1,0
256,288,192872,1,0
448,288,193217,5,0
384,288,193389,1,0
320,288,193562,1,0
256,288,193734,1,0
256,208,193907,1,0
48,48,194252,5,0
96,96,194424,1,0
144,48,194596,1,0
192,96,194769,1,0
240,48,194941,2,0,B|288:112,2,70
288,112,195458,1,0
232,168,195631,1,0
152,168,195803,1,0
72,168,195976,1,0
112,232,196148,1,0
192,232,196321,1,0
272,232,196493,1,0
320,168,196665,1,0
456,232,197010,5,0
416,296,197183,1,0
336,304,197355,1,0
256,304,197527,1,0
184,264,197700,2,0,B|136:200,1,70
104,144,198045,1,0
184,136,198217,1,0
264,144,198389,2,0,B|408:144,1,140
408,144,198907,1,0
416,224,199079,1,0
336,224,199252,1,0
256,224,199424,2,0,B|112:224,1,140
120,224,199941,1,0
120,304,200114,5,0
200,304,200286,1,0
248,240,200458,1,0
328,240,200631,1,0
336,160,200803,1,0
336,80,200976,1,0
416,80,201148,1,0
424,160,201321,1,0
424,240,201493,1,0
256,192,202010,12,0,202872
256,192,203045,5,0
256,112,203217,1,0
320,64,203389,1,0
472,64,203734,1,0
464,144,203907,1,0
456,224,204079,1,0
392,272,204252,1,0
400,120,204596,1,0
328,152,204769,1,0
272,200,204941,1,0
120,240,205286,1,0
240,144,205631,5,0
320,144,205803,1,0
400,144,205976,1,0
480,144,206148,2,0,B|480:64,2,70
480,296,206838,1,0
400,296,207010,1,0
248,296,207355,1,0
248,216,207527,1,0
168,216,207700,1,0
320,216,208045,1,0
128,64,208389,5,0
208,64,208562,1,0
288,64,208734,1,0
368,64,208907,1,0
448,64,209079,1,0
448,176,209424,1,0
448,176,209769,5,0
368,176,209941,1,0
288,176,210114,1,0
208,176,210286,1,0
128,176,210458,1,0
128,64,210803,1,0
256,64,211148,5,0
256,240,211493,1,0
336,192,211665,1,0
336,112,211838,1,0
400,152,212010,1,0
464,184,212183,1,0
464,248,212355,1,0
400,216,212527,1,0
280,216,212872,1,0
280,152,213045,1,0
280,88,213217,1,0
400,88,213562,1,0
400,16,213907,5,0
272,16,214252,1,0
160,16,214596,1,0
208,72,214769,1,0
160,136,214941,1,0
208,200,215114,1,0
160,264,215286,1,0
80,128,215631,1,0
232,136,215976,5,0
384,136,216321,2,0,B|464:136,2,70
240,176,217010,1,0
240,256,217183,1,0
240,336,217355,1,0
320,336,217527,1,0
320,256,217700,1,0
320,176,217872,1,0
400,176,218045,1,0
256,160,218562,5,0
176,240,218734,2,0,B|272:240,1,70
176,160,219079,1,0
176,80,219252,1,0
96,80,219424,1,0
96,240,219769,1,0
96,160,219941,1,0
176,160,220114,1,0
256,160,220286,1,0
336,160,220458,1,0
432,32,220803,5,0
432,112,220976,1,0
432,192,221148,1,0
352,192,221321,1,0
272,192,221493,1,0
80,48,226665,5,0
176,48,227010,1,0
272,48,227355,1,0
368,48,227700,2,0,B|368:352,1,280
272,336,228734,1,0
176,336,229079,1,0
176,192,229596,1,0
320,192,230114,1,0
128,64,231665,5,0
176,64,231838,1,0
272,64,232183,1,0
272,256,232872,1,0
80,176,233562,1,0
80,176,233734,1,0
224,176,234252,1,0
224,176,234424,1,0
368,176,234941,1,0
368,176,235114,1,0
224,176,235631,1,0
224,176,235803,1,0
432,304,236665,5,8
336,304,237010,1,0
336,304,237183,1,8
336,304,237355,1,0
280,224,237700,5,0
280,128,238045,1,0
376,128,238389,1,0
376,32,238734,2,0,B|88:32,1,280
96,128,239769,1,0
96,224,240114,1,0
240,224,240631,1,0
240,80,241148,1,0
48,64,242700,5,0
128,64,242872,1,0
96,144,243217,2,0,B|384:144,1,280
448,304,244596,2,0,B|352:304,1,70
256,304,245286,2,0,B|160:304,1,70
96,208,245976,2,0,B|192:208,1,70
288,208,246665,2,0,B|384:208,1,70
256,192,247010,12,0,249769
